  0
SECTION
  2
HEADER
  9
$ACADVER
  1
AC1015
  9
$ACADMAINTVER
 70
    20
  9
$DWGCODEPAGE
  3
ANSI_932
  9
$INSBASE
 10
0.0
 20
0.0
 30
0.0
  9
$EXTMIN
 10
-40.5456880203642
 20
-613.7486286255498
 30
-0.0000000000000058
  9
$EXTMAX
 10
1145.042349510725
 20
238.4695842128463
 30
0.0000000000000104
  9
$LIMMIN
 10
11.39517
 20
16.086529
  9
$LIMMAX
 10
202.102048
 20
281.326325
  9
$ORTHOMODE
 70
     0
  9
$REGENMODE
 70
     1
  9
$FILLMODE
 70
     1
  9
$QTEXTMODE
 70
     0
  9
$MIRRTEXT
 70
     1
  9
$LTSCALE
 40
0.3
  9
$ATTMODE
 70
     1
  9
$TEXTSIZE
 40
0.0
  9
$TRACEWID
 40
0.05
  9
$TEXTSTYLE
  7
Standard
  9
$CLAYER
  8
0
  9
$CELTYPE
  6
ByLayer
  9
$CECOLOR
 62
     6
  9
$CELTSCALE
 40
1.0
  9
$DISPSILH
 70
     0
  9
$DIMSCALE
 40
40.0
  9
$DIMASZ
 40
0.18
  9
$DIMEXO
 40
0.0625
  9
$DIMDLI
 40
0.38
  9
$DIMRND
 40
0.0
  9
$DIMDLE
 40
0.0
  9
$DIMEXE
 40
0.1
  9
$DIMTP
 40
0.0
  9
$DIMTM
 40
0.0
  9
$DIMTXT
 40
0.3
  9
$DIMCEN
 40
0.0
  9
$DIMTSZ
 40
0.0
  9
$DIMTOL
 70
     0
  9
$DIMLIM
 70
     0
  9
$DIMTIH
 70
     0
  9
$DIMTOH
 70
     0
  9
$DIMSE1
 70
     0
  9
$DIMSE2
 70
     0
  9
$DIMTAD
 70
     1
  9
$DIMZIN
 70
     0
  9
$DIMBLK
  1
Open30
  9
$DIMASO
 70
     1
  9
$DIMSHO
 70
     1
  9
$DIMPOST
  1

  9
$DIMAPOST
  1

  9
$DIMALT
 70
     0
  9
$DIMALTD
 70
     2
  9
$DIMALTF
 40
25.4
  9
$DIMLFAC
 40
1.0
  9
$DIMTOFL
 70
     0
  9
$DIMTVP
 40
0.0
  9
$DIMTIX
 70
     0
  9
$DIMSOXD
 70
     0
  9
$DIMSAH
 70
     0
  9
$DIMBLK1
  1

  9
$DIMBLK2
  1

  9
$DIMSTYLE
  2
1-2
  9
$DIMCLRD
 70
     0
  9
$DIMCLRE
 70
     0
  9
$DIMCLRT
 70
     0
  9
$DIMTFAC
 40
1.0
  9
$DIMGAP
 40
0.05
  9
$DIMJUST
 70
     0
  9
$DIMSD1
 70
     0
  9
$DIMSD2
 70
     0
  9
$DIMTOLJ
 70
     1
  9
$DIMTZIN
 70
     0
  9
$DIMALTZ
 70
     0
  9
$DIMALTTZ
 70
     0
  9
$DIMUPT
 70
     0
  9
$DIMDEC
 70
     0
  9
$DIMTDEC
 70
     0
  9
$DIMALTU
 70
     2
  9
$DIMALTTD
 70
     2
  9
$DIMTXSTY
  7
スタイル1
  9
$DIMAUNIT
 70
     0
  9
$DIMADEC
 70
     0
  9
$DIMALTRND
 40
0.0
  9
$DIMAZIN
 70
     0
  9
$DIMDSEP
 70
    46
  9
$DIMATFIT
 70
     3
  9
$DIMFRAC
 70
     0
  9
$DIMLDRBLK
  1
Open30
  9
$DIMLUNIT
 70
     2
  9
$DIMLWD
 70
    -2
  9
$DIMLWE
 70
    -2
  9
$DIMTMOVE
 70
     0
  9
$LUNITS
 70
     2
  9
$LUPREC
 70
     4
  9
$SKETCHINC
 40
0.1
  9
$FILLETRAD
 40
0.0
  9
$AUNITS
 70
     0
  9
$AUPREC
 70
     0
  9
$MENU
  1
acad
  9
$ELEVATION
 40
0.0
  9
$PELEVATION
 40
0.0
  9
$THICKNESS
 40
0.0
  9
$LIMCHECK
 70
     0
  9
$CHAMFERA
 40
0.0
  9
$CHAMFERB
 40
0.0
  9
$CHAMFERC
 40
0.0
  9
$CHAMFERD
 40
0.0
  9
$SKPOLY
 70
     0
  9
$TDCREATE
 40
2455201.595402535
  9
$TDUCREATE
 40
2455201.220402535
  9
$TDUPDATE
 40
2455240.546821505
  9
$TDUUPDATE
 40
2455240.171821505
  9
$TDINDWG
 40
0.1256579167
  9
$TDUSRTIMER
 40
0.1256517593
  9
$USRTIMER
 70
     1
  9
$ANGBASE
 50
0.0
  9
$ANGDIR
 70
     0
  9
$PDMODE
 70
     0
  9
$PDSIZE
 40
0.0
  9
$PLINEWID
 40
0.0
  9
$SPLFRAME
 70
     0
  9
$SPLINETYPE
 70
     6
  9
$SPLINESEGS
 70
     8
  9
$HANDSEED
  5
F96
  9
$SURFTAB1
 70
     6
  9
$SURFTAB2
 70
     6
  9
$SURFTYPE
 70
     6
  9
$SURFU
 70
     6
  9
$SURFV
 70
     6
  9
$UCSBASE
  2

  9
$UCSNAME
  2

  9
$UCSORG
 10
0.0
 20
0.0
 30
0.0
  9
$UCSXDIR
 10
1.0
 20
0.0
 30
0.0
  9
$UCSYDIR
 10
0.0
 20
1.0
 30
0.0
  9
$UCSORTHOREF
  2

  9
$UCSORTHOVIEW
 70
     0
  9
$UCSORGTOP
 10
0.0
 20
0.0
 30
0.0
  9
$UCSORGBOTTOM
 10
0.0
 20
0.0
 30
0.0
  9
$UCSORGLEFT
 10
0.0
 20
0.0
 30
0.0
  9
$UCSORGRIGHT
 10
0.0
 20
0.0
 30
0.0
  9
$UCSORGFRONT
 10
0.0
 20
0.0
 30
0.0
  9
$UCSORGBACK
 10
0.0
 20
0.0
 30
0.0
  9
$PUCSBASE
  2

  9
$PUCSNAME
  2

  9
$PUCSORG
 10
0.0
 20
0.0
 30
0.0
  9
$PUCSXDIR
 10
1.0
 20
0.0
 30
0.0
  9
$PUCSYDIR
 10
0.0
 20
1.0
 30
0.0
  9
$PUCSORTHOREF
  2

  9
$PUCSORTHOVIEW
 70
     0
  9
$PUCSORGTOP
 10
0.0
 20
0.0
 30
0.0
  9
$PUCSORGBOTTOM
 10
0.0
 20
0.0
 30
0.0
  9
$PUCSORGLEFT
 10
0.0
 20
0.0
 30
0.0
  9
$PUCSORGRIGHT
 10
0.0
 20
0.0
 30
0.0
  9
$PUCSORGFRONT
 10
0.0
 20
0.0
 30
0.0
  9
$PUCSORGBACK
 10
0.0
 20
0.0
 30
0.0
  9
$USERI1
 70
     0
  9
$USERI2
 70
     0
  9
$USERI3
 70
     0
  9
$USERI4
 70
     0
  9
$USERI5
 70
     0
  9
$USERR1
 40
0.0
  9
$USERR2
 40
0.0
  9
$USERR3
 40
0.0
  9
$USERR4
 40
0.0
  9
$USERR5
 40
0.0
  9
$WORLDVIEW
 70
     1
  9
$SHADEDGE
 70
     3
  9
$SHADEDIF
 70
    70
  9
$TILEMODE
 70
     1
  9
$MAXACTVP
 70
    16
  9
$PINSBASE
 10
0.0
 20
0.0
 30
0.0
  9
$PLIMCHECK
 70
     0
  9
$PEXTMIN
 10
1.000000000000000E+20
 20
1.000000000000000E+20
 30
1.000000000000000E+20
  9
$PEXTMAX
 10
-1.000000000000000E+20
 20
-1.000000000000000E+20
 30
-1.000000000000000E+20
  9
$PLIMMIN
 10
0.0
 20
0.0
  9
$PLIMMAX
 10
12.0
 20
9.0
  9
$UNITMODE
 70
     0
  9
$VISRETAIN
 70
     0
  9
$PLINEGEN
 70
     1
  9
$PSLTSCALE
 70
     0
  9
$TREEDEPTH
 70
  3020
  9
$CMLSTYLE
  2
Standard
  9
$CMLJUST
 70
     0
  9
$CMLSCALE
 40
1.0
  9
$PROXYGRAPHICS
 70
     0
  9
$MEASUREMENT
 70
     1
  9
$CELWEIGHT
370
    -1
  9
$ENDCAPS
280
     0
  9
$JOINSTYLE
280
     0
  9
$LWDISPLAY
290
     0
  9
$INSUNITS
 70
     0
  9
$HYPERLINKBASE
  1

  9
$STYLESHEET
  1

  9
$XEDIT
290
     1
  9
$CEPSNTYPE
380
     0
  9
$PSTYLEMODE
290
     1
  9
$FINGERPRINTGUID
  2

  9
$VERSIONGUID
  2
{9C1FA534-4CEC-463F-B2B1-B9D818D750DA}
  9
$EXTNAMES
290
     1
  9
$PSVPSCALE
 40
0.0
  9
$OLESTARTUP
290
     0
  0
ENDSEC
  0
SECTION
  2
CLASSES
  0
CLASS
  1
IMAGE
  2
AcDbRasterImage
  3
ISM
 90
    32895
280
     0
281
     1
  0
CLASS
  1
DICTIONARYVAR
  2
AcDbDictionaryVar
  3
ObjectDBX Classes
 90
        0
280
     0
281
     0
  0
CLASS
  1
RASTERVARIABLES
  2
AcDbRasterVariables
  3
ISM
 90
    32768
280
     0
281
     0
  0
CLASS
  1
IMAGEDEF
  2
AcDbRasterImageDef
  3
ISM
 90
    32768
280
     0
281
     0
  0
CLASS
  1
IMAGEDEF_REACTOR
  2
AcDbRasterImageDefReactor
  3
ISM
 90
    32769
280
     0
281
     0
  0
CLASS
  1
IDBUFFER
  2
AcDbIdBuffer
  3
ObjectDBX Classes
 90
    32768
280
     0
281
     0
  0
CLASS
  1
SPATIAL_FILTER
  2
AcDbSpatialFilter
  3
ObjectDBX Classes
 90
    32768
280
     0
281
     0
  0
CLASS
  1
SORTENTSTABLE
  2
AcDbSortentsTable
  3
ObjectDBX Classes
 90
    32768
280
     0
281
     0
  0
CLASS
  1
LAYER_INDEX
  2
AcDbLayerIndex
  3
ObjectDBX Classes
 90
    32768
280
     0
281
     0
  0
CLASS
  1
SPATIAL_INDEX
  2
AcDbSpatialIndex
  3
ObjectDBX Classes
 90
    32768
280
     0
281
     0
  0
CLASS
  1
OBJECT_PTR
  2
CAseDLPNTableRecord
  3
"ASE-LPNTableRecord"
 90
    32769
280
     0
281
     0
  0
CLASS
  1
LAYOUT
  2
AcDbLayout
  3
ObjectDBX Classes
 90
        0
280
     0
281
     0
  0
CLASS
  1
PLOTSETTINGS
  2
AcDbPlotSettings
  3
ObjectDBX Classes
 90
    32768
280
     0
281
     0
  0
CLASS
  1
ACDBDICTIONARYWDFLT
  2
AcDbDictionaryWithDefault
  3
ObjectDBX Classes
 90
        0
280
     0
281
     0
  0
CLASS
  1
ACDBPLACEHOLDER
  2
AcDbPlaceHolder
  3
ObjectDBX Classes
 90
        0
280
     0
281
     0
  0
CLASS
  1
VBA_PROJECT
  2
AcDbVbaProject
  3
acad
 90
    32768
280
     0
281
     0
  0
CLASS
  1
WIPEOUT
  2
AcDbWipeout
  3
"WipeOut|Product Desc: Object Enabler for WipeOut entity^I^I^I^I^I^I|Company: Autodesk, Inc.^I^I^I^I^I^I|WEB Address: www.autodesk.com"
 90
    32895
280
     0
281
     1
  0
CLASS
  1
WIPEOUTVARIABLES
  2
AcDbWipeoutVariables
  3
"WipeOut|Product Desc:     WipeOut Dbx Application|Company:          Autodesk, Inc.|WEB Address:      www.autodesk.com"
 90
        0
280
     0
281
     0
  0
CLASS
  1
RTEXT
  2
RText
  3
RText|AutoCAD Express Tool|expresstools@autodesk.com
 90
    32768
280
     0
281
     1
  0
CLASS
  1
ARCALIGNEDTEXT
  2
AcDbArcAlignedText
  3
ATEXT|AutoCAD Express Tool|expresstools@autodesk.com
 90
    32768
280
     0
281
     1
  0
ENDSEC
  0
SECTION
  2
TABLES
  0
TABLE
  2
VPORT
  5
7
330
0
100
AcDbSymbolTable
 70
     2
  0
VPORT
  5
F8E
330
7
100
AcDbSymbolTableRecord
100
AcDbViewportTableRecord
  2
*Active
 70
     0
 10
0.0
 20
0.0
 11
1.0
 21
1.0
 12
552.2483307451802
 22
-166.2111518127749
 13
0.0
 23
0.0
 14
1.0
 24
1.0
 15
0.0
 25
0.0
 16
0.0
 26
0.0
 36
1.0
 17
0.0
 27
0.0
 37
0.0
 40
937.1073124842713
 41
1.276315789473684
 42
50.0
 43
0.0
 44
0.0
 50
0.0
 51
0.0
 71
     0
 72
   100
 73
     1
 74
     1
 75
     0
 76
     0
 77
     0
 78
     0
281
     0
 65
     0
110
0.0
120
0.0
130
0.0
111
1.0
121
0.0
131
0.0
112
0.0
122
1.0
132
0.0
 79
     0
146
0.0
  0
ENDTAB
  0
TABLE
  2
LTYPE
  5
4
330
0
100
AcDbSymbolTable
 70
     4
  0
LTYPE
  5
11
330
4
100
AcDbSymbolTableRecord
100
AcDbLinetypeTableRecord
  2
ByBlock
 70
     0
  3

 72
    65
 73
     0
 40
0.0
  0
LTYPE
  5
12
330
4
100
AcDbSymbolTableRecord
100
AcDbLinetypeTableRecord
  2
ByLayer
 70
     0
  3

 72
    65
 73
     0
 40
0.0
  0
LTYPE
  5
13
330
4
100
AcDbSymbolTableRecord
100
AcDbLinetypeTableRecord
  2
Continuous
 70
     0
  3
Solid line
 72
    65
 73
     0
 40
0.0
  0
LTYPE
  5
17A
330
4
100
AcDbSymbolTableRecord
100
AcDbLinetypeTableRecord
  2
AI9-LType1
 70
     0
  3
Illustrator Dash Style No.1
 72
    65
 73
     2
 40
0.79375
 49
0.396875
 74
     0
 49
-0.396875
 74
     0
  0
LTYPE
  5
B5D
330
4
100
AcDbSymbolTableRecord
100
AcDbLinetypeTableRecord
  2
CENTER2
 70
     0
  3
Center (.5x) ___ _ ___ _ ___ _ ___ _ ___ _ ___
 72
    65
 73
     4
 40
28.575
 49
19.05
 74
     0
 49
-3.174999999999998
 74
     0
 49
3.174999999999998
 74
     0
 49
-3.174999999999998
 74
     0
  0
LTYPE
  5
B6B
330
4
100
AcDbSymbolTableRecord
100
AcDbLinetypeTableRecord
  2
DASHED2
 70
     0
  3
Dashed (.5x) _ _ _ _ _ _ _ _ _ _ _ _ _ _ _ _ _
 72
    65
 73
     2
 40
9.524999999999996
 49
6.349999999999997
 74
     0
 49
-3.174999999999998
 74
     0
  0
ENDTAB
  0
TABLE
  2
LAYER
  5
2
330
0
100
AcDbSymbolTable
 70
     6
  0
LAYER
  5
14
330
2
100
AcDbSymbolTableRecord
100
AcDbLayerTableRecord
  2
0
 70
     0
 62
     2
  6
Continuous
370
    -3
390
1D
  0
LAYER
  5
A38
330
2
100
AcDbSymbolTableRecord
100
AcDbLayerTableRecord
  2
waku
 70
     0
 62
     7
  6
Continuous
370
    -3
390
1D
  0
LAYER
  5
A39
330
2
100
AcDbSymbolTableRecord
100
AcDbLayerTableRecord
  2
moji
 70
     0
 62
     3
  6
Continuous
370
    -3
390
1D
  0
LAYER
  5
A3A
330
2
100
AcDbSymbolTableRecord
100
AcDbLayerTableRecord
  2
hyou
 70
     0
 62
     4
  6
Continuous
370
    -3
390
1D
  0
LAYER
  5
A3B
330
2
100
AcDbSymbolTableRecord
100
AcDbLayerTableRecord
  2
Defpoints
 70
     0
 62
   113
  6
Continuous
290
     0
370
    -3
390
1D
  0
LAYER
  5
A3C
330
2
100
AcDbSymbolTableRecord
100
AcDbLayerTableRecord
  2
Dim
 70
     0
 62
     4
  6
Continuous
370
    -3
390
1D
  0
ENDTAB
  0
TABLE
  2
STYLE
  5
3
330
0
100
AcDbSymbolTable
 70
     2
  0
STYLE
  5
17
330
3
100
AcDbSymbolTableRecord
100
AcDbTextStyleTableRecord
  2
Standard
 70
     0
 40
0.0
 41
1.0
 50
0.0
 71
     0
 42
0.0
  3
txt
  4

  0
STYLE
  5
A3D
330
3
100
AcDbSymbolTableRecord
100
AcDbTextStyleTableRecord
  2
スタイル1
 70
     0
 40
0.0
 41
1.0
 50
0.0
 71
     0
 42
0.2
  3
MS PGothic.ttf
  4

1001
ACAD
1000
MS PGothic
1071
    32818
  0
ENDTAB
  0
TABLE
  2
VIEW
  5
5
330
0
100
AcDbSymbolTable
 70
     0
  0
ENDTAB
  0
TABLE
  2
UCS
  5
6
330
0
100
AcDbSymbolTable
 70
     0
  0
ENDTAB
  0
TABLE
  2
APPID
  5
8
330
0
100
AcDbSymbolTable
 70
     1
  0
APPID
  5
16
330
8
100
AcDbSymbolTableRecord
100
AcDbRegAppTableRecord
  2
ACAD
 70
     0
  0
ENDTAB
  0
TABLE
  2
DIMSTYLE
  5
9
330
0
100
AcDbSymbolTable
 70
     2
100
AcDbDimStyleTable
 71
     1
340
A3E
  0
DIMSTYLE
105
18
330
9
100
AcDbSymbolTableRecord
100
AcDbDimStyleTableRecord
  2
Standard
 70
     0
340
17
  0
DIMSTYLE
105
A3E
102
{ACAD_REACTORS
330
AF5
330
B02
330
B0F
330
BC0
330
BCD
330
BEC
330
BF9
330
C0F
330
C1C
102
}
330
9
100
AcDbSymbolTableRecord
100
AcDbDimStyleTableRecord
  2
1-2
 70
     0
 40
40.0
 44
0.1
 73
     0
 74
     0
 77
     1
140
0.3
141
0.0
147
0.05
271
     0
272
     0
340
A3D
341
A26
342
A26
  0
ENDTAB
  0
TABLE
  2
BLOCK_RECORD
  5
1
330
0
100
AcDbSymbolTable
 70
    11
  0
BLOCK_RECORD
  5
A
330
1
100
AcDbSymbolTableRecord
100
AcDbBlockTableRecord
  2
*MODEL_SPACE
340
20
  0
BLOCK_RECORD
  5
B
330
1
100
AcDbSymbolTableRecord
100
AcDbBlockTableRecord
  2
*PAPER_SPACE
340
21
  0
BLOCK_RECORD
  5
A26
330
1
100
AcDbSymbolTableRecord
100
AcDbBlockTableRecord
  2
_Open30
340
0
102
{BLKREFS
331
C2C
331
C2D
331
C35
331
C36
331
C3E
331
C3F
331
C47
331
C48
331
C50
331
C51
331
C59
331
C5A
331
EC7
331
EC9
331
ECB
331
ECD
331
ECF
331
ED1
331
ED3
331
ED5
331
ED7
331
F5E
331
F5F
331
F67
331
F68
331
F70
331
F71
102
}
  0
BLOCK_RECORD
  5
AF6
330
1
100
AcDbSymbolTableRecord
100
AcDbBlockTableRecord
  2
*D1
340
0
  0
BLOCK_RECORD
  5
B03
330
1
100
AcDbSymbolTableRecord
100
AcDbBlockTableRecord
  2
*D2
340
0
  0
BLOCK_RECORD
  5
B10
330
1
100
AcDbSymbolTableRecord
100
AcDbBlockTableRecord
  2
*D3
340
0
  0
BLOCK_RECORD
  5
BC1
330
1
100
AcDbSymbolTableRecord
100
AcDbBlockTableRecord
  2
*D4
340
0
  0
BLOCK_RECORD
  5
BCE
330
1
100
AcDbSymbolTableRecord
100
AcDbBlockTableRecord
  2
*D5
340
0
  0
BLOCK_RECORD
  5
BED
330
1
100
AcDbSymbolTableRecord
100
AcDbBlockTableRecord
  2
*D6
340
0
  0
BLOCK_RECORD
  5
BFA
330
1
100
AcDbSymbolTableRecord
100
AcDbBlockTableRecord
  2
*D7
340
0
  0
BLOCK_RECORD
  5
C10
330
1
100
AcDbSymbolTableRecord
100
AcDbBlockTableRecord
  2
*D8
340
0
  0
BLOCK_RECORD
  5
C1D
330
1
100
AcDbSymbolTableRecord
100
AcDbBlockTableRecord
  2
*D9
340
0
  0
ENDTAB
  0
ENDSEC
  0
SECTION
  2
BLOCKS
  0
BLOCK
  5
D
330
A
100
AcDbEntity
  8
0
100
AcDbBlockBegin
  2
*MODEL_SPACE
 70
     0
 10
0.0
 20
0.0
 30
0.0
  3
*MODEL_SPACE
  1

  0
ENDBLK
  5
E
330
A
100
AcDbEntity
  8
0
100
AcDbBlockEnd
  0
BLOCK
  5
F
330
B
100
AcDbEntity
 67
     1
  8
0
100
AcDbBlockBegin
  2
*PAPER_SPACE
 70
     0
 10
0.0
 20
0.0
 30
0.0
  3
*PAPER_SPACE
  1

  0
ENDBLK
  5
10
330
B
100
AcDbEntity
 67
     1
  8
0
100
AcDbBlockEnd
  0
BLOCK
  5
A27
330
A26
100
AcDbEntity
  8
0
100
AcDbBlockBegin
  2
_Open30
 70
     0
 10
0.0
 20
0.0
 30
0.0
  3
_Open30
  1

  0
LINE
  5
A28
330
A26
100
AcDbEntity
  8
0
  6
ByBlock
 62
     0
370
    -2
100
AcDbLine
 10
-1.0
 20
0.26794919
 30
0.0
 11
0.0
 21
0.0
 31
0.0
  0
LINE
  5
A29
330
A26
100
AcDbEntity
  8
0
  6
ByBlock
 62
     0
370
    -2
100
AcDbLine
 10
0.0
 20
0.0
 30
0.0
 11
-1.0
 21
-0.26794919
 31
0.0
  0
LINE
  5
A2A
330
A26
100
AcDbEntity
  8
0
  6
ByBlock
 62
     0
370
    -2
100
AcDbLine
 10
0.0
 20
0.0
 30
0.0
 11
-1.0
 21
0.0
 31
0.0
  0
ENDBLK
  5
A2B
330
A26
100
AcDbEntity
  8
0
100
AcDbBlockEnd
  0
BLOCK
  5
B00
330
AF6
100
AcDbEntity
  8
0
100
AcDbBlockBegin
  2
*D1
 70
     1
 10
0.0
 20
0.0
 30
0.0
  3
*D1
  1

  0
LINE
  5
F6D
330
AF6
100
AcDbEntity
  8
Dim
 62
     0
370
    -2
100
AcDbLine
 10
57.96635298686247
 20
-89.18229996837835
 30
0.0
 11
57.96635298686247
 21
-54.09315728314057
 31
0.0
  0
LINE
  5
F6E
330
AF6
100
AcDbEntity
  8
Dim
 62
     0
370
    -2
100
AcDbLine
 10
241.090359610237
 20
-89.18229996837842
 30
0.0
 11
241.090359610237
 21
-54.09315728314057
 31
0.0
  0
LINE
  5
F6F
330
AF6
100
AcDbEntity
  8
Dim
 62
     0
370
    -2
100
AcDbLine
 10
65.16635298686246
 20
-58.09315728314057
 30
0.0
 11
233.890359610237
 21
-58.09315728314057
 31
0.0
  0
INSERT
  5
F70
330
AF6
100
AcDbEntity
  8
Dim
 62
     0
370
    -2
100
AcDbBlockReference
  2
_Open30
 10
57.96635298686247
 20
-58.09315728314057
 30
0.0
 41
7.199999999999998
 42
7.199999999999998
 43
7.199999999999998
 50
180.0
  0
INSERT
  5
F71
330
AF6
100
AcDbEntity
  8
Dim
 62
     0
370
    -2
100
AcDbBlockReference
  2
_Open30
 10
241.090359610237
 20
-58.09315728314057
 30
0.0
 41
7.199999999999998
 42
7.199999999999998
 43
7.199999999999998
  0
MTEXT
  5
F72
330
AF6
100
AcDbEntity
  8
Dim
 62
     0
100
AcDbMText
 10
149.5283562985497
 20
-50.09315728314057
 30
0.0
 40
12.0
 41
0.0
 71
     5
 72
     1
  1
\A1;192
  7
スタイル1
 73
     1
 44
1.0
1001
ACAD
1000
MTEXTBEGIN
1070
    73
1070
     1
1070
    44
1040
1.0
1070
    74
1070
     0
1000
MTEXTEND
  0
POINT
  5
F73
330
AF6
100
AcDbEntity
  8
Defpoints
 62
     0
100
AcDbPoint
 10
57.96635298686247
 20
-91.68229996837835
 30
0.0
  0
POINT
  5
F74
330
AF6
100
AcDbEntity
  8
Defpoints
 62
     0
100
AcDbPoint
 10
241.090359610237
 20
-91.68229996837842
 30
0.0
  0
POINT
  5
F75
330
AF6
100
AcDbEntity
  8
Defpoints
 62
     0
100
AcDbPoint
 10
241.090359610237
 20
-58.09315728314057
 30
0.0
  0
ENDBLK
  5
B01
330
AF6
100
AcDbEntity
  8
0
100
AcDbBlockEnd
  0
BLOCK
  5
B0D
330
B03
100
AcDbEntity
  8
0
100
AcDbBlockBegin
  2
*D2
 70
     1
 10
0.0
 20
0.0
 30
0.0
  3
*D2
  1

  0
LINE
  5
F64
330
B03
100
AcDbEntity
  8
Dim
 62
     0
370
    -2
100
AcDbLine
 10
48.94196898062313
 20
-91.06129168434376
 30
0.0
 11
48.94196898062313
 21
-35.79996743719676
 31
0.0
  0
LINE
  5
F65
330
B03
100
AcDbEntity
  8
Dim
 62
     0
370
    -2
100
AcDbLine
 10
250.6016320394849
 20
-91.06129168434376
 30
0.0
 11
250.6016320394849
 21
-35.79996743719676
 31
0.0
  0
LINE
  5
F66
330
B03
100
AcDbEntity
  8
Dim
 62
     0
370
    -2
100
AcDbLine
 10
56.14196898062314
 20
-39.79996743719676
 30
0.0
 11
243.4016320394849
 21
-39.79996743719676
 31
0.0
  0
INSERT
  5
F67
330
B03
100
AcDbEntity
  8
Dim
 62
     0
370
    -2
100
AcDbBlockReference
  2
_Open30
 10
48.94196898062313
 20
-39.79996743719676
 30
0.0
 41
7.199999999999998
 42
7.199999999999998
 43
7.199999999999998
 50
180.0
  0
INSERT
  5
F68
330
B03
100
AcDbEntity
  8
Dim
 62
     0
370
    -2
100
AcDbBlockReference
  2
_Open30
 10
250.6016320394849
 20
-39.79996743719676
 30
0.0
 41
7.199999999999998
 42
7.199999999999998
 43
7.199999999999998
  0
MTEXT
  5
F69
330
B03
100
AcDbEntity
  8
Dim
 62
     0
100
AcDbMText
 10
149.771800510054
 20
-31.79996743719676
 30
0.0
 40
12.0
 41
0.0
 71
     5
 72
     1
  1
\A1;202
  7
スタイル1
 73
     1
 44
1.0
1001
ACAD
1000
MTEXTBEGIN
1070
    73
1070
     1
1070
    44
1040
1.0
1070
    74
1070
     0
1000
MTEXTEND
  0
POINT
  5
F6A
330
B03
100
AcDbEntity
  8
Defpoints
 62
     0
100
AcDbPoint
 10
48.94196898062313
 20
-93.56129168434376
 30
0.0
  0
POINT
  5
F6B
330
B03
100
AcDbEntity
  8
Defpoints
 62
     0
100
AcDbPoint
 10
250.6016320394849
 20
-93.56129168434376
 30
0.0
  0
POINT
  5
F6C
330
B03
100
AcDbEntity
  8
Defpoints
 62
     0
100
AcDbPoint
 10
250.6016320394849
 20
-39.79996743719676
 30
0.0
  0
ENDBLK
  5
B0E
330
B03
100
AcDbEntity
  8
0
100
AcDbBlockEnd
  0
BLOCK
  5
B1A
330
B10
100
AcDbEntity
  8
0
100
AcDbBlockBegin
  2
*D3
 70
     1
 10
0.0
 20
0.0
 30
0.0
  3
*D3
  1

  0
LINE
  5
F5B
330
B10
100
AcDbEntity
  8
Dim
 62
     0
370
    -2
100
AcDbLine
 10
45.77257199999999
 20
-75.98469651545769
 30
0.0
 11
45.772572
 21
-17.50677759125293
 31
0.0
  0
LINE
  5
F5C
330
B10
100
AcDbEntity
  8
Dim
 62
     0
370
    -2
100
AcDbLine
 10
253.772572
 20
-75.98469651545777
 30
0.0
 11
253.772572
 21
-17.50677759125293
 31
0.0
  0
LINE
  5
F5D
330
B10
100
AcDbEntity
  8
Dim
 62
     0
370
    -2
100
AcDbLine
 10
52.97257199999998
 20
-21.50677759125293
 30
0.0
 11
246.572572
 21
-21.50677759125293
 31
0.0
  0
INSERT
  5
F5E
330
B10
100
AcDbEntity
  8
Dim
 62
     0
370
    -2
100
AcDbBlockReference
  2
_Open30
 10
45.77257199999999
 20
-21.50677759125293
 30
0.0
 41
7.199999999999998
 42
7.199999999999998
 43
7.199999999999998
 50
180.0
  0
INSERT
  5
F5F
330
B10
100
AcDbEntity
  8
Dim
 62
     0
370
    -2
100
AcDbBlockReference
  2
_Open30
 10
253.772572
 20
-21.50677759125293
 30
0.0
 41
7.199999999999998
 42
7.199999999999998
 43
7.199999999999998
  0
MTEXT
  5
F60
330
B10
100
AcDbEntity
  8
Dim
 62
     0
100
AcDbMText
 10
149.772572
 20
-13.50677759125292
 30
0.0
 40
12.0
 41
0.0
 71
     5
 72
     1
  1
\A1;208
  7
スタイル1
 73
     1
 44
1.0
1001
ACAD
1000
MTEXTBEGIN
1070
    73
1070
     1
1070
    44
1040
1.0
1070
    74
1070
     0
1000
MTEXTEND
  0
POINT
  5
F61
330
B10
100
AcDbEntity
  8
Defpoints
 62
     0
100
AcDbPoint
 10
45.77257199999999
 20
-78.48469651545769
 30
0.0
  0
POINT
  5
F62
330
B10
100
AcDbEntity
  8
Defpoints
 62
     0
100
AcDbPoint
 10
253.772572
 20
-78.48469651545777
 30
0.0
  0
POINT
  5
F63
330
B10
100
AcDbEntity
  8
Defpoints
 62
     0
100
AcDbPoint
 10
253.772572
 20
-21.50677759125293
 30
0.0
  0
ENDBLK
  5
B1B
330
B10
100
AcDbEntity
  8
0
100
AcDbBlockEnd
  0
BLOCK
  5
BCB
330
BC1
100
AcDbEntity
  8
0
100
AcDbBlockBegin
  2
*D4
 70
     1
 10
0.0
 20
0.0
 30
0.0
  3
*D4
  1

  0
LINE
  5
C32
330
BC1
100
AcDbEntity
  8
Dim
 62
     0
370
    -2
100
AcDbLine
 10
309.8556557046594
 20
-75.98469651545777
 30
0.0
 11
309.8556557046594
 21
-35.79996743719676
 31
0.0
  0
LINE
  5
C33
330
BC1
100
AcDbEntity
  8
Dim
 62
     0
370
    -2
100
AcDbLine
 10
358.0499125726669
 20
-75.98469651545777
 30
0.0
 11
358.0499125726669
 21
-35.79996743719676
 31
0.0
  0
LINE
  5
C34
330
BC1
100
AcDbEntity
  8
Dim
 62
     0
370
    -2
100
AcDbLine
 10
317.0556557046595
 20
-39.79996743719676
 30
0.0
 11
350.8499125726669
 21
-39.79996743719676
 31
0.0
  0
INSERT
  5
C35
330
BC1
100
AcDbEntity
  8
Dim
 62
     0
370
    -2
100
AcDbBlockReference
  2
_Open30
 10
309.8556557046594
 20
-39.79996743719676
 30
0.0
 41
7.199999999999997
 42
7.199999999999997
 43
7.199999999999997
 50
180.0
  0
INSERT
  5
C36
330
BC1
100
AcDbEntity
  8
Dim
 62
     0
370
    -2
100
AcDbBlockReference
  2
_Open30
 10
358.0499125726669
 20
-39.79996743719676
 30
0.0
 41
7.199999999999997
 42
7.199999999999997
 43
7.199999999999997
  0
MTEXT
  5
C37
330
BC1
100
AcDbEntity
  8
Dim
 62
     0
100
AcDbMText
 10
333.9527841386632
 20
-31.79996743719676
 30
0.0
 40
12.0
 41
0.0
 71
     5
 72
     1
  1
\A1;40
  7
スタイル1
 73
     1
 44
1.0
1001
ACAD
1000
MTEXTBEGIN
1070
    73
1070
     1
1070
    44
1040
1.0
1070
    74
1070
     0
1000
MTEXTEND
  0
POINT
  5
C38
330
BC1
100
AcDbEntity
  8
Defpoints
 62
     0
100
AcDbPoint
 10
309.8556557046594
 20
-78.48469651545777
 30
0.0
  0
POINT
  5
C39
330
BC1
100
AcDbEntity
  8
Defpoints
 62
     0
100
AcDbPoint
 10
358.0499125726669
 20
-78.48469651545777
 30
0.0
  0
POINT
  5
C3A
330
BC1
100
AcDbEntity
  8
Defpoints
 62
     0
100
AcDbPoint
 10
358.0499125726669
 20
-39.79996743719676
 30
0.0
  0
ENDBLK
  5
BCC
330
BC1
100
AcDbEntity
  8
0
100
AcDbBlockEnd
  0
BLOCK
  5
BD8
330
BCE
100
AcDbEntity
  8
0
100
AcDbBlockBegin
  2
*D5
 70
     1
 10
0.0
 20
0.0
 30
0.0
  3
*D5
  1

  0
LINE
  5
C29
330
BCE
100
AcDbEntity
  8
Dim
 62
     0
370
    -2
100
AcDbLine
 10
323.8074766735798
 20
-75.98469651545777
 30
0.0
 11
323.8074766735798
 21
-54.09315728314059
 31
0.0
  0
LINE
  5
C2A
330
BCE
100
AcDbEntity
  8
Dim
 62
     0
370
    -2
100
AcDbLine
 10
358.0499125726669
 20
-75.98469651545777
 30
0.0
 11
358.0499125726669
 21
-54.09315728314059
 31
0.0
  0
LINE
  5
C2B
330
BCE
100
AcDbEntity
  8
Dim
 62
     0
370
    -2
100
AcDbLine
 10
331.0074766735799
 20
-58.09315728314057
 30
0.0
 11
350.8499125726669
 21
-58.09315728314057
 31
0.0
  0
INSERT
  5
C2C
330
BCE
100
AcDbEntity
  8
Dim
 62
     0
370
    -2
100
AcDbBlockReference
  2
_Open30
 10
323.8074766735798
 20
-58.09315728314057
 30
0.0
 41
7.199999999999997
 42
7.199999999999997
 43
7.199999999999997
 50
180.0
  0
INSERT
  5
C2D
330
BCE
100
AcDbEntity
  8
Dim
 62
     0
370
    -2
100
AcDbBlockReference
  2
_Open30
 10
358.0499125726669
 20
-58.09315728314057
 30
0.0
 41
7.199999999999997
 42
7.199999999999997
 43
7.199999999999997
  0
MTEXT
  5
C2E
330
BCE
100
AcDbEntity
  8
Dim
 62
     0
100
AcDbMText
 10
340.9286946231234
 20
-50.09315728314057
 30
0.0
 40
12.0
 41
0.0
 71
     5
 72
     1
  1
\A1;28
  7
スタイル1
 73
     1
 44
1.0
1001
ACAD
1000
MTEXTBEGIN
1070
    73
1070
     1
1070
    44
1040
1.0
1070
    74
1070
     0
1000
MTEXTEND
  0
POINT
  5
C2F
330
BCE
100
AcDbEntity
  8
Defpoints
 62
     0
100
AcDbPoint
 10
323.8074766735798
 20
-78.48469651545777
 30
0.0
  0
POINT
  5
C30
330
BCE
100
AcDbEntity
  8
Defpoints
 62
     0
100
AcDbPoint
 10
358.0499125726669
 20
-78.48469651545777
 30
0.0
  0
POINT
  5
C31
330
BCE
100
AcDbEntity
  8
Defpoints
 62
     0
100
AcDbPoint
 10
358.0499125726669
 20
-58.09315728314057
 30
0.0
  0
ENDBLK
  5
BD9
330
BCE
100
AcDbEntity
  8
0
100
AcDbBlockEnd
  0
BLOCK
  5
BF7
330
BED
100
AcDbEntity
  8
0
100
AcDbBlockBegin
  2
*D6
 70
     1
 10
0.0
 20
0.0
 30
0.0
  3
*D6
  1

  0
LINE
  5
C3B
330
BED
100
AcDbEntity
  8
Dim
 62
     0
370
    -2
100
AcDbLine
 10
358.0499125726669
 20
-75.98469651545777
 30
0.0
 11
358.0499125726669
 21
-54.09315728314059
 31
0.0
  0
LINE
  5
C3C
330
BED
100
AcDbEntity
  8
Dim
 62
     0
370
    -2
100
AcDbLine
 10
474.7352086860111
 20
-163.5237017720609
 30
0.0
 11
474.7352086860111
 21
-54.09315728314059
 31
0.0
  0
LINE
  5
C3D
330
BED
100
AcDbEntity
  8
Dim
 62
     0
370
    -2
100
AcDbLine
 10
365.2499125726669
 20
-58.09315728314057
 30
0.0
 11
467.5352086860111
 21
-58.09315728314057
 31
0.0
  0
INSERT
  5
C3E
330
BED
100
AcDbEntity
  8
Dim
 62
     0
370
    -2
100
AcDbBlockReference
  2
_Open30
 10
358.0499125726669
 20
-58.09315728314057
 30
0.0
 41
7.199999999999997
 42
7.199999999999997
 43
7.199999999999997
 50
180.0
  0
INSERT
  5
C3F
330
BED
100
AcDbEntity
  8
Dim
 62
     0
370
    -2
100
AcDbBlockReference
  2
_Open30
 10
474.7352086860111
 20
-58.09315728314057
 30
0.0
 41
7.199999999999997
 42
7.199999999999997
 43
7.199999999999997
  0
MTEXT
  5
C40
330
BED
100
AcDbEntity
  8
Dim
 62
     0
100
AcDbMText
 10
416.392560629339
 20
-50.09315728314057
 30
0.0
 40
12.0
 41
0.0
 71
     5
 72
     1
  1
\A1;95
  7
スタイル1
 73
     1
 44
1.0
1001
ACAD
1000
MTEXTBEGIN
1070
    73
1070
     1
1070
    44
1040
1.0
1070
    74
1070
     0
1000
MTEXTEND
  0
POINT
  5
C41
330
BED
100
AcDbEntity
  8
Defpoints
 62
     0
100
AcDbPoint
 10
358.0499125726669
 20
-78.48469651545777
 30
0.0
  0
POINT
  5
C42
330
BED
100
AcDbEntity
  8
Defpoints
 62
     0
100
AcDbPoint
 10
474.7352086860111
 20
-166.0237017720609
 30
0.0
  0
POINT
  5
C43
330
BED
100
AcDbEntity
  8
Defpoints
 62
     0
100
AcDbPoint
 10
474.7352086860111
 20
-58.09315728314057
 30
0.0
  0
ENDBLK
  5
BF8
330
BED
100
AcDbEntity
  8
0
100
AcDbBlockEnd
  0
BLOCK
  5
C04
330
BFA
100
AcDbEntity
  8
0
100
AcDbBlockBegin
  2
*D7
 70
     1
 10
0.0
 20
0.0
 30
0.0
  3
*D7
  1

  0
LINE
  5
C44
330
BFA
100
AcDbEntity
  8
Dim
 62
     0
370
    -2
100
AcDbLine
 10
309.8556557046594
 20
-75.98469651545777
 30
0.0
 11
309.8556557046594
 21
-17.50677759125293
 31
0.0
  0
LINE
  5
C45
330
BFA
100
AcDbEntity
  8
Dim
 62
     0
370
    -2
100
AcDbLine
 10
474.7352086860111
 20
-163.5237017720609
 30
0.0
 11
474.7352086860111
 21
-17.50677759125293
 31
0.0
  0
LINE
  5
C46
330
BFA
100
AcDbEntity
  8
Dim
 62
     0
370
    -2
100
AcDbLine
 10
317.0556557046595
 20
-21.50677759125293
 30
0.0
 11
467.5352086860111
 21
-21.50677759125293
 31
0.0
  0
INSERT
  5
C47
330
BFA
100
AcDbEntity
  8
Dim
 62
     0
370
    -2
100
AcDbBlockReference
  2
_Open30
 10
309.8556557046594
 20
-21.50677759125293
 30
0.0
 41
7.199999999999997
 42
7.199999999999997
 43
7.199999999999997
 50
180.0
  0
INSERT
  5
C48
330
BFA
100
AcDbEntity
  8
Dim
 62
     0
370
    -2
100
AcDbBlockReference
  2
_Open30
 10
474.7352086860111
 20
-21.50677759125293
 30
0.0
 41
7.199999999999997
 42
7.199999999999997
 43
7.199999999999997
  0
MTEXT
  5
C49
330
BFA
100
AcDbEntity
  8
Dim
 62
     0
100
AcDbMText
 10
392.2954321953353
 20
-13.50677759125292
 30
0.0
 40
12.0
 41
0.0
 71
     5
 72
     1
  1
\A1;135
  7
スタイル1
 73
     1
 44
1.0
1001
ACAD
1000
MTEXTBEGIN
1070
    73
1070
     1
1070
    44
1040
1.0
1070
    74
1070
     0
1000
MTEXTEND
  0
POINT
  5
C4A
330
BFA
100
AcDbEntity
  8
Defpoints
 62
     0
100
AcDbPoint
 10
309.8556557046594
 20
-78.48469651545777
 30
0.0
  0
POINT
  5
C4B
330
BFA
100
AcDbEntity
  8
Defpoints
 62
     0
100
AcDbPoint
 10
474.7352086860111
 20
-166.0237017720609
 30
0.0
  0
POINT
  5
C4C
330
BFA
100
AcDbEntity
  8
Defpoints
 62
     0
100
AcDbPoint
 10
474.7352086860111
 20
-21.50677759125293
 30
0.0
  0
ENDBLK
  5
C05
330
BFA
100
AcDbEntity
  8
0
100
AcDbBlockEnd
  0
BLOCK
  5
C1A
330
C10
100
AcDbEntity
  8
0
100
AcDbBlockBegin
  2
*D8
 70
     1
 10
0.0
 20
0.0
 30
0.0
  3
*D8
  1

  0
LINE
  5
C4D
330
C10
100
AcDbEntity
  8
Dim
 62
     0
370
    -2
100
AcDbLine
 10
465.8241704803195
 20
-140.3757756813138
 30
0.0
 11
517.7248078275328
 21
-140.3757756813138
 31
0.0
  0
LINE
  5
C4E
330
C10
100
AcDbEntity
  8
Dim
 62
     0
370
    -2
100
AcDbLine
 10
465.8195233880269
 20
-220.8394891311981
 30
0.0
 11
517.7248078275328
 21
-220.8394891311981
 31
0.0
  0
LINE
  5
C4F
330
C10
100
AcDbEntity
  8
Dim
 62
     0
370
    -2
100
AcDbLine
 10
513.7248078275328
 20
-147.5757756813138
 30
0.0
 11
513.7248078275328
 21
-213.6394891311981
 31
0.0
  0
INSERT
  5
C50
330
C10
100
AcDbEntity
  8
Dim
 62
     0
370
    -2
100
AcDbBlockReference
  2
_Open30
 10
513.7248078275328
 20
-140.3757756813138
 30
0.0
 41
7.199999999999997
 42
7.199999999999997
 43
7.199999999999997
 50
90.0
  0
INSERT
  5
C51
330
C10
100
AcDbEntity
  8
Dim
 62
     0
370
    -2
100
AcDbBlockReference
  2
_Open30
 10
513.7248078275328
 20
-220.8394891311981
 30
0.0
 41
7.199999999999997
 42
7.199999999999997
 43
7.199999999999997
 50
270.0
  0
MTEXT
  5
C52
330
C10
100
AcDbEntity
  8
Dim
 62
     0
100
AcDbMText
 10
503.9179896457146
 20
-180.6076324062559
 30
0.0
 40
12.0
 41
0.0
 71
     5
 72
     1
  1
\A1;φ64
  7
スタイル1
 11
0.0000000000000001
 21
1.0
 31
0.0
 73
     1
 44
1.0
1001
ACAD
1000
MTEXTBEGIN
1070
    73
1070
     1
1070
    44
1040
1.0
1070
    74
1070
     0
1000
MTEXTEND
  0
POINT
  5
C53
330
C10
100
AcDbEntity
  8
Defpoints
 62
     0
100
AcDbPoint
 10
463.3241704803196
 20
-140.3757756813138
 30
0.0
  0
POINT
  5
C54
330
C10
100
AcDbEntity
  8
Defpoints
 62
     0
100
AcDbPoint
 10
463.3195233880271
 20
-220.8394891311981
 30
0.0
  0
POINT
  5
C55
330
C10
100
AcDbEntity
  8
Defpoints
 62
     0
100
AcDbPoint
 10
513.7248078275328
 20
-220.8394891311981
 30
0.0
  0
ENDBLK
  5
C1B
330
C10
100
AcDbEntity
  8
0
100
AcDbBlockEnd
  0
BLOCK
  5
C27
330
C1D
100
AcDbEntity
  8
0
100
AcDbBlockBegin
  2
*D9
 70
     1
 10
0.0
 20
0.0
 30
0.0
  3
*D9
  1

  0
LINE
  5
C56
330
C1D
100
AcDbEntity
  8
Dim
 62
     0
370
    -2
100
AcDbLine
 10
439.1854855569381
 20
-240.0269047454536
 30
0.0
 11
548.2138892343647
 21
-240.0269047454537
 31
0.0
  0
LINE
  5
C57
330
C1D
100
AcDbEntity
  8
Dim
 62
     0
370
    -2
100
AcDbLine
 10
439.1854855569381
 20
-120.6013210680479
 30
0.0
 11
548.2138892343647
 21
-120.6013210680479
 31
0.0
  0
LINE
  5
C58
330
C1D
100
AcDbEntity
  8
Dim
 62
     0
370
    -2
100
AcDbLine
 10
544.2138892343647
 20
-232.8269047454537
 30
0.0
 11
544.2138892343647
 21
-127.801321068048
 31
0.0
  0
INSERT
  5
C59
330
C1D
100
AcDbEntity
  8
Dim
 62
     0
370
    -2
100
AcDbBlockReference
  2
_Open30
 10
544.2138892343647
 20
-240.0269047454537
 30
0.0
 41
7.199999999999997
 42
7.199999999999997
 43
7.199999999999997
 50
270.0
  0
INSERT
  5
C5A
330
C1D
100
AcDbEntity
  8
Dim
 62
     0
370
    -2
100
AcDbBlockReference
  2
_Open30
 10
544.2138892343647
 20
-120.6013210680479
 30
0.0
 41
7.199999999999997
 42
7.199999999999997
 43
7.199999999999997
 50
90.0
  0
MTEXT
  5
C5B
330
C1D
100
AcDbEntity
  8
Dim
 62
     0
100
AcDbMText
 10
534.4070710525468
 20
-180.3141129067507
 30
0.0
 40
12.0
 41
0.0
 71
     5
 72
     1
  1
\A1;φ135
  7
スタイル1
 11
0.0000000000000001
 21
1.0
 31
0.0
 73
     1
 44
1.0
1001
ACAD
1000
MTEXTBEGIN
1070
    73
1070
     1
1070
    44
1040
1.0
1070
    74
1070
     0
1000
MTEXTEND
  0
POINT
  5
C5C
330
C1D
100
AcDbEntity
  8
Defpoints
 62
     0
100
AcDbPoint
 10
436.685485556938
 20
-240.0269047454536
 30
0.0
  0
POINT
  5
C5D
330
C1D
100
AcDbEntity
  8
Defpoints
 62
     0
100
AcDbPoint
 10
436.685485556938
 20
-120.6013210680479
 30
0.0
  0
POINT
  5
C5E
330
C1D
100
AcDbEntity
  8
Defpoints
 62
     0
100
AcDbPoint
 10
544.2138892343647
 20
-120.6013210680479
 30
0.0
  0
ENDBLK
  5
C28
330
C1D
100
AcDbEntity
  8
0
100
AcDbBlockEnd
  0
ENDSEC
  0
SECTION
  2
ENTITIES
  0
POLYLINE
  5
983
330
A
100
AcDbEntity
  8
0
  6
AI9-LType1
100
AcDb2dPolyline
 66
     1
 10
0.0
 20
0.0
 30
0.0
 70
     1
  0
VERTEX
  5
984
330
983
100
AcDbEntity
  8
0
  6
AI9-LType1
100
AcDbVertex
100
AcDb2dVertex
 10
213.1512783313414
 20
-247.0729201858746
 30
0.0
  0
VERTEX
  5
985
330
983
100
AcDbEntity
  8
0
  6
AI9-LType1
100
AcDbVertex
100
AcDb2dVertex
 10
233.2893574000731
 20
-247.0729201858746
 30
0.0
  0
VERTEX
  5
986
330
983
100
AcDbEntity
  8
0
  6
AI9-LType1
100
AcDbVertex
100
AcDb2dVertex
 10
233.2893574000731
 20
-257.5179101252199
 30
0.0
  0
VERTEX
  5
987
330
983
100
AcDbEntity
  8
0
  6
AI9-LType1
100
AcDbVertex
100
AcDb2dVertex
 10
213.1512783313414
 20
-257.5179101252199
 30
0.0
  0
SEQEND
  5
988
330
983
100
AcDbEntity
  8
0
  6
AI9-LType1
  0
LINE
  5
982
330
A
100
AcDbEntity
  8
0
  6
AI9-LType1
100
AcDbLine
 10
218.4854805727864
 20
-247.0729201858746
 30
0.0
 11
218.4854805727864
 21
-257.5179101252198
 31
0.0
  0
POLYLINE
  5
96F
330
A
100
AcDbEntity
  8
0
  6
AI9-LType1
100
AcDb2dPolyline
 66
     1
 10
0.0
 20
0.0
 30
0.0
  0
VERTEX
  5
970
330
96F
100
AcDbEntity
  8
0
  6
AI9-LType1
100
AcDbVertex
100
AcDb2dVertex
 10
216.8322156340006
 20
-252.6336184582424
 30
0.0
  0
VERTEX
  5
971
330
96F
100
AcDbEntity
  8
0
  6
AI9-LType1
100
AcDbVertex
100
AcDb2dVertex
 10
216.7567214294318
 20
-252.2592065607494
 30
0.0
  0
VERTEX
  5
972
330
96F
100
AcDbEntity
  8
0
  6
AI9-LType1
100
AcDbVertex
100
AcDb2dVertex
 10
216.5317639059953
 20
-251.9587548327442
 30
0.0
  0
VERTEX
  5
973
330
96F
100
AcDbEntity
  8
0
  6
AI9-LType1
100
AcDbVertex
100
AcDb2dVertex
 10
216.2313121779901
 20
-251.7337973093077
 30
0.0
  0
VERTEX
  5
974
330
96F
100
AcDbEntity
  8
0
  6
AI9-LType1
100
AcDbVertex
100
AcDb2dVertex
 10
215.856900280497
 20
-251.7337973093077
 30
0.0
  0
VERTEX
  5
975
330
96F
100
AcDbEntity
  8
0
  6
AI9-LType1
100
AcDbVertex
100
AcDb2dVertex
 10
215.5549055725999
 20
-251.8077574787954
 30
0.0
  0
VERTEX
  5
976
330
96F
100
AcDbEntity
  8
0
  6
AI9-LType1
100
AcDbVertex
100
AcDb2dVertex
 10
215.2559923520811
 20
-252.0342535097185
 30
0.0
  0
VERTEX
  5
977
330
96F
100
AcDbEntity
  8
0
  6
AI9-LType1
100
AcDbVertex
100
AcDb2dVertex
 10
215.103456490646
 20
-252.4102039146979
 30
0.0
  0
VERTEX
  5
978
330
96F
100
AcDbEntity
  8
0
  6
AI9-LType1
100
AcDbVertex
100
AcDb2dVertex
 10
215.0279578136716
 20
-252.784615812191
 30
0.0
  0
VERTEX
  5
979
330
96F
100
AcDbEntity
  8
0
  6
AI9-LType1
100
AcDbVertex
100
AcDb2dVertex
 10
215.1789551676202
 20
-253.0866105200883
 30
0.0
  0
VERTEX
  5
97A
330
96F
100
AcDbEntity
  8
0
  6
AI9-LType1
100
AcDbVertex
100
AcDb2dVertex
 10
215.4794068956255
 20
-253.3855237406069
 30
0.0
  0
VERTEX
  5
97B
330
96F
100
AcDbEntity
  8
0
  6
AI9-LType1
100
AcDbVertex
100
AcDb2dVertex
 10
215.7814016035227
 20
-253.4641039049597
 30
0.0
  0
VERTEX
  5
97C
330
96F
100
AcDbEntity
  8
0
  6
AI9-LType1
100
AcDbVertex
100
AcDb2dVertex
 10
216.1558135010158
 20
-253.4641039049597
 30
0.0
  0
VERTEX
  5
97D
330
96F
100
AcDbEntity
  8
0
  6
AI9-LType1
100
AcDbVertex
100
AcDb2dVertex
 10
216.457808208913
 20
-253.3115635711192
 30
0.0
  0
VERTEX
  5
97E
330
96F
100
AcDbEntity
  8
0
  6
AI9-LType1
100
AcDbVertex
100
AcDb2dVertex
 10
216.7567214294318
 20
-253.0866105200883
 30
0.0
  0
VERTEX
  5
97F
330
96F
100
AcDbEntity
  8
0
  6
AI9-LType1
100
AcDbVertex
100
AcDb2dVertex
 10
216.8322156340006
 20
-252.7106556427032
 30
0.0
  0
VERTEX
  5
980
330
96F
100
AcDbEntity
  8
0
  6
AI9-LType1
100
AcDbVertex
100
AcDb2dVertex
 10
216.8322156340006
 20
-252.6336184582424
 30
0.0
  0
SEQEND
  5
981
330
96F
100
AcDbEntity
  8
0
  6
AI9-LType1
  0
POLYLINE
  5
968
330
A
100
AcDbEntity
  8
0
  6
AI9-LType1
100
AcDb2dPolyline
 66
     1
 10
0.0
 20
0.0
 30
0.0
  0
VERTEX
  5
969
330
968
100
AcDbEntity
  8
0
  6
AI9-LType1
100
AcDbVertex
100
AcDb2dVertex
 10
211.7969266130744
 20
-245.7201114474997
 30
0.0
  0
VERTEX
  5
96A
330
968
100
AcDbEntity
  8
0
  6
AI9-LType1
100
AcDbVertex
100
AcDb2dVertex
 10
234.7916249849102
 20
-245.7201114474997
 30
0.0
  0
VERTEX
  5
96B
330
968
100
AcDbEntity
  8
0
  6
AI9-LType1
100
AcDbVertex
100
AcDb2dVertex
 10
234.7916249849102
 20
-258.9477605204613
 30
0.0
  0
VERTEX
  5
96C
330
968
100
AcDbEntity
  8
0
  6
AI9-LType1
100
AcDbVertex
100
AcDb2dVertex
 10
211.6474722390178
 20
-258.9477605204613
 30
0.0
  0
VERTEX
  5
96D
330
968
100
AcDbEntity
  8
0
  6
AI9-LType1
100
AcDbVertex
100
AcDb2dVertex
 10
211.6474722390178
 20
-245.7201114474997
 30
0.0
  0
SEQEND
  5
96E
330
968
100
AcDbEntity
  8
0
  6
AI9-LType1
  0
POLYLINE
  5
926
330
A
100
AcDbEntity
  8
0
  6
DASHED2
100
AcDb2dPolyline
 66
     1
 10
0.0
 20
0.0
 30
0.0
  0
VERTEX
  5
927
330
926
100
AcDbEntity
  8
0
  6
DASHED2
100
AcDbVertex
100
AcDb2dVertex
 10
212.3254173518945
 20
-89.84260280699482
 30
0.0
  0
VERTEX
  5
928
330
926
100
AcDbEntity
  8
0
  6
DASHED2
100
AcDbVertex
100
AcDb2dVertex
 10
212.8523651108226
 20
-89.73705850997948
 30
0.0
  0
VERTEX
  5
929
330
926
100
AcDbEntity
  8
0
  6
DASHED2
100
AcDbVertex
100
AcDb2dVertex
 10
213.2729993189922
 20
-89.52596991594878
 30
0.0
  0
VERTEX
  5
92A
330
926
100
AcDbEntity
  8
0
  6
DASHED2
100
AcDbVertex
100
AcDb2dVertex
 10
213.484087913023
 20
-89.00056066450707
 30
0.0
  0
VERTEX
  5
92B
330
926
100
AcDbEntity
  8
0
  6
DASHED2
100
AcDbVertex
100
AcDb2dVertex
 10
213.5888629562951
 20
-88.68470149960954
 30
0.0
  0
VERTEX
  5
B7A
330
926
100
AcDbEntity
  8
0
  6
DASHED2
100
AcDbVertex
100
AcDb2dVertex
 10
213.5888629562951
 20
-83.92598156140449
 30
0.0
  0
SEQEND
  5
92C
330
926
100
AcDbEntity
  8
0
  6
DASHED2
  0
POLYLINE
  5
91D
330
A
100
AcDbEntity
  8
0
  6
DASHED2
100
AcDb2dPolyline
 66
     1
 10
0.0
 20
0.0
 30
0.0
  0
VERTEX
  5
91E
330
91D
100
AcDbEntity
  8
0
  6
DASHED2
100
AcDbVertex
100
AcDb2dVertex
 10
98.79102929490294
 20
-89.84105982710287
 30
0.0
  0
VERTEX
  5
91F
330
91D
100
AcDbEntity
  8
0
  6
DASHED2
100
AcDbVertex
100
AcDb2dVertex
 10
102.3980109004797
 20
-89.84105982710287
 30
0.0
  0
VERTEX
  5
920
330
91D
100
AcDbEntity
  8
0
  6
DASHED2
100
AcDbVertex
100
AcDb2dVertex
 10
102.8171066011628
 20
-89.73705850997948
 30
0.0
  0
VERTEX
  5
921
330
91D
100
AcDbEntity
  8
0
  6
DASHED2
100
AcDbVertex
100
AcDb2dVertex
 10
103.2392837892243
 20
-89.52596991594878
 30
0.0
  0
VERTEX
  5
922
330
91D
100
AcDbEntity
  8
0
  6
DASHED2
100
AcDbVertex
100
AcDb2dVertex
 10
103.5535999742297
 20
-89.00056066450707
 30
0.0
  0
VERTEX
  5
923
330
91D
100
AcDbEntity
  8
0
  6
DASHED2
100
AcDbVertex
100
AcDb2dVertex
 10
103.5535999742297
 20
-88.6831585197177
 30
0.0
  0
SEQEND
  5
924
330
91D
100
AcDbEntity
  8
0
  6
DASHED2
  0
LINE
  5
91C
330
A
100
AcDbEntity
  8
0
100
AcDbLine
 10
103.5535999742297
 20
-88.6831585197177
 30
0.0
 11
103.5535999742297
 21
-85.73717608263905
 31
0.0
  0
POLYLINE
  5
828
330
A
100
AcDbEntity
  8
0
100
AcDb2dPolyline
 66
     1
 10
0.0
 20
0.0
 30
0.0
  0
VERTEX
  5
829
330
828
100
AcDbEntity
  8
0
100
AcDbVertex
100
AcDb2dVertex
 10
790.9045751553682
 20
-106.0416599422115
 30
0.0
  0
VERTEX
  5
82A
330
828
100
AcDbEntity
  8
0
100
AcDbVertex
100
AcDb2dVertex
 10
784.7229415228273
 20
-111.5368732534835
 30
0.0
  0
VERTEX
  5
82B
330
828
100
AcDbEntity
  8
0
100
AcDbVertex
100
AcDb2dVertex
 10
789.8776437701742
 20
-116.6900369933443
 30
0.0
  0
SEQEND
  5
82C
330
828
100
AcDbEntity
  8
0
  0
POLYLINE
  5
823
330
A
100
AcDbEntity
  8
0
100
AcDb2dPolyline
 66
     1
 10
0.0
 20
0.0
 30
0.0
  0
VERTEX
  5
824
330
823
100
AcDbEntity
  8
0
100
AcDbVertex
100
AcDb2dVertex
 10
790.7343196234053
 20
-91.27091022234429
 30
0.0
  0
VERTEX
  5
825
330
823
100
AcDbEntity
  8
0
100
AcDbVertex
100
AcDb2dVertex
 10
784.2067767335207
 20
-96.59278651427548
 30
0.0
  0
VERTEX
  5
826
330
823
100
AcDbEntity
  8
0
100
AcDbVertex
100
AcDb2dVertex
 10
791.4207399446742
 20
-101.5749209960251
 30
0.0
  0
SEQEND
  5
827
330
823
100
AcDbEntity
  8
0
  0
LINE
  5
822
330
A
100
AcDbEntity
  8
0
100
AcDbLine
 10
841.5748764542296
 20
-111.5368732534836
 30
0.0
 11
784.7229415228269
 21
-111.5368732534836
 31
0.0
  0
LINE
  5
821
330
A
100
AcDbEntity
  8
0
100
AcDbLine
 10
846.5585494434659
 20
-96.59278651427548
 30
0.0
 11
784.2067767335207
 21
-96.59278651427548
 31
0.0
  0
LINE
  5
819
330
A
100
AcDbEntity
  8
0
100
AcDbLine
 10
857.5497497921586
 20
-111.5368732534836
 30
0.0
 11
841.5748764542296
 21
-111.5368732534836
 31
0.0
  0
LINE
  5
818
330
A
100
AcDbEntity
  8
0
100
AcDbLine
 10
858.0651453277219
 20
-96.59278651427548
 30
0.0
 11
844.3259514603187
 21
-96.59278651427548
 31
0.0
  0
POLYLINE
  5
80F
330
A
100
AcDbEntity
  8
0
100
AcDb2dPolyline
 66
     1
 10
0.0
 20
0.0
 30
0.0
  0
VERTEX
  5
810
330
80F
100
AcDbEntity
  8
0
100
AcDbVertex
100
AcDb2dVertex
 10
832.644480049235
 20
-80.96304870754186
 30
0.0
  0
VERTEX
  5
811
330
80F
100
AcDbEntity
  8
0
100
AcDbVertex
100
AcDb2dVertex
 10
851.3665731797258
 20
-80.96304870754186
 30
0.0
  0
VERTEX
  5
812
330
80F
100
AcDbEntity
  8
0
100
AcDbVertex
100
AcDb2dVertex
 10
851.3665731797258
 20
-130.775135645686
 30
0.0
  0
VERTEX
  5
813
330
80F
100
AcDbEntity
  8
0
100
AcDbVertex
100
AcDb2dVertex
 10
832.644480049235
 20
-130.775135645686
 30
0.0
  0
VERTEX
  5
814
330
80F
100
AcDbEntity
  8
0
100
AcDbVertex
100
AcDb2dVertex
 10
832.644480049235
 20
-80.96304870754186
 30
0.0
  0
SEQEND
  5
815
330
80F
100
AcDbEntity
  8
0
  0
LINE
  5
80E
330
A
100
AcDbEntity
  8
0
100
AcDbLine
 10
911.4834374082745
 20
-111.5368732534836
 30
0.0
 11
971.1146142905839
 21
-111.5368732534836
 31
0.0
  0
LINE
  5
80D
330
A
100
AcDbEntity
  8
0
100
AcDbLine
 10
907.3610630041541
 20
-96.59278651427548
 30
0.0
 11
858.0651453277219
 21
-96.59278651427548
 31
0.0
  0
POLYLINE
  5
801
330
A
100
AcDbEntity
  8
0
100
AcDb2dPolyline
 66
     1
 10
0.0
 20
0.0
 30
0.0
  0
VERTEX
  5
802
330
801
100
AcDbEntity
  8
0
100
AcDbVertex
100
AcDb2dVertex
 10
924.3659536870604
 20
-63.61687770696736
 30
0.0
  0
VERTEX
  5
803
330
801
100
AcDbEntity
  8
0
100
AcDbVertex
100
AcDb2dVertex
 10
940.3408270249892
 20
-63.61687770696736
 30
0.0
  0
VERTEX
  5
804
330
801
100
AcDbEntity
  8
0
100
AcDbVertex
100
AcDb2dVertex
 10
940.3408270249892
 20
-85.25645063438748
 30
0.0
  0
VERTEX
  5
805
330
801
100
AcDbEntity
  8
0
100
AcDbVertex
100
AcDb2dVertex
 10
967.0450438109256
 20
-85.2564506343875
 30
0.0
  0
SEQEND
  5
806
330
801
100
AcDbEntity
  8
0
  0
LINE
  5
800
330
A
100
AcDbEntity
  8
0
100
AcDbLine
 10
924.3659536870604
 20
-59.32116354648655
 30
0.0
 11
924.3659536870604
 21
-68.77003697442262
 31
0.0
  0
LINE
  5
7FF
330
A
100
AcDbEntity
  8
0
100
AcDbLine
 10
918.698941863934
 20
-59.32116354648655
 30
0.0
 11
918.698941863934
 21
-69.28620176372898
 31
0.0
  0
LINE
  5
6AD
330
A
100
AcDbEntity
  8
0
100
AcDbLine
 10
876.271073668906
 20
-109.132476758482
 30
0.0
 11
903.2386903354195
 21
-101.4031224841707
 31
0.0
  0
LINE
  5
643
330
A
100
AcDbEntity
  8
0
100
AcDbLine
 10
915.9486361115884
 20
-111.5368732534836
 30
0.0
 11
922.6479775133276
 21
-111.5368732534836
 31
0.0
  0
LINE
  5
642
330
A
100
AcDbEntity
  8
0
100
AcDbLine
 10
857.5497497921586
 20
-111.5368732534836
 30
0.0
 11
870.7774033375258
 21
-111.5368732534836
 31
0.0
  0
LINE
  5
640
330
A
100
AcDbEntity
  8
0
100
AcDbLine
 10
54.75073369556286
 20
-103.4508267522064
 30
0.0
 11
54.75073369556286
 21
-112.0106664732349
 31
0.0
  0
LINE
  5
63F
330
A
100
AcDbEntity
  8
0
100
AcDbLine
 10
79.73920807010933
 20
-112.010666473235
 30
0.0
 11
54.75073369556286
 21
-112.0106664732349
 31
0.0
  0
LINE
  5
63E
330
A
100
AcDbEntity
  8
0
100
AcDbLine
 10
79.73920807010933
 20
-103.4508267522065
 30
0.0
 11
54.75073369556286
 21
-103.4508267522064
 31
0.0
  0
LINE
  5
63D
330
A
100
AcDbEntity
  8
0
100
AcDbLine
 10
79.73920807010933
 20
-112.010666473235
 30
0.0
 11
79.73920807010933
 21
-117.2562748344487
 31
0.0
  0
LINE
  5
63C
330
A
100
AcDbEntity
  8
0
100
AcDbLine
 10
79.73920807010933
 20
-97.92864930827178
 30
0.0
 11
79.73920807010933
 21
-103.4508267522065
 31
0.0
  0
LINE
  5
63B
330
A
100
AcDbEntity
  8
0
100
AcDbLine
 10
93.54465167994604
 20
-107.3166622423824
 30
0.0
 11
79.73920807010933
 21
-117.2562748344487
 31
0.0
  0
LINE
  5
63A
330
A
100
AcDbEntity
  8
0
100
AcDbLine
 10
93.54465167994604
 20
-107.3166622423824
 30
0.0
 11
79.73920807010933
 21
-97.92864930827178
 31
0.0
  0
LINE
  5
558
330
A
100
AcDbEntity
  8
0
100
AcDbLine
 10
126.5390538839303
 20
-134.9637625292593
 30
0.0
 11
127.193885605266
 21
-134.6671615423757
 31
0.0
  0
LINE
  5
557
330
A
100
AcDbEntity
  8
0
100
AcDbLine
 10
125.8487828215398
 20
-135.2873276488055
 30
0.0
 11
126.5390538839303
 21
-134.9637625292593
 31
0.0
  0
LINE
  5
556
330
A
100
AcDbEntity
  8
0
100
AcDbLine
 10
125.1446428297436
 20
-135.6247572253519
 30
0.0
 11
125.8487828215398
 21
-135.2873276488055
 31
0.0
  0
LINE
  5
555
330
A
100
AcDbEntity
  8
0
100
AcDbLine
 10
124.4528287874612
 20
-135.9637297817903
 30
0.0
 11
125.1446428297436
 21
-135.6247572253519
 31
0.0
  0
LINE
  5
554
330
A
100
AcDbEntity
  8
0
100
AcDbLine
 10
123.8026170609904
 20
-136.2903763887149
 30
0.0
 11
124.4528287874612
 21
-135.9637297817903
 31
0.0
  0
LINE
  5
553
330
A
100
AcDbEntity
  8
0
100
AcDbLine
 10
123.2171165694665
 20
-136.5908325891257
 30
0.0
 11
123.8026170609904
 21
-136.2903763887149
 31
0.0
  0
LINE
  5
552
330
A
100
AcDbEntity
  8
0
100
AcDbLine
 10
122.7117392221874
 20
-136.8543064685897
 30
0.0
 11
123.2171165694665
 21
-136.5908325891257
 31
0.0
  0
LINE
  5
551
330
A
100
AcDbEntity
  8
0
100
AcDbLine
 10
122.3065124509101
 20
-137.0700150574854
 30
0.0
 11
122.7117392221874
 21
-136.8543064685897
 31
0.0
  0
LINE
  5
550
330
A
100
AcDbEntity
  8
0
100
AcDbLine
 10
122.0091422102832
 20
-137.2279491123396
 30
0.0
 11
122.3065124509101
 21
-137.0700150574854
 31
0.0
  0
LINE
  5
54F
330
A
100
AcDbEntity
  8
0
100
AcDbLine
 10
121.8273299825503
 20
-137.3242444748141
 30
0.0
 11
122.0091422102832
 21
-137.2279491123396
 31
0.0
  0
LINE
  5
54E
330
A
100
AcDbEntity
  8
0
100
AcDbLine
 10
121.5284167620315
 20
-137.4883415044252
 30
0.0
 11
121.7086860098725
 21
-137.3904986896532
 31
0.0
  0
LINE
  5
54D
330
A
100
AcDbEntity
  8
0
100
AcDbLine
 10
121.2341280087832
 20
-137.6493525742523
 30
0.0
 11
121.5284167620315
 21
-137.4883415044252
 31
0.0
  0
LINE
  5
54C
330
A
100
AcDbEntity
  8
0
100
AcDbLine
 10
120.8381456996411
 20
-137.8681426505264
 30
0.0
 11
121.2341280087832
 21
-137.6493525742523
 31
0.0
  0
LINE
  5
54B
330
A
100
AcDbEntity
  8
0
100
AcDbLine
 10
120.354338764011
 20
-138.1447162056529
 30
0.0
 11
120.8381456996411
 21
-137.8681426505264
 31
0.0
  0
LINE
  5
54A
330
A
100
AcDbEntity
  8
0
100
AcDbLine
 10
119.7950331514065
 20
-138.4682813251992
 30
0.0
 11
120.354338764011
 21
-138.1447162056529
 31
0.0
  0
LINE
  5
549
330
A
100
AcDbEntity
  8
0
100
AcDbLine
 10
119.1802562935849
 20
-138.8311365269217
 30
0.0
 11
119.7950331514065
 21
-138.4682813251992
 31
0.0
  0
LINE
  5
548
330
A
100
AcDbEntity
  8
0
100
AcDbLine
 10
118.5269630797356
 20
-139.2255758561719
 30
0.0
 11
119.1802562935849
 21
-138.8311365269217
 31
0.0
  0
LINE
  5
547
330
A
100
AcDbEntity
  8
0
100
AcDbLine
 10
117.8582624289941
 20
-139.6415900694764
 30
0.0
 11
118.5269630797356
 21
-139.2255758561719
 31
0.0
  0
LINE
  5
546
330
A
100
AcDbEntity
  8
0
100
AcDbLine
 10
117.1895617782528
 20
-140.0706994860381
 30
0.0
 11
117.8582624289941
 21
-139.6415900694764
 31
0.0
  0
LINE
  5
545
330
A
100
AcDbEntity
  8
0
100
AcDbLine
 10
116.5424315391603
 20
-140.4951844353293
 30
0.0
 11
117.1895617782528
 21
-140.0706994860381
 31
0.0
  0
LINE
  5
544
330
A
100
AcDbEntity
  8
0
100
AcDbLine
 10
115.9307406411225
 20
-140.9027234402419
 30
0.0
 11
116.5424315391603
 21
-140.4951844353293
 31
0.0
  0
LINE
  5
543
330
A
100
AcDbEntity
  8
0
100
AcDbLine
 10
115.3698920486262
 20
-141.2902305409919
 30
0.0
 11
115.9307406411225
 21
-140.9027234402419
 31
0.0
  0
LINE
  5
542
330
A
100
AcDbEntity
  8
0
100
AcDbLine
 10
114.8753021433744
 20
-141.6361353259303
 30
0.0
 11
115.3698920486262
 21
-141.2902305409919
 31
0.0
  0
LINE
  5
541
330
A
100
AcDbEntity
  8
0
100
AcDbLine
 10
114.4546679352048
 20
-141.9342792927059
 30
0.0
 11
114.8753021433744
 21
-141.6361353259303
 31
0.0
  0
LINE
  5
540
330
A
100
AcDbEntity
  8
0
100
AcDbLine
 10
114.1187723937394
 20
-142.1792642478994
 30
0.0
 11
114.4546679352048
 21
-141.9342792927059
 31
0.0
  0
LINE
  5
53F
330
A
100
AcDbEntity
  8
0
100
AcDbLine
 10
113.8737874385459
 20
-142.3572257345106
 30
0.0
 11
114.1187723937394
 21
-142.1792642478994
 31
0.0
  0
LINE
  5
53E
330
A
100
AcDbEntity
  8
0
100
AcDbLine
 10
113.7258715719757
 20
-142.4673900263909
 30
0.0
 11
113.8737874385459
 21
-142.3572257345106
 31
0.0
  0
LINE
  5
53D
330
A
100
AcDbEntity
  8
0
100
AcDbLine
 10
113.4778051294038
 20
-142.6569082087727
 30
0.0
 11
113.6272639758659
 21
-142.5421194496219
 31
0.0
  0
LINE
  5
53C
330
A
100
AcDbEntity
  8
0
100
AcDbLine
 10
113.2389831489671
 20
-142.8356389491271
 30
0.0
 11
113.4778051294038
 21
-142.6569082087727
 31
0.0
  0
LINE
  5
53B
330
A
100
AcDbEntity
  8
0
100
AcDbLine
 10
112.9154180294209
 20
-143.0844746454422
 30
0.0
 11
113.2389831489671
 21
-142.8356389491271
 31
0.0
  0
LINE
  5
53A
330
A
100
AcDbEntity
  8
0
100
AcDbLine
 10
112.5209787001708
 20
-143.3887815869747
 30
0.0
 11
112.9154180294209
 21
-143.0844746454422
 31
0.0
  0
LINE
  5
539
330
A
100
AcDbEntity
  8
0
100
AcDbLine
 10
112.069529618217
 20
-143.7439308340484
 30
0.0
 11
112.5209787001708
 21
-143.3887815869747
 31
0.0
  0
LINE
  5
538
330
A
100
AcDbEntity
  8
0
100
AcDbLine
 10
111.5810982153165
 20
-144.1368316558121
 30
0.0
 11
112.069529618217
 21
-143.7439308340484
 31
0.0
  0
LINE
  5
537
330
A
100
AcDbEntity
  8
0
100
AcDbLine
 10
111.068019385794
 20
-144.5551581027519
 30
0.0
 11
111.5810982153165
 21
-144.1368316558121
 31
0.0
  0
LINE
  5
536
330
A
100
AcDbEntity
  8
0
100
AcDbLine
 10
110.554936083866
 20
-144.9858060268
 30
0.0
 11
111.068019385794
 21
-144.5551581027519
 31
0.0
  0
LINE
  5
535
330
A
100
AcDbEntity
  8
0
100
AcDbLine
 10
110.0572602188303
 20
-145.4087524686047
 30
0.0
 11
110.554936083866
 21
-144.9858060268
 31
0.0
  0
LINE
  5
534
330
A
100
AcDbEntity
  8
0
100
AcDbLine
 10
109.5919422074707
 20
-145.8170607272605
 30
0.0
 11
110.0572602188303
 21
-145.4087524686047
 31
0.0
  0
LINE
  5
533
330
A
100
AcDbEntity
  8
0
100
AcDbLine
 10
109.1697694918147
 20
-146.188391137375
 30
0.0
 11
109.5919422074707
 21
-145.8170607272605
 31
0.0
  0
LINE
  5
532
330
A
100
AcDbEntity
  8
0
100
AcDbLine
 10
108.8015205690785
 20
-146.5242822064351
 30
0.0
 11
109.1697694918147
 21
-146.188391137375
 31
0.0
  0
LINE
  5
531
330
A
100
AcDbEntity
  8
0
100
AcDbLine
 10
108.491824378938
 20
-146.8108694774401
 30
0.0
 11
108.8015205690785
 21
-146.5242822064351
 31
0.0
  0
LINE
  5
530
330
A
100
AcDbEntity
  8
0
100
AcDbLine
 10
108.243757936366
 20
-147.0435284831198
 30
0.0
 11
108.491824378938
 21
-146.8108694774401
 31
0.0
  0
LINE
  5
52F
330
A
100
AcDbEntity
  8
0
100
AcDbLine
 10
108.0526967740924
 20
-147.227652944488
 30
0.0
 11
108.243757936366
 21
-147.0435284831198
 31
0.0
  0
LINE
  5
52E
330
A
100
AcDbEntity
  8
0
100
AcDbLine
 10
107.9201928168199
 20
-147.3539939270037
 30
0.0
 11
108.0526967740924
 21
-147.227652944488
 31
0.0
  0
LINE
  5
52D
330
A
100
AcDbEntity
  8
0
100
AcDbLine
 10
107.8431511599536
 20
-147.4310355838699
 30
0.0
 11
107.9201928168199
 21
-147.3539939270037
 31
0.0
  0
LINE
  5
52C
330
A
100
AcDbEntity
  8
0
100
AcDbLine
 10
107.7168057050325
 20
-147.557381038791
 30
0.0
 11
107.7907658745203
 21
-147.4849638491951
 31
0.0
  0
LINE
  5
52B
330
A
100
AcDbEntity
  8
0
100
AcDbLine
 10
107.6012476921385
 20
-147.6760205390634
 30
0.0
 11
107.7168057050325
 21
-147.557381038791
 31
0.0
  0
LINE
  5
52A
330
A
100
AcDbEntity
  8
0
100
AcDbLine
 10
107.45025033819
 20
-147.827017893012
 30
0.0
 11
107.6012476921385
 21
-147.6760205390634
 31
0.0
  0
LINE
  5
529
330
A
100
AcDbEntity
  8
0
100
AcDbLine
 10
107.2792255524843
 20
-148.0057486333665
 30
0.0
 11
107.45025033819
 21
-147.827017893012
 31
0.0
  0
LINE
  5
528
330
A
100
AcDbEntity
  8
0
100
AcDbLine
 10
107.0958703448594
 20
-148.2060497853699
 30
0.0
 11
107.2792255524843
 21
-148.0057486333665
 31
0.0
  0
LINE
  5
527
330
A
100
AcDbEntity
  8
0
100
AcDbLine
 10
106.9140581171265
 20
-148.4109754046438
 30
0.0
 11
107.0958703448594
 21
-148.2060497853699
 31
0.0
  0
LINE
  5
526
330
A
100
AcDbEntity
  8
0
100
AcDbLine
 10
106.7368658842585
 20
-148.6128195365393
 30
0.0
 11
106.9140581171265
 21
-148.4109754046438
 31
0.0
  0
LINE
  5
525
330
A
100
AcDbEntity
  8
0
100
AcDbLine
 10
106.5720040733097
 20
-148.8131206885428
 30
0.0
 11
106.7368658842585
 21
-148.6128195365393
 31
0.0
  0
LINE
  5
524
330
A
100
AcDbEntity
  8
0
100
AcDbLine
 10
106.425626714226
 20
-149.0026388709245
 30
0.0
 11
106.5720040733097
 21
-148.8131206885428
 31
0.0
  0
LINE
  5
523
330
A
100
AcDbEntity
  8
0
100
AcDbLine
 10
106.29466126444
 20
-149.181369611279
 30
0.0
 11
106.425626714226
 21
-149.0026388709245
 31
0.0
  0
LINE
  5
522
330
A
100
AcDbEntity
  8
0
100
AcDbLine
 10
106.1775602716541
 20
-149.3385299399845
 30
0.0
 11
106.29466126444
 21
-149.181369611279
 31
0.0
  0
LINE
  5
521
330
A
100
AcDbEntity
  8
0
100
AcDbLine
 10
106.0743282082739
 20
-149.4872150602978
 30
0.0
 11
106.1775602716541
 21
-149.3385299399845
 31
0.0
  0
LINE
  5
520
330
A
100
AcDbEntity
  8
0
100
AcDbLine
 10
105.9834220944075
 20
-149.6181805100839
 30
0.0
 11
106.0743282082739
 21
-149.4872150602978
 31
0.0
  0
LINE
  5
51F
330
A
100
AcDbEntity
  8
0
100
AcDbLine
 10
105.9079234174332
 20
-149.7283492743697
 30
0.0
 11
105.9834220944075
 21
-149.6181805100839
 31
0.0
  0
LINE
  5
51E
330
A
100
AcDbEntity
  8
0
100
AcDbLine
 10
105.8462936698645
 20
-149.8138616672225
 30
0.0
 11
105.9079234174332
 21
-149.7283492743697
 31
0.0
  0
LINE
  5
51D
330
A
100
AcDbEntity
  8
0
100
AcDbLine
 10
105.6752644117534
 20
-150.0549958812943
 30
0.0
 11
105.7230297023218
 21
-149.9887416664553
 31
0.0
  0
LINE
  5
51C
330
A
100
AcDbEntity
  8
0
100
AcDbLine
 10
105.605928709536
 20
-150.146671248904
 30
0.0
 11
105.6752644117534
 21
-150.0549958812943
 31
0.0
  0
LINE
  5
51B
330
A
100
AcDbEntity
  8
0
100
AcDbLine
 10
105.5211855704264
 20
-150.2614600080547
 30
0.0
 11
105.605928709536
 21
-150.146671248904
 31
0.0
  0
LINE
  5
51A
330
A
100
AcDbEntity
  8
0
100
AcDbLine
 10
105.4194964869381
 20
-150.3978191788544
 30
0.0
 11
105.5211855704264
 21
-150.2614600080547
 31
0.0
  0
LINE
  5
519
330
A
100
AcDbEntity
  8
0
100
AcDbLine
 10
105.3008525142603
 20
-150.547273552911
 30
0.0
 11
105.4194964869381
 21
-150.3978191788544
 31
0.0
  0
LINE
  5
518
330
A
100
AcDbEntity
  8
0
100
AcDbLine
 10
105.1714255719608
 20
-150.7144520699005
 30
0.0
 11
105.3008525142603
 21
-150.547273552911
 31
0.0
  0
LINE
  5
517
330
A
100
AcDbEntity
  8
0
100
AcDbLine
 10
105.0342971474178
 20
-150.8862461093494
 30
0.0
 11
105.1714255719608
 21
-150.7144520699005
 31
0.0
  0
LINE
  5
516
330
A
100
AcDbEntity
  8
0
100
AcDbLine
 10
104.8925442556045
 20
-151.0618998347309
 30
0.0
 11
105.0342971474178
 21
-150.8862461093494
 31
0.0
  0
LINE
  5
515
330
A
100
AcDbEntity
  8
0
100
AcDbLine
 10
104.7507913637912
 20
-151.2321553666933
 30
0.0
 11
104.8925442556045
 21
-151.0618998347309
 31
0.0
  0
LINE
  5
514
330
A
100
AcDbEntity
  8
0
100
AcDbLine
 10
104.6136629392483
 20
-151.391627929034
 30
0.0
 11
104.7507913637912
 21
-151.2321553666933
 31
0.0
  0
LINE
  5
513
330
A
100
AcDbEntity
  8
0
100
AcDbLine
 10
104.4842359969487
 20
-151.5410823030906
 30
0.0
 11
104.6136629392483
 21
-151.391627929034
 31
0.0
  0
LINE
  5
512
330
A
100
AcDbEntity
  8
0
100
AcDbLine
 10
104.3702209639467
 20
-151.6720477528767
 30
0.0
 11
104.4842359969487
 21
-151.5410823030906
 31
0.0
  0
LINE
  5
511
330
A
100
AcDbEntity
  8
0
100
AcDbLine
 10
104.2716088954315
 20
-151.7845242783921
 30
0.0
 11
104.3702209639467
 21
-151.6720477528767
 31
0.0
  0
LINE
  5
510
330
A
100
AcDbEntity
  8
0
100
AcDbLine
 10
104.1914857511868
 20
-151.8723533772856
 30
0.0
 11
104.2716088954315
 21
-151.7845242783921
 31
0.0
  0
POLYLINE
  5
50B
330
A
100
AcDbEntity
  8
0
100
AcDb2dPolyline
 66
     1
 10
0.0
 20
0.0
 30
0.0
  0
VERTEX
  5
50C
330
50B
100
AcDbEntity
  8
0
100
AcDbVertex
100
AcDb2dVertex
 10
103.8078338639639
 20
-152.2922138593065
 30
0.0
  0
VERTEX
  5
50D
330
50B
100
AcDbEntity
  8
0
100
AcDbVertex
100
AcDb2dVertex
 10
103.9064414600737
 20
-152.1866695622911
 30
0.0
  0
VERTEX
  5
50E
330
50B
100
AcDbEntity
  8
0
100
AcDbVertex
100
AcDb2dVertex
 10
103.9850216244265
 20
-152.1011571694382
 30
0.0
  0
SEQEND
  5
50F
330
50B
100
AcDbEntity
  8
0
  0
LINE
  5
50A
330
A
100
AcDbEntity
  8
0
100
AcDbLine
 10
103.695352866043
 20
-152.4201022941196
 30
0.0
 11
103.8078338639639
 21
-152.2922138593065
 31
0.0
  0
LINE
  5
509
330
A
100
AcDbEntity
  8
0
100
AcDbLine
 10
103.5643874162569
 20
-152.5703259219195
 30
0.0
 11
103.695352866043
 21
-152.4201022941196
 31
0.0
  0
LINE
  5
508
330
A
100
AcDbEntity
  8
0
100
AcDbLine
 10
103.4180145295787
 20
-152.7452059211523
 30
0.0
 11
103.5643874162569
 21
-152.5703259219195
 31
0.0
  0
LINE
  5
507
330
A
100
AcDbEntity
  8
0
100
AcDbLine
 10
103.2577727134948
 20
-152.9501315404261
 30
0.0
 11
103.4180145295787
 21
-152.7452059211523
 31
0.0
  0
LINE
  5
506
330
A
100
AcDbEntity
  8
0
100
AcDbLine
 10
103.0852049478972
 20
-153.1820212923627
 30
0.0
 11
103.2577727134948
 21
-152.9501315404261
 31
0.0
  0
LINE
  5
505
330
A
100
AcDbEntity
  8
0
100
AcDbLine
 10
102.9018497402723
 20
-153.4454951718267
 30
0.0
 11
103.0852049478972
 21
-153.1820212923627
 31
0.0
  0
LINE
  5
504
330
A
100
AcDbEntity
  8
0
100
AcDbLine
 10
102.7123315578906
 20
-153.7328516965749
 30
0.0
 11
102.9018497402723
 21
-153.4454951718267
 31
0.0
  0
LINE
  5
503
330
A
100
AcDbEntity
  8
0
100
AcDbLine
 10
102.5228178479143
 20
-154.0340726783235
 30
0.0
 11
102.7123315578906
 21
-153.7328516965749
 31
0.0
  0
LINE
  5
502
330
A
100
AcDbEntity
  8
0
100
AcDbLine
 10
102.3379196603975
 20
-154.3406918534911
 30
0.0
 11
102.5228178479143
 21
-154.0340726783235
 31
0.0
  0
LINE
  5
501
330
A
100
AcDbEntity
  8
0
100
AcDbLine
 10
102.1699763620703
 20
-154.6257361446042
 30
0.0
 11
102.3379196603975
 21
-154.3406918534911
 31
0.0
  0
LINE
  5
500
330
A
100
AcDbEntity
  8
0
100
AcDbLine
 10
102.028223470257
 20
-154.8784270544465
 30
0.0
 11
102.1699763620703
 21
-154.6257361446042
 31
0.0
  0
LINE
  5
4FF
330
A
100
AcDbEntity
  8
0
100
AcDbLine
 10
101.9188284321199
 20
-155.0741037391796
 30
0.0
 11
102.028223470257
 21
-154.8784270544465
 31
0.0
  0
LINE
  5
4FE
330
A
100
AcDbEntity
  8
0
100
AcDbLine
 10
101.851031237389
 20
-155.1958291992358
 30
0.0
 11
101.9188284321199
 21
-155.0741037391796
 31
0.0
  0
LINE
  5
4FD
330
A
100
AcDbEntity
  8
0
100
AcDbLine
 10
101.7323917371167
 20
-155.4161622554018
 30
0.0
 11
101.803270419226
 21
-155.2867353131023
 31
0.0
  0
LINE
  5
4FC
330
A
100
AcDbEntity
  8
0
100
AcDbLine
 10
101.6122092569523
 20
-155.6403460526896
 30
0.0
 11
101.7323917371167
 21
-155.4161622554018
 31
0.0
  0
LINE
  5
4FB
330
A
100
AcDbEntity
  8
0
100
AcDbLine
 10
101.4427229787332
 20
-155.9592867049654
 30
0.0
 11
101.6122092569523
 21
-155.6403460526896
 31
0.0
  0
LINE
  5
4FA
330
A
100
AcDbEntity
  8
0
100
AcDbLine
 10
101.2270143898375
 20
-156.3791516593918
 30
0.0
 11
101.4427229787332
 21
-155.9592867049654
 31
0.0
  0
LINE
  5
4F9
330
A
100
AcDbEntity
  8
0
100
AcDbLine
 10
100.9635405103735
 20
-156.8960857024413
 30
0.0
 11
101.2270143898375
 21
-156.3791516593918
 31
0.0
  0
LINE
  5
4F8
330
A
100
AcDbEntity
  8
0
100
AcDbLine
 10
100.6600072949898
 20
-157.5131703214927
 30
0.0
 11
100.9635405103735
 21
-156.8960857024413
 31
0.0
  0
LINE
  5
4F7
330
A
100
AcDbEntity
  8
0
100
AcDbLine
 10
100.3256547334163
 20
-158.2134595721672
 30
0.0
 11
100.6600072949898
 21
-157.5131703214927
 31
0.0
  0
LINE
  5
4F6
330
A
100
AcDbEntity
  8
0
100
AcDbLine
 10
99.97281324757231
 20
-158.9823107989104
 30
0.0
 11
100.3256547334163
 21
-158.2134595721672
 31
0.0
  0
LINE
  5
4F5
330
A
100
AcDbEntity
  8
0
100
AcDbLine
 10
99.60918879210645
 20
-159.7912213615731
 30
0.0
 11
99.97281324757231
 21
-158.9823107989104
 31
0.0
  0
LINE
  5
4F4
330
A
100
AcDbEntity
  8
0
100
AcDbLine
 10
99.25480879877596
 20
-160.6163130872768
 30
0.0
 11
99.60918879210645
 21
-159.7912213615731
 31
0.0
  0
LINE
  5
4F3
330
A
100
AcDbEntity
  8
0
100
AcDbLine
 10
98.9204562372025
 20
-161.4275403559803
 30
0.0
 11
99.25480879877596
 21
-160.6163130872768
 31
0.0
  0
LINE
  5
4F2
330
A
100
AcDbEntity
  8
0
100
AcDbLine
 10
98.61846152930532
 20
-162.1909978617099
 30
0.0
 11
98.9204562372025
 21
-161.4275403559803
 31
0.0
  0
LINE
  5
4F1
330
A
100
AcDbEntity
  8
0
100
AcDbLine
 10
98.35498764984119
 20
-162.8889748787491
 30
0.0
 11
98.61846152930532
 21
-162.1909978617099
 31
0.0
  0
LINE
  5
4F0
330
A
100
AcDbEntity
  8
0
100
AcDbLine
 10
98.13773608105361
 20
-163.4837198324083
 30
0.0
 11
98.35498764984119
 21
-162.8889748787491
 31
0.0
  0
LINE
  5
4EF
330
A
100
AcDbEntity
  8
0
100
AcDbLine
 10
97.96824980283442
 20
-163.9690652755249
 30
0.0
 11
98.13773608105361
 21
-163.4837198324083
 31
0.0
  0
LINE
  5
4EE
330
A
100
AcDbEntity
  8
0
100
AcDbLine
 10
97.85115328245405
 20
-164.3226760151121
 30
0.0
 11
97.96824980283442
 21
-163.9690652755249
 31
0.0
  0
LINE
  5
4ED
330
A
100
AcDbEntity
  8
0
100
AcDbLine
 10
97.78027460034465
 20
-164.5437783250214
 30
0.0
 11
97.85115328245405
 21
-164.3226760151121
 31
0.0
  0
LINE
  5
4EC
330
A
100
AcDbEntity
  8
0
100
AcDbLine
 10
97.75408419383072
 20
-164.6131140272388
 30
0.0
 11
97.78027460034465
 21
-164.5437783250214
 31
0.0
  0
LINE
  5
4EB
330
A
100
AcDbEntity
  8
0
100
AcDbLine
 10
97.73250930977621
 20
-164.6870697243212
 30
0.0
 11
97.75408419383072
 21
-164.6131140272388
 31
0.0
  0
LINE
  5
4EA
330
A
100
AcDbEntity
  8
0
100
AcDbLine
 10
97.66317360755877
 20
-164.9035520393656
 30
0.0
 11
97.73250930977621
 21
-164.6870697243212
 31
0.0
  0
LINE
  5
4E9
330
A
100
AcDbEntity
  8
0
100
AcDbLine
 10
97.55377856942176
 20
-165.2571627789528
 30
0.0
 11
97.66317360755877
 21
-164.9035520393656
 31
0.0
  0
LINE
  5
4E8
330
A
100
AcDbEntity
  8
0
100
AcDbLine
 10
97.41048717012199
 20
-165.7378882272046
 30
0.0
 11
97.55377856942176
 21
-165.2571627789528
 31
0.0
  0
LINE
  5
4E7
330
A
100
AcDbEntity
  8
0
100
AcDbLine
 10
97.24253939938924
 20
-166.3295516934852
 30
0.0
 11
97.41048717012199
 21
-165.7378882272046
 31
0.0
  0
LINE
  5
4E6
330
A
100
AcDbEntity
  8
0
100
AcDbLine
 10
97.06072717165634
 20
-167.015972014754
 30
0.0
 11
97.24253939938924
 21
-166.3295516934852
 31
0.0
  0
LINE
  5
4E5
330
A
100
AcDbEntity
  8
0
100
AcDbLine
 10
96.87121346168007
 20
-167.7778910129971
 30
0.0
 11
97.06072717165634
 21
-167.015972014754
 31
0.0
  0
LINE
  5
4E4
330
A
100
AcDbEntity
  8
0
100
AcDbLine
 10
96.68323378678486
 20
-168.59373380416
 30
0.0
 11
96.87121346168007
 21
-167.7778910129971
 31
0.0
  0
LINE
  5
4E3
330
A
100
AcDbEntity
  8
0
100
AcDbLine
 10
96.49988305156547
 20
-169.4411696676614
 30
0.0
 11
96.68323378678486
 21
-168.59373380416
 31
0.0
  0
LINE
  5
4E2
330
A
100
AcDbEntity
  8
0
100
AcDbLine
 10
96.33039677334629
 20
-170.2978455208927
 30
0.0
 11
96.49988305156547
 21
-169.4411696676614
 31
0.0
  0
LINE
  5
4E1
330
A
100
AcDbEntity
  8
0
100
AcDbLine
 10
96.17323644464079
 20
-171.1421954246101
 30
0.0
 11
96.33039677334629
 21
-170.2978455208927
 31
0.0
  0
LINE
  5
4E0
330
A
100
AcDbEntity
  8
0
100
AcDbLine
 10
96.03148355282751
 20
-171.946485992408
 30
0.0
 11
96.17323644464079
 21
-171.1421954246101
 31
0.0
  0
LINE
  5
4DF
330
A
100
AcDbEntity
  8
0
100
AcDbLine
 10
95.9066810777983
 20
-172.6960790411373
 30
0.0
 11
96.03148355282751
 21
-171.946485992408
 31
0.0
  0
LINE
  5
4DE
330
A
100
AcDbEntity
  8
0
100
AcDbLine
 10
95.79574305976931
 20
-173.3647796918789
 30
0.0
 11
95.9066810777983
 21
-172.6960790411373
 31
0.0
  0
LINE
  5
4DD
330
A
100
AcDbEntity
  8
0
100
AcDbLine
 10
95.70483694590285
 20
-173.9394927413754
 30
0.0
 11
95.79574305976931
 21
-173.3647796918789
 31
0.0
  0
LINE
  5
4DC
330
A
100
AcDbEntity
  8
0
100
AcDbLine
 10
95.63395826379348
 20
-174.4048107527349
 30
0.0
 11
95.70483694590285
 21
-173.9394927413754
 31
0.0
  0
LINE
  5
4DB
330
A
100
AcDbEntity
  8
0
100
AcDbLine
 10
95.58003447087369
 20
-174.7422448016868
 30
0.0
 11
95.63395826379348
 21
-174.4048107527349
 31
0.0
  0
LINE
  5
4DA
330
A
100
AcDbEntity
  8
0
100
AcDbLine
 10
95.5476766171974
 20
-174.9525596695689
 30
0.0
 11
95.58003447087369
 21
-174.7422448016868
 31
0.0
  0
LINE
  5
4D9
330
A
100
AcDbEntity
  8
0
100
AcDbLine
 10
95.53688917517016
 20
-175.0203568642998
 30
0.0
 11
95.5476766171974
 21
-174.9525596695689
 31
0.0
  0
LINE
  5
4D8
330
A
100
AcDbEntity
  8
0
100
AcDbLine
 10
48.9419689806231
 20
-180.6072455431815
 30
0.0
 11
149.7725697637972
 21
-180.6072455431815
 31
0.0
  0
LINE
  5
4D7
330
A
100
AcDbEntity
  8
0
100
AcDbLine
 10
149.7725697637972
 20
-180.6072455431815
 30
0.0
 11
250.6016320394849
 21
-180.6072455431815
 31
0.0
  0
LINE
  5
4C7
330
A
100
AcDbEntity
  8
0
100
AcDbLine
 10
45.77257199999999
 20
-78.48469651545769
 30
0.0
 11
253.772572
 21
-78.48469651545777
 31
0.0
  0
LINE
  5
4C6
330
A
100
AcDbEntity
  8
0
100
AcDbLine
 10
45.77257199999996
 20
-179.9886224166436
 30
0.0
 11
45.77257199999999
 21
-78.48469651545769
 31
0.0
  0
LINE
  5
4C4
330
A
100
AcDbEntity
  8
0
100
AcDbLine
 10
80.01500789908709
 20
-192.3688400985095
 30
0.0
 11
80.01500789908709
 21
-187.4152127293145
 31
0.0
  0
LINE
  5
4C3
330
A
100
AcDbEntity
  8
0
100
AcDbLine
 10
80.01500789908709
 20
-179.9886224166436
 30
0.0
 11
80.01500789908709
 21
-184.9376253185683
 31
0.0
  0
LINE
  5
4C2
330
A
100
AcDbEntity
  8
0
100
AcDbLine
 10
219.5285931210209
 20
-179.9886224166436
 30
0.0
 11
80.01500789908709
 21
-179.9886224166436
 31
0.0
  0
LINE
  5
4C1
330
A
100
AcDbEntity
  8
0
100
AcDbLine
 10
219.5285931210209
 20
-184.9376253185683
 30
0.0
 11
219.5285931210209
 21
-179.9886224166436
 31
0.0
  0
LINE
  5
4C0
330
A
100
AcDbEntity
  8
0
100
AcDbLine
 10
80.01500789908709
 20
-184.9376253185683
 30
0.0
 11
219.5285931210209
 21
-184.9376253185683
 31
0.0
  0
LINE
  5
4BF
330
A
100
AcDbEntity
  8
0
100
AcDbLine
 10
219.5285931210209
 20
-192.3688400985095
 30
0.0
 11
149.7725697637972
 21
-192.3688400985095
 31
0.0
  0
LINE
  5
4BE
330
A
100
AcDbEntity
  8
0
100
AcDbLine
 10
219.5285931210209
 20
-187.4152127293145
 30
0.0
 11
219.5285931210209
 21
-192.3688400985095
 31
0.0
  0
LINE
  5
4BD
330
A
100
AcDbEntity
  8
0
100
AcDbLine
 10
80.01500789908709
 20
-187.4152127293145
 30
0.0
 11
219.5285931210209
 21
-187.4152127293145
 31
0.0
  0
LINE
  5
4BC
330
A
100
AcDbEntity
  8
0
100
AcDbLine
 10
149.7725697637972
 20
-192.3688400985095
 30
0.0
 11
80.01500789908709
 21
-192.3688400985095
 31
0.0
  0
LINE
  5
4BB
330
A
100
AcDbEntity
  8
0
100
AcDbLine
 10
80.01500789908709
 20
-194.8448845293638
 30
0.0
 11
80.01500789908709
 21
-199.7954304111804
 31
0.0
  0
LINE
  5
4BA
330
A
100
AcDbEntity
  8
0
100
AcDbLine
 10
219.5285931210209
 20
-194.8448845293638
 30
0.0
 11
80.01500789908709
 21
-194.8448845293638
 31
0.0
  0
LINE
  5
4B9
330
A
100
AcDbEntity
  8
0
100
AcDbLine
 10
219.5285931210209
 20
-199.7954304111804
 30
0.0
 11
219.5285931210209
 21
-194.8448845293638
 31
0.0
  0
LINE
  5
4B8
330
A
100
AcDbEntity
  8
0
100
AcDbLine
 10
80.01500789908709
 20
-199.7954304111804
 30
0.0
 11
219.5285931210209
 21
-199.7954304111804
 31
0.0
  0
LINE
  5
4B7
330
A
100
AcDbEntity
  8
0
100
AcDbLine
 10
80.01500789908709
 20
-214.650154016414
 30
0.0
 11
80.01500789908709
 21
-209.6980651547054
 31
0.0
  0
LINE
  5
4B6
330
A
100
AcDbEntity
  8
0
100
AcDbLine
 10
80.01500789908709
 20
-202.2714748420347
 30
0.0
 11
80.01500789908709
 21
-207.2220207238511
 31
0.0
  0
LINE
  5
4B5
330
A
100
AcDbEntity
  8
0
100
AcDbLine
 10
219.5285931210209
 20
-202.2714748420347
 30
0.0
 11
80.01500789908709
 21
-202.2714748420347
 31
0.0
  0
LINE
  5
4B4
330
A
100
AcDbEntity
  8
0
100
AcDbLine
 10
219.5285931210209
 20
-207.2220207238511
 30
0.0
 11
219.5285931210209
 21
-202.2714748420347
 31
0.0
  0
LINE
  5
4B3
330
A
100
AcDbEntity
  8
0
100
AcDbLine
 10
80.01500789908709
 20
-207.2220207238511
 30
0.0
 11
219.5285931210209
 21
-207.2220207238511
 31
0.0
  0
LINE
  5
4B2
330
A
100
AcDbEntity
  8
0
100
AcDbLine
 10
219.5285931210209
 20
-214.650154016414
 30
0.0
 11
149.7725697637972
 21
-214.650154016414
 31
0.0
  0
LINE
  5
4B1
330
A
100
AcDbEntity
  8
0
100
AcDbLine
 10
219.5285931210209
 20
-209.6980651547054
 30
0.0
 11
219.5285931210209
 21
-214.650154016414
 31
0.0
  0
LINE
  5
4B0
330
A
100
AcDbEntity
  8
0
100
AcDbLine
 10
80.01500789908709
 20
-209.6980651547054
 30
0.0
 11
219.5285931210209
 21
-209.6980651547054
 31
0.0
  0
LINE
  5
4AF
330
A
100
AcDbEntity
  8
0
100
AcDbLine
 10
149.7725697637972
 20
-214.650154016414
 30
0.0
 11
80.01500789908709
 21
-214.650154016414
 31
0.0
  0
LINE
  5
4AE
330
A
100
AcDbEntity
  8
0
100
AcDbLine
 10
80.01500789908709
 20
-229.5064161291341
 30
0.0
 11
80.01500789908709
 21
-224.551245780047
 31
0.0
  0
LINE
  5
4AD
330
A
100
AcDbEntity
  8
0
100
AcDbLine
 10
80.01500789908709
 20
-217.1246554673762
 30
0.0
 11
80.01500789908709
 21
-222.0752013491927
 31
0.0
  0
LINE
  5
4AC
330
A
100
AcDbEntity
  8
0
100
AcDbLine
 10
219.5285931210209
 20
-217.1246554673762
 30
0.0
 11
80.01500789908709
 21
-217.1246554673762
 31
0.0
  0
LINE
  5
4AB
330
A
100
AcDbEntity
  8
0
100
AcDbLine
 10
219.5285931210209
 20
-222.0752013491927
 30
0.0
 11
219.5285931210209
 21
-217.1246554673762
 31
0.0
  0
LINE
  5
4AA
330
A
100
AcDbEntity
  8
0
100
AcDbLine
 10
80.01500789908709
 20
-222.0752013491927
 30
0.0
 11
219.5285931210209
 21
-222.0752013491927
 31
0.0
  0
LINE
  5
4A9
330
A
100
AcDbEntity
  8
0
100
AcDbLine
 10
219.5285931210208
 20
-229.5064161291341
 30
0.0
 11
149.7725697637972
 21
-229.5064161291341
 31
0.0
  0
LINE
  5
4A8
330
A
100
AcDbEntity
  8
0
100
AcDbLine
 10
219.5285931210209
 20
-224.551245780047
 30
0.0
 11
219.5285931210208
 21
-229.5064161291341
 31
0.0
  0
LINE
  5
4A7
330
A
100
AcDbEntity
  8
0
100
AcDbLine
 10
80.01500789908709
 20
-224.551245780047
 30
0.0
 11
219.5285931210209
 21
-224.551245780047
 31
0.0
  0
LINE
  5
4A6
330
A
100
AcDbEntity
  8
0
100
AcDbLine
 10
149.7725697637972
 20
-229.5064161291341
 30
0.0
 11
80.01500789908709
 21
-229.5064161291341
 31
0.0
  0
LINE
  5
4A5
330
A
100
AcDbEntity
  8
0
100
AcDbLine
 10
80.01500789908709
 20
-244.3595967544756
 30
0.0
 11
80.01500789908709
 21
-239.4090508726591
 31
0.0
  0
LINE
  5
4A4
330
A
100
AcDbEntity
  8
0
100
AcDbLine
 10
80.01500789908709
 20
-231.9824605599883
 30
0.0
 11
80.01500789908709
 21
-236.9314634619129
 31
0.0
  0
LINE
  5
4A3
330
A
100
AcDbEntity
  8
0
100
AcDbLine
 10
219.5285931210208
 20
-231.9824605599883
 30
0.0
 11
80.01500789908709
 21
-231.9824605599883
 31
0.0
  0
LINE
  5
4A2
330
A
100
AcDbEntity
  8
0
100
AcDbLine
 10
219.5285931210208
 20
-236.9314634619129
 30
0.0
 11
219.5285931210208
 21
-231.9824605599883
 31
0.0
  0
LINE
  5
4A1
330
A
100
AcDbEntity
  8
0
100
AcDbLine
 10
80.01500789908709
 20
-236.9314634619129
 30
0.0
 11
219.5285931210208
 21
-236.9314634619129
 31
0.0
  0
LINE
  5
4A0
330
A
100
AcDbEntity
  8
0
100
AcDbLine
 10
219.5285931210208
 20
-244.3595967544756
 30
0.0
 11
149.7725697637972
 21
-244.3595967544756
 31
0.0
  0
LINE
  5
49F
330
A
100
AcDbEntity
  8
0
100
AcDbLine
 10
219.5285931210208
 20
-239.4090508726591
 30
0.0
 11
219.5285931210208
 21
-244.3595967544756
 31
0.0
  0
LINE
  5
49E
330
A
100
AcDbEntity
  8
0
100
AcDbLine
 10
80.01500789908709
 20
-239.4090508726591
 30
0.0
 11
219.5285931210208
 21
-239.4090508726591
 31
0.0
  0
LINE
  5
49D
330
A
100
AcDbEntity
  8
0
100
AcDbLine
 10
149.7725697637972
 20
-244.3595967544756
 30
0.0
 11
80.01500789908709
 21
-244.3595967544756
 31
0.0
  0
LINE
  5
49C
330
A
100
AcDbEntity
  8
0
100
AcDbLine
 10
80.01500789908709
 20
-259.2127773798172
 30
0.0
 11
80.01500789908709
 21
-254.2622314980006
 31
0.0
  0
LINE
  5
49B
330
A
100
AcDbEntity
  8
0
100
AcDbLine
 10
80.01500789908709
 20
-246.8340982054379
 30
0.0
 11
80.01500789908709
 21
-251.7846440872545
 31
0.0
  0
LINE
  5
49A
330
A
100
AcDbEntity
  8
0
100
AcDbLine
 10
219.5285931210208
 20
-246.8340982054379
 30
0.0
 11
80.01500789908709
 21
-246.8340982054379
 31
0.0
  0
LINE
  5
499
330
A
100
AcDbEntity
  8
0
100
AcDbLine
 10
219.5285931210208
 20
-251.7846440872545
 30
0.0
 11
219.5285931210208
 21
-246.8340982054379
 31
0.0
  0
LINE
  5
498
330
A
100
AcDbEntity
  8
0
100
AcDbLine
 10
80.01500789908709
 20
-251.7846440872545
 30
0.0
 11
219.5285931210208
 21
-251.7846440872545
 31
0.0
  0
LINE
  5
497
330
A
100
AcDbEntity
  8
0
100
AcDbLine
 10
219.5285931210208
 20
-259.2127773798172
 30
0.0
 11
149.7725697637972
 21
-259.2127773798172
 31
0.0
  0
LINE
  5
496
330
A
100
AcDbEntity
  8
0
100
AcDbLine
 10
219.5285931210208
 20
-254.2622314980006
 30
0.0
 11
219.5285931210208
 21
-259.2127773798172
 31
0.0
  0
LINE
  5
495
330
A
100
AcDbEntity
  8
0
100
AcDbLine
 10
80.01500789908709
 20
-254.2622314980006
 30
0.0
 11
219.5285931210208
 21
-254.2622314980006
 31
0.0
  0
LINE
  5
494
330
A
100
AcDbEntity
  8
0
100
AcDbLine
 10
149.7725697637972
 20
-259.2127773798172
 30
0.0
 11
80.01500789908709
 21
-259.2127773798172
 31
0.0
  0
LINE
  5
48D
330
A
100
AcDbEntity
  8
0
100
AcDbLine
 10
158.157529485593
 20
-130.388397798679
 30
0.0
 11
159.0481061723924
 21
-129.924618294806
 31
0.0
  0
LINE
  5
48C
330
A
100
AcDbEntity
  8
0
100
AcDbLine
 10
157.2762017333343
 20
-130.9407667103779
 30
0.0
 11
158.157529485593
 21
-130.388397798679
 31
0.0
  0
LINE
  5
48B
330
A
100
AcDbEntity
  8
0
100
AcDbLine
 10
156.4256888548599
 20
-131.5640143041861
 30
0.0
 11
157.2762017333343
 21
-130.9407667103779
 31
0.0
  0
LINE
  5
48A
330
A
100
AcDbEntity
  8
0
100
AcDbLine
 10
155.6198553071701
 20
-132.2250134726842
 30
0.0
 11
156.4256888548599
 21
-131.5640143041861
 31
0.0
  0
LINE
  5
489
330
A
100
AcDbEntity
  8
0
100
AcDbLine
 10
154.8771989593463
 20
-132.8890941285608
 30
0.0
 11
155.6198553071701
 21
-132.2250134726842
 31
0.0
  0
LINE
  5
488
330
A
100
AcDbEntity
  8
0
100
AcDbLine
 10
154.2084938361993
 20
-133.5277491592611
 30
0.0
 11
154.8771989593463
 21
-132.8890941285608
 31
0.0
  0
LINE
  5
487
330
A
100
AcDbEntity
  8
0
100
AcDbLine
 10
153.622997817081
 20
-134.111706670893
 30
0.0
 11
154.2084938361993
 21
-133.5277491592611
 31
0.0
  0
LINE
  5
486
330
A
100
AcDbEntity
  8
0
100
AcDbLine
 10
153.1268649319372
 20
-134.6132332770505
 30
0.0
 11
153.622997817081
 21
-134.111706670893
 31
0.0
  0
LINE
  5
485
330
A
100
AcDbEntity
  8
0
100
AcDbLine
 10
152.7324211302816
 20
-135.0176907945846
 30
0.0
 11
153.1268649319372
 21
-134.6132332770505
 31
0.0
  0
LINE
  5
484
330
A
100
AcDbEntity
  8
0
100
AcDbLine
 10
152.4427523718981
 20
-135.3112102940898
 30
0.0
 11
152.7324211302816
 21
-135.0176907945846
 31
0.0
  0
LINE
  5
483
330
A
100
AcDbEntity
  8
0
100
AcDbLine
 10
152.2655646114356
 20
-135.4907102881874
 30
0.0
 11
152.4427523718981
 21
-135.3112102940898
 31
0.0
  0
LINE
  5
482
330
A
100
AcDbEntity
  8
0
100
AcDbLine
 10
151.9728143656737
 20
-135.7842297876926
 30
0.0
 11
152.1484636186497
 21
-135.6078112809733
 31
0.0
  0
LINE
  5
481
330
A
100
AcDbEntity
  8
0
100
AcDbLine
 10
151.6877700745606
 20
-136.0700478049544
 30
0.0
 11
151.9728143656737
 21
-135.7842297876926
 31
0.0
  0
LINE
  5
480
330
A
100
AcDbEntity
  8
0
100
AcDbLine
 10
151.3010322275538
 20
-136.4575549057045
 30
0.0
 11
151.6877700745606
 21
-136.0700478049544
 31
0.0
  0
POLYLINE
  5
47B
330
A
100
AcDbEntity
  8
0
100
AcDb2dPolyline
 66
     1
 10
0.0
 20
0.0
 30
0.0
  0
VERTEX
  5
47C
330
47B
100
AcDbEntity
  8
0
100
AcDbVertex
100
AcDb2dVertex
 10
150.2810330708602
 20
-137.4567529044922
 30
0.0
  0
VERTEX
  5
47D
330
47B
100
AcDbEntity
  8
0
100
AcDbVertex
100
AcDb2dVertex
 10
150.826469754059
 20
-136.9236421708071
 30
0.0
  0
VERTEX
  5
47E
330
47B
100
AcDbEntity
  8
0
100
AcDbVertex
100
AcDb2dVertex
 10
151.3010322275538
 20
-136.4575549057045
 30
0.0
  0
SEQEND
  5
47F
330
47B
100
AcDbEntity
  8
0
  0
LINE
  5
47A
330
A
100
AcDbEntity
  8
0
100
AcDbLine
 10
149.6862881172011
 20
-138.0353211675159
 30
0.0
 11
150.2810330708602
 21
-137.4567529044922
 31
0.0
  0
LINE
  5
479
330
A
100
AcDbEntity
  8
0
100
AcDbLine
 10
149.0638097771361
 20
-138.64161834454
 30
0.0
 11
149.6862881172011
 21
-138.0353211675159
 31
0.0
  0
LINE
  5
478
330
A
100
AcDbEntity
  8
0
100
AcDbLine
 10
148.4382499496927
 20
-139.2587029635913
 30
0.0
 11
149.0638097771361
 21
-138.64161834454
 31
0.0
  0
LINE
  5
477
330
A
100
AcDbEntity
  8
0
100
AcDbLine
 10
147.8311790465199
 20
-139.8703938616291
 30
0.0
 11
148.4382499496927
 21
-139.2587029635913
 31
0.0
  0
LINE
  5
476
330
A
100
AcDbEntity
  8
0
100
AcDbLine
 10
147.2626289717801
 20
-140.4574373330449
 30
0.0
 11
147.8311790465199
 21
-139.8703938616291
 31
0.0
  0
LINE
  5
475
330
A
100
AcDbEntity
  8
0
100
AcDbLine
 10
146.7541701371226
 20
-141.0128877321221
 30
0.0
 11
147.2626289717801
 21
-140.4574373330449
 31
0.0
  0
LINE
  5
474
330
A
100
AcDbEntity
  8
0
100
AcDbLine
 10
146.3104225374122
 20
-141.5128758307931
 30
0.0
 11
146.7541701371226
 21
-141.0128877321221
 31
0.0
  0
LINE
  5
473
330
A
100
AcDbEntity
  8
0
100
AcDbLine
 10
145.9406351071895
 20
-141.9581619379901
 30
0.0
 11
146.3104225374122
 21
-141.5128758307931
 31
0.0
  0
LINE
  5
472
330
A
100
AcDbEntity
  8
0
100
AcDbLine
 10
145.6478848614275
 20
-142.330261601848
 30
0.0
 11
145.9406351071895
 21
-141.9581619379901
 31
0.0
  0
LINE
  5
471
330
A
100
AcDbEntity
  8
0
100
AcDbLine
 10
145.4260132977751
 20
-142.631487056002
 30
0.0
 11
145.6478848614275
 21
-142.330261601848
 31
0.0
  0
LINE
  5
470
330
A
100
AcDbEntity
  8
0
100
AcDbLine
 10
145.2734774363399
 20
-142.8479648986408
 30
0.0
 11
145.4260132977751
 21
-142.631487056002
 31
0.0
  0
LINE
  5
46F
330
A
100
AcDbEntity
  8
0
100
AcDbLine
 10
145.1856483374465
 20
-142.9820118358053
 30
0.0
 11
145.2734774363399
 21
-142.8479648986408
 31
0.0
  0
LINE
  5
46E
330
A
100
AcDbEntity
  8
0
100
AcDbLine
 10
145.0438999180386
 20
-143.2031186181201
 30
0.0
 11
145.1271000772562
 21
-143.0736916758205
 31
0.0
  0
LINE
  5
46D
330
A
100
AcDbEntity
  8
0
100
AcDbLine
 10
144.9129299958471
 20
-143.4188272070157
 30
0.0
 11
145.0438999180386
 21
-143.2031186181201
 31
0.0
  0
LINE
  5
46C
330
A
100
AcDbEntity
  8
0
100
AcDbLine
 10
144.7496066923847
 20
-143.7077222392504
 30
0.0
 11
144.9129299958471
 21
-143.4188272070157
 31
0.0
  0
LINE
  5
46B
330
A
100
AcDbEntity
  8
0
100
AcDbLine
 10
144.5662559571654
 20
-144.0628759587298
 30
0.0
 11
144.7496066923847
 21
-143.7077222392504
 31
0.0
  0
LINE
  5
46A
330
A
100
AcDbEntity
  8
0
100
AcDbLine
 10
144.3782762822701
 20
-144.474265704764
 30
0.0
 11
144.5662559571654
 21
-144.0628759587298
 31
0.0
  0
LINE
  5
469
330
A
100
AcDbEntity
  8
0
100
AcDbLine
 10
144.1995455419156
 20
-144.9318777614746
 30
0.0
 11
144.3782762822701
 21
-144.474265704764
 31
0.0
  0
LINE
  5
468
330
A
100
AcDbEntity
  8
0
100
AcDbLine
 10
144.0377652183452
 20
-145.41799693074
 30
0.0
 11
144.1995455419156
 21
-144.9318777614746
 31
0.0
  0
LINE
  5
467
330
A
100
AcDbEntity
  8
0
100
AcDbLine
 10
143.8990938139104
 20
-145.9226050242759
 30
0.0
 11
144.0377652183452
 21
-145.41799693074
 31
0.0
  0
LINE
  5
466
330
A
100
AcDbEntity
  8
0
100
AcDbLine
 10
143.7819928211245
 20
-146.4326068388253
 30
0.0
 11
143.8990938139104
 21
-145.9226050242759
 31
0.0
  0
LINE
  5
465
330
A
100
AcDbEntity
  8
0
100
AcDbLine
 10
143.691086707258
 20
-146.9387534398476
 30
0.0
 11
143.7819928211245
 21
-146.4326068388253
 31
0.0
  0
LINE
  5
464
330
A
100
AcDbEntity
  8
0
100
AcDbLine
 10
143.6155880302838
 20
-147.4217911217346
 30
0.0
 11
143.691086707258
 21
-146.9387534398476
 31
0.0
  0
LINE
  5
463
330
A
100
AcDbEntity
  8
0
100
AcDbLine
 10
143.5524153028232
 20
-147.8747831835804
 30
0.0
 11
143.6155880302838
 21
-147.4217911217346
 31
0.0
  0
LINE
  5
462
330
A
100
AcDbEntity
  8
0
100
AcDbLine
 10
143.5031115047683
 20
-148.2846299497227
 30
0.0
 11
143.5524153028232
 21
-147.8747831835804
 31
0.0
  0
LINE
  5
461
330
A
100
AcDbEntity
  8
0
100
AcDbLine
 10
143.4615091889568
 20
-148.6397836692019
 30
0.0
 11
143.5031115047683
 21
-148.2846299497227
 31
0.0
  0
LINE
  5
460
330
A
100
AcDbEntity
  8
0
100
AcDbLine
 10
143.4276128277939
 20
-148.9286787014367
 30
0.0
 11
143.4615091889568
 21
-148.6397836692019
 31
0.0
  0
LINE
  5
45F
330
A
100
AcDbEntity
  8
0
100
AcDbLine
 10
143.4029609287666
 20
-149.1397672954675
 30
0.0
 11
143.4276128277939
 21
-148.9286787014367
 31
0.0
  0
LINE
  5
45E
330
A
100
AcDbEntity
  8
0
100
AcDbLine
 10
143.384472004496
 20
-149.2707327452535
 30
0.0
 11
143.4029609287666
 21
-149.1397672954675
 31
0.0
  0
LINE
  5
45D
330
A
100
AcDbEntity
  8
0
100
AcDbLine
 10
143.3567386180901
 20
-149.4902965476763
 30
0.0
 11
143.3752275423606
 21
-149.3608696053767
 31
0.0
  0
POLYLINE
  5
458
330
A
100
AcDbEntity
  8
0
100
AcDb2dPolyline
 66
     1
 10
0.0
 20
0.0
 30
0.0
  0
VERTEX
  5
459
330
458
100
AcDbEntity
  8
0
100
AcDbVertex
100
AcDb2dVertex
 10
143.2889414233591
 20
-150.0049183570906
 30
0.0
  0
VERTEX
  5
45A
330
458
100
AcDbEntity
  8
0
100
AcDbVertex
100
AcDb2dVertex
 10
143.3274622517923
 20
-149.7060051365719
 30
0.0
  0
VERTEX
  5
45B
330
458
100
AcDbEntity
  8
0
100
AcDbVertex
100
AcDb2dVertex
 10
143.3567386180901
 20
-149.4902965476763
 30
0.0
  0
SEQEND
  5
45C
330
458
100
AcDbEntity
  8
0
  0
LINE
  5
457
330
A
100
AcDbEntity
  8
0
100
AcDbLine
 10
143.2411761327907
 20
-150.3754795134621
 30
0.0
 11
143.2889414233591
 21
-150.0049183570906
 31
0.0
  0
LINE
  5
456
330
A
100
AcDbEntity
  8
0
100
AcDbLine
 10
143.185709359979
 20
-150.812290412267
 30
0.0
 11
143.2411761327907
 21
-150.3754795134621
 31
0.0
  0
LINE
  5
455
330
A
100
AcDbEntity
  8
0
100
AcDbLine
 10
143.1286996072752
 20
-151.3045725562891
 30
0.0
 11
143.185709359979
 21
-150.812290412267
 31
0.0
  0
LINE
  5
454
330
A
100
AcDbEntity
  8
0
100
AcDbLine
 10
143.0824772965987
 20
-151.8446155184743
 30
0.0
 11
143.1286996072752
 21
-151.3045725562891
 31
0.0
  0
LINE
  5
453
330
A
100
AcDbEntity
  8
0
100
AcDbLine
 10
143.048580935436
 20
-152.4201022941196
 30
0.0
 11
143.0824772965987
 21
-151.8446155184743
 31
0.0
  0
LINE
  5
452
330
A
100
AcDbEntity
  8
0
100
AcDbLine
 10
143.0408749807872
 20
-153.0102227805083
 30
0.0
 11
143.048580935436
 21
-152.4201022941196
 31
0.0
  0
LINE
  5
451
330
A
100
AcDbEntity
  8
0
100
AcDbLine
 10
143.0593639050578
 20
-153.601886246789
 30
0.0
 11
143.0408749807872
 21
-153.0102227805083
 31
0.0
  0
LINE
  5
450
330
A
100
AcDbEntity
  8
0
100
AcDbLine
 10
143.1117536628966
 20
-154.1812192911505
 30
0.0
 11
143.0593639050578
 21
-153.601886246789
 31
0.0
  0
LINE
  5
44F
330
A
100
AcDbEntity
  8
0
100
AcDbLine
 10
143.1903338272493
 20
-154.7266559743492
 30
0.0
 11
143.1117536628966
 21
-154.1812192911505
 31
0.0
  0
LINE
  5
44E
330
A
100
AcDbEntity
  8
0
100
AcDbLine
 10
143.2935658906295
 20
-155.2251010931282
 30
0.0
 11
143.1903338272493
 21
-154.7266559743492
 31
0.0
  0
LINE
  5
44D
330
A
100
AcDbEntity
  8
0
100
AcDbLine
 10
143.406042416145
 20
-155.6626857180818
 30
0.0
 11
143.2935658906295
 21
-155.2251010931282
 31
0.0
  0
LINE
  5
44C
330
A
100
AcDbEntity
  8
0
100
AcDbLine
 10
143.5138989467955
 20
-156.0155272039259
 30
0.0
 11
143.406042416145
 21
-155.6626857180818
 31
0.0
  0
LINE
  5
44B
330
A
100
AcDbEntity
  8
0
100
AcDbLine
 10
143.6032620807701
 20
-156.2759195960115
 30
0.0
 11
143.5138989467955
 21
-156.0155272039259
 31
0.0
  0
LINE
  5
44A
330
A
100
AcDbEntity
  8
0
100
AcDbLine
 10
143.6633533208522
 20
-156.4384736457306
 30
0.0
 11
143.6032620807701
 21
-156.2759195960115
 31
0.0
  0
LINE
  5
449
330
A
100
AcDbEntity
  8
0
100
AcDbLine
 10
143.7712098515028
 20
-156.7135042209651
 30
0.0
 11
143.7049556366638
 21
-156.5509501712461
 31
0.0
  0
LINE
  5
448
330
A
100
AcDbEntity
  8
0
100
AcDbLine
 10
143.8883063718831
 20
-156.9785166079157
 30
0.0
 11
143.7712098515028
 21
-156.7135042209651
 31
0.0
  0
LINE
  5
447
330
A
100
AcDbEntity
  8
0
100
AcDbLine
 10
144.0593356299943
 20
-157.3506162717736
 30
0.0
 11
143.8883063718831
 21
-156.9785166079157
 31
0.0
  0
LINE
  5
446
330
A
100
AcDbEntity
  8
0
100
AcDbLine
 10
144.2950761230525
 20
-157.8097713083763
 30
0.0
 11
144.0593356299943
 21
-157.3506162717736
 31
0.0
  0
LINE
  5
445
330
A
100
AcDbEntity
  8
0
100
AcDbLine
 10
144.6001523183281
 20
-158.3544387378316
 30
0.0
 11
144.2950761230525
 21
-157.8097713083763
 31
0.0
  0
LINE
  5
444
330
A
100
AcDbEntity
  8
0
100
AcDbLine
 10
144.9745642158212
 20
-158.964591128383
 30
0.0
 11
144.6001523183281
 21
-158.3544387378316
 31
0.0
  0
LINE
  5
443
330
A
100
AcDbEntity
  8
0
100
AcDbLine
 10
145.4106058608829
 20
-159.6340610328677
 30
0.0
 11
144.9745642158212
 21
-158.964591128383
 31
0.0
  0
LINE
  5
442
330
A
100
AcDbEntity
  8
0
100
AcDbLine
 10
145.9067387460267
 20
-160.3389747508126
 30
0.0
 11
145.4106058608829
 21
-159.6340610328677
 31
0.0
  0
LINE
  5
441
330
A
100
AcDbEntity
  8
0
100
AcDbLine
 10
146.4398494797117
 20
-161.055436219717
 30
0.0
 11
145.9067387460267
 21
-160.3389747508126
 31
0.0
  0
LINE
  5
440
330
A
100
AcDbEntity
  8
0
100
AcDbLine
 10
146.9914536100727
 20
-161.7749836484052
 30
0.0
 11
146.4398494797117
 21
-161.055436219717
 31
0.0
  0
LINE
  5
43F
330
A
100
AcDbEntity
  8
0
100
AcDbLine
 10
147.5461347554066
 20
-162.4644854570525
 30
0.0
 11
146.9914536100727
 21
-161.7749836484052
 31
0.0
  0
LINE
  5
43E
330
A
100
AcDbEntity
  8
0
100
AcDbLine
 10
148.0730825143349
 20
-163.1077649550232
 30
0.0
 11
147.5461347554066
 21
-162.4644854570525
 31
0.0
  0
LINE
  5
43D
330
A
100
AcDbEntity
  8
0
100
AcDbLine
 10
148.5553509424786
 20
-163.6901839591686
 30
0.0
 11
148.0730825143349
 21
-163.1077649550232
 31
0.0
  0
LINE
  5
43C
330
A
100
AcDbEntity
  8
0
100
AcDbLine
 10
148.9744421707562
 20
-164.1917105653261
 30
0.0
 11
148.5553509424786
 21
-163.6901839591686
 31
0.0
  0
LINE
  5
43B
330
A
100
AcDbEntity
  8
0
100
AcDbLine
 10
149.3165006869784
 20
-164.5977065903467
 30
0.0
 11
148.9744421707562
 21
-164.1917105653261
 31
0.0
  0
LINE
  5
43A
330
A
100
AcDbEntity
  8
0
100
AcDbLine
 10
149.5661056370368
 20
-164.8904568361086
 30
0.0
 11
149.3165006869784
 21
-164.5977065903467
 31
0.0
  0
LINE
  5
439
330
A
100
AcDbEntity
  8
0
100
AcDbLine
 10
149.7217274582558
 20
-165.073807571328
 30
0.0
 11
149.5661056370368
 21
-164.8904568361086
 31
0.0
  0
LINE
  5
438
330
A
100
AcDbEntity
  8
0
100
AcDbLine
 10
142.9638377963265
 20
-166.4073581316892
 30
0.0
 11
143.1441070441674
 21
-166.4967257380692
 31
0.0
  0
LINE
  5
437
330
A
100
AcDbEntity
  8
0
100
AcDbLine
 10
142.6695445706726
 20
-166.2648359861327
 30
0.0
 11
142.9638377963265
 21
-166.4073581316892
 31
0.0
  0
LINE
  5
436
330
A
100
AcDbEntity
  8
0
100
AcDbLine
 10
142.2704807741521
 20
-166.0691593013996
 30
0.0
 11
142.6695445706726
 21
-166.2648359861327
 31
0.0
  0
LINE
  5
435
330
A
100
AcDbEntity
  8
0
100
AcDbLine
 10
141.7789723562786
 20
-165.8234006200573
 30
0.0
 11
142.2704807741521
 21
-166.0691593013996
 31
0.0
  0
LINE
  5
434
330
A
100
AcDbEntity
  8
0
100
AcDbLine
 10
141.2104222815389
 20
-165.5422070700659
 30
0.0
 11
141.7789723562786
 21
-165.8234006200573
 31
0.0
  0
LINE
  5
433
330
A
100
AcDbEntity
  8
0
100
AcDbLine
 10
140.5848624540955
 20
-165.2286601388037
 30
0.0
 11
141.2104222815389
 21
-165.5422070700659
 31
0.0
  0
LINE
  5
432
330
A
100
AcDbEntity
  8
0
100
AcDbLine
 10
139.9223247781109
 20
-164.8958505571222
 30
0.0
 11
140.5848624540955
 21
-165.2286601388037
 31
0.0
  0
LINE
  5
431
330
A
100
AcDbEntity
  8
0
100
AcDbLine
 10
139.2459181727206
 20
-164.5437783250214
 30
0.0
 11
139.9223247781109
 21
-164.8958505571222
 31
0.0
  0
LINE
  5
430
330
A
100
AcDbEntity
  8
0
100
AcDbLine
 10
138.5833804967361
 20
-164.1886290779476
 30
0.0
 11
139.2459181727206
 21
-164.5437783250214
 31
0.0
  0
LINE
  5
42F
330
A
100
AcDbEntity
  8
0
100
AcDbLine
 10
137.9547391819142
 20
-163.8365568458468
 30
0.0
 11
138.5833804967361
 21
-164.1886290779476
 31
0.0
  0
LINE
  5
42E
330
A
100
AcDbEntity
  8
0
100
AcDbLine
 10
137.3738631576607
 20
-163.5037472641654
 30
0.0
 11
137.9547391819142
 21
-163.8365568458468
 31
0.0
  0
LINE
  5
42D
330
A
100
AcDbEntity
  8
0
100
AcDbLine
 10
136.8607798557328
 20
-163.1932773478761
 30
0.0
 11
137.3738631576607
 21
-163.5037472641654
 31
0.0
  0
LINE
  5
42C
330
A
100
AcDbEntity
  8
0
100
AcDbLine
 10
136.4216567232927
 20
-162.916708265155
 30
0.0
 11
136.8607798557328
 21
-163.1932773478761
 31
0.0
  0
LINE
  5
42B
330
A
100
AcDbEntity
  8
0
100
AcDbLine
 10
136.0626522626918
 20
-162.6801985183536
 30
0.0
 11
136.4216567232927
 21
-162.916708265155
 31
0.0
  0
LINE
  5
42A
330
A
100
AcDbEntity
  8
0
100
AcDbLine
 10
135.7899339210925
 20
-162.492992569607
 30
0.0
 11
136.0626522626918
 21
-162.6801985183536
 31
0.0
  0
LINE
  5
429
330
A
100
AcDbEntity
  8
0
100
AcDbLine
 10
135.5942572363593
 20
-162.3550904189154
 30
0.0
 11
135.7899339210925
 21
-162.492992569607
 31
0.0
  0
LINE
  5
428
330
A
100
AcDbEntity
  8
0
100
AcDbLine
 10
135.47869475106
 20
-162.2688087723193
 30
0.0
 11
135.5942572363593
 21
-162.3550904189154
 31
0.0
  0
LINE
  5
427
330
A
100
AcDbEntity
  8
0
100
AcDbLine
 10
135.2907195485703
 20
-162.1247436468709
 30
0.0
 11
135.4016575665992
 21
-162.2102560397236
 31
0.0
  0
LINE
  5
426
330
A
100
AcDbEntity
  8
0
100
AcDbLine
 10
135.1166132754861
 20
-161.987615222328
 30
0.0
 11
135.2907195485703
 21
-162.1247436468709
 31
0.0
  0
LINE
  5
425
330
A
100
AcDbEntity
  8
0
100
AcDbLine
 10
134.8854927772929
 20
-161.7950155525678
 30
0.0
 11
135.1166132754861
 21
-161.987615222328
 31
0.0
  0
LINE
  5
424
330
A
100
AcDbEntity
  8
0
100
AcDbLine
 10
134.6189374104503
 20
-161.5615872931448
 30
0.0
 11
134.8854927772929
 21
-161.7950155525678
 31
0.0
  0
LINE
  5
423
330
A
100
AcDbEntity
  8
0
100
AcDbLine
 10
134.3308116319588
 20
-161.2888689515454
 30
0.0
 11
134.6189374104503
 21
-161.5615872931448
 31
0.0
  0
LINE
  5
422
330
A
100
AcDbEntity
  8
0
100
AcDbLine
 10
134.0303554315481
 20
-160.9845620100131
 30
0.0
 11
134.3308116319588
 21
-161.2888689515454
 31
0.0
  0
LINE
  5
421
330
A
100
AcDbEntity
  8
0
100
AcDbLine
 10
133.7360666782997
 20
-160.6494401946963
 30
0.0
 11
134.0303554315481
 21
-160.9845620100131
 31
0.0
  0
LINE
  5
420
330
A
100
AcDbEntity
  8
0
100
AcDbLine
 10
133.4510223871866
 20
-160.2950602013658
 30
0.0
 11
133.7360666782997
 21
-160.6494401946963
 31
0.0
  0
LINE
  5
41F
330
A
100
AcDbEntity
  8
0
100
AcDbLine
 10
133.184467020344
 20
-159.9221912837647
 30
0.0
 11
133.4510223871866
 21
-160.2950602013658
 31
0.0
  0
LINE
  5
41E
330
A
100
AcDbEntity
  8
0
100
AcDbLine
 10
132.9379390852587
 20
-159.5531731072853
 30
0.0
 11
133.184467020344
 21
-159.9221912837647
 31
0.0
  0
LINE
  5
41D
330
A
100
AcDbEntity
  8
0
100
AcDbLine
 10
132.7160675216061
 20
-159.1856934382923
 30
0.0
 11
132.9379390852587
 21
-159.5531731072853
 31
0.0
  0
LINE
  5
41C
330
A
100
AcDbEntity
  8
0
100
AcDbLine
 10
132.5173048770891
 20
-158.8351641860834
 30
0.0
 11
132.7160675216061
 21
-159.1856934382923
 31
0.0
  0
LINE
  5
41B
330
A
100
AcDbEntity
  8
0
100
AcDbLine
 10
132.3416556241131
 20
-158.5069790716723
 30
0.0
 11
132.5173048770891
 21
-158.8351641860834
 31
0.0
  0
LINE
  5
41A
330
A
100
AcDbEntity
  8
0
100
AcDbLine
 10
132.1937397575429
 20
-158.2234732880457
 30
0.0
 11
132.3416556241131
 21
-158.5069790716723
 31
0.0
  0
LINE
  5
419
330
A
100
AcDbEntity
  8
0
100
AcDbLine
 10
132.0751002572706
 20
-157.9815698202307
 30
0.0
 11
132.1937397575429
 21
-158.2234732880457
 31
0.0
  0
LINE
  5
418
330
A
100
AcDbEntity
  8
0
100
AcDbLine
 10
131.9872756307826
 20
-157.8066898209978
 30
0.0
 11
132.0751002572706
 21
-157.9815698202307
 31
0.0
  0
LINE
  5
417
330
A
100
AcDbEntity
  8
0
100
AcDbLine
 10
131.9333473654572
 20
-157.6965255291175
 30
0.0
 11
131.9872756307826
 21
-157.8066898209978
 31
0.0
  0
LINE
  5
416
330
A
100
AcDbEntity
  8
0
100
AcDbLine
 10
131.8408982716988
 20
-157.5085458542223
 30
0.0
 11
131.8963695169161
 21
-157.618714618508
 31
0.0
  0
LINE
  5
415
330
A
100
AcDbEntity
  8
0
100
AcDbLine
 10
131.7515351377244
 20
-157.3221136316245
 30
0.0
 11
131.8408982716988
 21
-157.5085458542223
 31
0.0
  0
LINE
  5
414
330
A
100
AcDbEntity
  8
0
100
AcDbLine
 10
131.6298096776681
 20
-157.0648027269172
 30
0.0
 11
131.7515351377244
 21
-157.3221136316245
 31
0.0
  0
LINE
  5
413
330
A
100
AcDbEntity
  8
0
100
AcDbLine
 10
131.4741923288547
 20
-156.7381561199926
 30
0.0
 11
131.6298096776681
 21
-157.0648027269172
 31
0.0
  0
LINE
  5
412
330
A
100
AcDbEntity
  8
0
100
AcDbLine
 10
131.2954615885002
 20
-156.3506490192426
 30
0.0
 11
131.4741923288547
 21
-156.7381561199926
 31
0.0
  0
LINE
  5
411
330
A
100
AcDbEntity
  8
0
100
AcDbLine
 10
131.0966989439831
 20
-155.9099829069105
 30
0.0
 11
131.2954615885002
 21
-156.3506490192426
 31
0.0
  0
LINE
  5
410
330
A
100
AcDbEntity
  8
0
100
AcDbLine
 10
130.8856103499524
 20
-155.4292574586589
 30
0.0
 11
131.0966989439831
 21
-155.9099829069105
 31
0.0
  0
LINE
  5
40F
330
A
100
AcDbEntity
  8
0
100
AcDbLine
 10
130.6714447409487
 20
-154.9223371314877
 30
0.0
 11
130.8856103499524
 21
-155.4292574586589
 31
0.0
  0
LINE
  5
40E
330
A
100
AcDbEntity
  8
0
100
AcDbLine
 10
130.4634376342964
 20
-154.4046338346949
 30
0.0
 11
130.6714447409487
 21
-154.9223371314877
 31
0.0
  0
LINE
  5
40D
330
A
100
AcDbEntity
  8
0
100
AcDbLine
 10
130.2662179696713
 20
-153.8954057462941
 30
0.0
 11
130.4634376342964
 21
-154.4046338346949
 31
0.0
  0
LINE
  5
40C
330
A
100
AcDbEntity
  8
0
100
AcDbLine
 10
130.0905642442898
 20
-153.4092865770288
 30
0.0
 11
130.2662179696713
 21
-153.8954057462941
 31
0.0
  0
LINE
  5
40B
330
A
100
AcDbEntity
  8
0
100
AcDbLine
 10
129.9380283828547
 20
-152.9616882361966
 30
0.0
 11
130.0905642442898
 21
-153.4092865770288
 31
0.0
  0
LINE
  5
40A
330
A
100
AcDbEntity
  8
0
100
AcDbLine
 10
129.8132259078255
 20
-152.5657059270546
 30
0.0
 11
129.9380283828547
 21
-152.9616882361966
 31
0.0
  0
LINE
  5
409
330
A
100
AcDbEntity
  8
0
100
AcDbLine
 10
129.7130753318237
 20
-152.2321270916298
 30
0.0
 11
129.8132259078255
 21
-152.5657059270546
 31
0.0
  0
LINE
  5
408
330
A
100
AcDbEntity
  8
0
100
AcDbLine
 10
129.6406581422279
 20
-151.9671102322737
 30
0.0
 11
129.7130753318237
 21
-152.2321270916298
 31
0.0
  0
LINE
  5
407
330
A
100
AcDbEntity
  8
0
100
AcDbLine
 10
129.5928928516595
 20
-151.7745105625136
 30
0.0
 11
129.6406581422279
 21
-151.9671102322737
 31
0.0
  0
LINE
  5
406
330
A
100
AcDbEntity
  8
0
100
AcDbLine
 10
129.5636164853616
 20
-151.6566403159845
 30
0.0
 11
129.5928928516595
 21
-151.7745105625136
 31
0.0
  0
LINE
  5
405
330
A
100
AcDbEntity
  8
0
100
AcDbLine
 10
129.5204756620637
 20
-151.4640451186299
 30
0.0
 11
129.546670540983
 21
-151.5796031315238
 31
0.0
  0
LINE
  5
404
330
A
100
AcDbEntity
  8
0
100
AcDbLine
 10
129.4819548336305
 20
-151.2776084236265
 30
0.0
 11
129.5204756620637
 21
-151.4640451186299
 31
0.0
  0
LINE
  5
403
330
A
100
AcDbEntity
  8
0
100
AcDbLine
 10
129.4326510355756
 20
-151.0287727273114
 30
0.0
 11
129.4819548336305
 21
-151.2776084236265
 31
0.0
  0
LINE
  5
402
330
A
100
AcDbEntity
  8
0
100
AcDbLine
 10
129.3833472375206
 20
-150.7190720647654
 30
0.0
 11
129.4326510355756
 21
-151.0287727273114
 31
0.0
  0
LINE
  5
401
330
A
100
AcDbEntity
  8
0
100
AcDbLine
 10
129.3402019418172
 20
-150.3623798377997
 30
0.0
 11
129.3833472375206
 21
-150.7190720647654
 31
0.0
  0
LINE
  5
400
330
A
100
AcDbEntity
  8
0
100
AcDbLine
 10
129.3063055806545
 20
-149.9679405085495
 30
0.0
 11
129.3402019418172
 21
-150.3623798377997
 31
0.0
  0
LINE
  5
3FF
330
A
100
AcDbEntity
  8
0
100
AcDbLine
 10
129.2939796311407
 20
-149.538831091988
 30
0.0
 11
129.3063055806545
 21
-149.9679405085495
 31
0.0
  0
LINE
  5
3FE
330
A
100
AcDbEntity
  8
0
100
AcDbLine
 10
129.2986040984111
 20
-149.083526796507
 30
0.0
 11
129.2939796311407
 21
-149.538831091988
 31
0.0
  0
LINE
  5
3FD
330
A
100
AcDbEntity
  8
0
100
AcDbLine
 10
129.3294189721954
 20
-148.6020320945121
 30
0.0
 11
129.2986040984111
 21
-149.083526796507
 31
0.0
  0
LINE
  5
3FC
330
A
100
AcDbEntity
  8
0
100
AcDbLine
 10
129.3771797903583
 20
-148.1082114430034
 30
0.0
 11
129.3294189721954
 21
-148.6020320945121
 31
0.0
  0
LINE
  5
3FB
330
A
100
AcDbEntity
  8
0
100
AcDbLine
 10
129.4465154925758
 20
-147.606684836846
 30
0.0
 11
129.3771797903583
 21
-148.1082114430034
 31
0.0
  0
LINE
  5
3FA
330
A
100
AcDbEntity
  8
0
100
AcDbLine
 10
129.5297201241989
 20
-147.1144026928238
 30
0.0
 11
129.4465154925758
 21
-147.606684836846
 31
0.0
  0
LINE
  5
3F9
330
A
100
AcDbEntity
  8
0
100
AcDbLine
 10
129.6175447506868
 20
-146.6436909604506
 30
0.0
 11
129.5297201241989
 21
-147.1144026928238
 31
0.0
  0
LINE
  5
3F8
330
A
100
AcDbEntity
  8
0
100
AcDbLine
 10
129.7038308696885
 20
-146.224599732173
 30
0.0
 11
129.6175447506868
 21
-146.6436909604506
 31
0.0
  0
LINE
  5
3F7
330
A
100
AcDbEntity
  8
0
100
AcDbLine
 10
129.7793250742572
 20
-145.8663645253154
 30
0.0
 11
129.7038308696885
 21
-146.224599732173
 31
0.0
  0
LINE
  5
3F6
330
A
100
AcDbEntity
  8
0
100
AcDbLine
 10
129.8409592942314
 20
-145.5913339500808
 30
0.0
 11
129.7793250742572
 21
-145.8663645253154
 31
0.0
  0
LINE
  5
3F5
330
A
100
AcDbEntity
  8
0
100
AcDbLine
 10
129.881018630151
 20
-145.4226213980103
 30
0.0
 11
129.8409592942314
 21
-145.5913339500808
 31
0.0
  0
POLYLINE
  5
3F0
330
A
100
AcDbEntity
  8
0
100
AcDb2dPolyline
 66
     1
 10
0.0
 20
0.0
 30
0.0
  0
VERTEX
  5
3F1
330
3F0
100
AcDbEntity
  8
0
100
AcDbVertex
100
AcDb2dVertex
 10
130.0181470546938
 20
-144.838659413973
 30
0.0
  0
VERTEX
  5
3F2
330
3F0
100
AcDbEntity
  8
0
100
AcDbVertex
100
AcDb2dVertex
 10
129.948815824882
 20
-145.1321833858836
 30
0.0
  0
VERTEX
  5
3F3
330
3F0
100
AcDbEntity
  8
0
100
AcDbVertex
100
AcDb2dVertex
 10
129.9072135090704
 20
-145.3062896589677
 30
0.0
  0
SEQEND
  5
3F4
330
3F0
100
AcDbEntity
  8
0
  0
LINE
  5
3EF
330
A
100
AcDbEntity
  8
0
100
AcDbLine
 10
130.1198406105876
 20
-144.4226496730738
 30
0.0
 11
130.0181470546938
 21
-144.838659413973
 31
0.0
  0
LINE
  5
3EE
330
A
100
AcDbEntity
  8
0
100
AcDbLine
 10
130.2492675528872
 20
-143.8957019141457
 30
0.0
 11
130.1198406105876
 21
-144.4226496730738
 31
0.0
  0
LINE
  5
3ED
330
A
100
AcDbEntity
  8
0
100
AcDbLine
 10
130.4079663890791
 20
-143.2624361320535
 30
0.0
 11
130.2492675528872
 21
-143.8957019141457
 31
0.0
  0
LINE
  5
3EC
330
A
100
AcDbEntity
  8
0
100
AcDbLine
 10
130.5959460639744
 20
-142.5421194496219
 30
0.0
 11
130.4079663890791
 21
-143.2624361320535
 31
0.0
  0
LINE
  5
3EB
330
A
100
AcDbEntity
  8
0
100
AcDbLine
 10
130.8008672108428
 20
-141.7578607859867
 30
0.0
 11
130.5959460639744
 21
-142.5421194496219
 31
0.0
  0
POLYLINE
  5
3E6
330
A
100
AcDbEntity
  8
0
100
AcDb2dPolyline
 66
     1
 10
0.0
 20
0.0
 30
0.0
  0
VERTEX
  5
3E7
330
3E6
100
AcDbEntity
  8
0
100
AcDbVertex
100
AcDb2dVertex
 10
131.2399948156884
 20
-140.120003284093
 30
0.0
  0
VERTEX
  5
3E8
330
3E6
100
AcDbEntity
  8
0
100
AcDbVertex
100
AcDb2dVertex
 10
131.0196617595223
 20
-140.9389320350398
 30
0.0
  0
VERTEX
  5
3E9
330
3E6
100
AcDbEntity
  8
0
100
AcDbVertex
100
AcDb2dVertex
 10
130.8008672108428
 20
-141.7578607859867
 30
0.0
  0
SEQEND
  5
3EA
330
3E6
100
AcDbEntity
  8
0
  0
LINE
  5
3E5
330
A
100
AcDbEntity
  8
0
100
AcDbLine
 10
131.4541604246921
 20
-139.3372831279441
 30
0.0
 11
131.2399948156884
 21
-140.120003284093
 31
0.0
  0
LINE
  5
3E4
330
A
100
AcDbEntity
  8
0
100
AcDbLine
 10
131.6498415818307
 20
-138.6192786791478
 30
0.0
 11
131.4541604246921
 21
-139.3372831279441
 31
0.0
  0
LINE
  5
3E3
330
A
100
AcDbEntity
  8
0
100
AcDbLine
 10
131.8208708399418
 20
-137.9867821507988
 30
0.0
 11
131.6498415818307
 21
-138.6192786791478
 31
0.0
  0
LINE
  5
3E2
330
A
100
AcDbEntity
  8
0
100
AcDbLine
 10
131.96724372662
 20
-137.4567529044922
 30
0.0
 11
131.8208708399418
 21
-137.9867821507988
 31
0.0
  0
LINE
  5
3E1
330
A
100
AcDbEntity
  8
0
100
AcDbLine
 10
132.0812632320275
 20
-137.0368879500659
 30
0.0
 11
131.96724372662
 21
-137.4567529044922
 31
0.0
  0
LINE
  5
3E0
330
A
100
AcDbEntity
  8
0
100
AcDbLine
 10
132.1675448786235
 20
-136.7233410188037
 30
0.0
 11
132.0812632320275
 21
-137.0368879500659
 31
0.0
  0
POLYLINE
  5
3DB
330
A
100
AcDbEntity
  8
0
100
AcDb2dPolyline
 66
     1
 10
0.0
 20
0.0
 30
0.0
  0
VERTEX
  5
3DC
330
3DB
100
AcDbEntity
  8
0
100
AcDbVertex
100
AcDb2dVertex
 10
132.2584509924899
 20
-136.3835947362166
 30
0.0
  0
VERTEX
  5
3DD
330
3DB
100
AcDbEntity
  8
0
100
AcDbVertex
100
AcDb2dVertex
 10
132.2260976112192
 20
-136.5068587037593
 30
0.0
  0
VERTEX
  5
3DE
330
3DB
100
AcDbEntity
  8
0
100
AcDbVertex
100
AcDb2dVertex
 10
132.1675448786235
 20
-136.7233410188037
 30
0.0
  0
SEQEND
  5
3DF
330
3DB
100
AcDbEntity
  8
0
  0
LINE
  5
3DA
330
A
100
AcDbEntity
  8
0
100
AcDbLine
 10
132.3108407503288
 20
-136.1879180514835
 30
0.0
 11
132.2800214041389
 21
-136.3019330844854
 31
0.0
  0
LINE
  5
3D9
330
A
100
AcDbEntity
  8
0
100
AcDbLine
 10
132.3586015684917
 20
-136.0084135849803
 30
0.0
 11
132.3108407503288
 21
-136.1879180514835
 31
0.0
  0
LINE
  5
3D8
330
A
100
AcDbEntity
  8
0
100
AcDbLine
 10
132.414072813709
 20
-135.788854254963
 30
0.0
 11
132.3586015684917
 21
-136.0084135849803
 31
0.0
  0
LINE
  5
3D7
330
A
100
AcDbEntity
  8
0
100
AcDbLine
 10
132.4757025612776
 20
-135.5477200408911
 30
0.0
 11
132.414072813709
 21
-135.788854254963
 31
0.0
  0
LINE
  5
3D6
330
A
100
AcDbEntity
  8
0
100
AcDbLine
 10
132.5327123139812
 20
-135.3073550805626
 30
0.0
 11
132.4757025612776
 21
-135.5477200408911
 31
0.0
  0
LINE
  5
3D5
330
A
100
AcDbEntity
  8
0
100
AcDbLine
 10
132.5820161120362
 20
-135.0947279790454
 30
0.0
 11
132.5327123139812
 21
-135.3073550805626
 31
0.0
  0
LINE
  5
3D4
330
A
100
AcDbEntity
  8
0
100
AcDbLine
 10
132.6189984329827
 20
-134.909834263934
 30
0.0
 11
132.5820161120362
 21
-135.0947279790454
 31
0.0
  0
LINE
  5
3D3
330
A
100
AcDbEntity
  8
0
100
AcDbLine
 10
132.6390258647399
 20
-134.772705839391
 30
0.0
 11
132.6189984329827
 21
-134.909834263934
 31
0.0
  0
LINE
  5
3D2
330
A
100
AcDbEntity
  8
0
100
AcDbLine
 10
132.6451888394967
 20
-134.6717815372407
 30
0.0
 11
132.6390258647399
 21
-134.772705839391
 31
0.0
  0
LINE
  5
3D1
330
A
100
AcDbEntity
  8
0
100
AcDbLine
 10
132.6390258647399
 20
-134.6055273224017
 30
0.0
 11
132.6451888394967
 21
-134.6717815372407
 31
0.0
  0
LINE
  5
3D0
330
A
100
AcDbEntity
  8
0
100
AcDbLine
 10
132.298514800815
 20
-134.2257261763004
 30
0.0
 11
132.3416556241131
 21
-134.2950618785178
 31
0.0
  0
LINE
  5
3CF
330
A
100
AcDbEntity
  8
0
100
AcDbLine
 10
132.2507495102466
 20
-134.1448337783124
 30
0.0
 11
132.298514800815
 21
-134.2257261763004
 31
0.0
  0
LINE
  5
3CE
330
A
100
AcDbEntity
  8
0
100
AcDbLine
 10
132.2029842196782
 20
-134.0546969181892
 30
0.0
 11
132.2507495102466
 21
-134.1448337783124
 31
0.0
  0
LINE
  5
3CD
330
A
100
AcDbEntity
  8
0
100
AcDbLine
 10
132.1552189291099
 20
-133.9653337842148
 30
0.0
 11
132.2029842196782
 21
-134.0546969181892
 31
0.0
  0
LINE
  5
3CC
330
A
100
AcDbEntity
  8
0
100
AcDbLine
 10
132.1074536385414
 20
-133.8751969240915
 30
0.0
 11
132.1552189291099
 21
-133.9653337842148
 31
0.0
  0
LINE
  5
3CB
330
A
100
AcDbEntity
  8
0
100
AcDbLine
 10
132.0596928203784
 20
-133.7927615462117
 30
0.0
 11
132.1074536385414
 21
-133.8751969240915
 31
0.0
  0
LINE
  5
3CA
330
A
100
AcDbEntity
  8
0
100
AcDbLine
 10
132.0180905045669
 20
-133.7203488290213
 30
0.0
 11
132.0596928203784
 21
-133.7927615462117
 31
0.0
  0
LINE
  5
3C9
330
A
100
AcDbEntity
  8
0
100
AcDbLine
 10
131.6698734859932
 20
-133.2881579250813
 30
0.0
 11
131.7438291830755
 21
-133.3390002306227
 31
0.0
  0
LINE
  5
3C8
330
A
100
AcDbEntity
  8
0
100
AcDbLine
 10
131.5758858847483
 20
-133.2473248630129
 30
0.0
 11
131.6698734859932
 21
-133.2881579250813
 31
0.0
  0
LINE
  5
3C7
330
A
100
AcDbEntity
  8
0
100
AcDbLine
 10
131.4526219172056
 20
-133.2188222228638
 30
0.0
 11
131.5758858847483
 21
-133.2473248630129
 31
0.0
  0
LINE
  5
3C6
330
A
100
AcDbEntity
  8
0
100
AcDbLine
 10
131.301624563257
 20
-133.211116268215
 30
0.0
 11
131.4526219172056
 21
-133.2188222228638
 31
0.0
  0
LINE
  5
3C5
330
A
100
AcDbEntity
  8
0
100
AcDbLine
 10
131.1182693556321
 20
-133.2234422177287
 30
0.0
 11
131.301624563257
 21
-133.211116268215
 31
0.0
  0
LINE
  5
3C4
330
A
100
AcDbEntity
  8
0
100
AcDbLine
 10
130.9071807616014
 20
-133.2565693251482
 30
0.0
 11
131.1182693556321
 21
-133.2234422177287
 31
0.0
  0
LINE
  5
3C3
330
A
100
AcDbEntity
  8
0
100
AcDbLine
 10
130.6776077157056
 20
-133.308959082987
 30
0.0
 11
130.9071807616014
 21
-133.2565693251482
 31
0.0
  0
LINE
  5
3C2
330
A
100
AcDbEntity
  8
0
100
AcDbLine
 10
130.4387857352689
 20
-133.3752088254206
 30
0.0
 11
130.6776077157056
 21
-133.308959082987
 31
0.0
  0
LINE
  5
3C1
330
A
100
AcDbEntity
  8
0
100
AcDbLine
 10
130.2107467244541
 20
-133.4430060201515
 30
0.0
 11
130.4387857352689
 21
-133.3752088254206
 31
0.0
  0
LINE
  5
3C0
330
A
100
AcDbEntity
  8
0
100
AcDbLine
 10
130.0073640850721
 20
-133.5123417223689
 30
0.0
 11
130.2107467244541
 21
-133.4430060201515
 31
0.0
  0
LINE
  5
3BF
330
A
100
AcDbEntity
  8
0
100
AcDbLine
 10
129.8455792890963
 20
-133.5708899825592
 30
0.0
 11
130.0073640850721
 21
-133.5123417223689
 31
0.0
  0
LINE
  5
3BE
330
A
100
AcDbEntity
  8
0
100
AcDbLine
 10
129.7438902056081
 20
-133.6070985773571
 30
0.0
 11
129.8455792890963
 21
-133.5708899825592
 31
0.0
  0
LINE
  5
3BD
330
A
100
AcDbEntity
  8
0
100
AcDbLine
 10
129.5620779778752
 20
-133.6718098123041
 30
0.0
 11
129.6714730160122
 21
-133.6302119688981
 31
0.0
  0
LINE
  5
3BC
330
A
100
AcDbEntity
  8
0
100
AcDbLine
 10
129.3756412828719
 20
-133.7411455145216
 30
0.0
 11
129.5620779778752
 21
-133.6718098123041
 31
0.0
  0
LINE
  5
3BB
330
A
100
AcDbEntity
  8
0
100
AcDbLine
 10
129.1090859160294
 20
-133.846689811537
 30
0.0
 11
129.3756412828719
 21
-133.7411455145216
 31
0.0
  0
LINE
  5
3BA
330
A
100
AcDbEntity
  8
0
100
AcDbLine
 10
128.7562444301854
 20
-133.9899856832422
 30
0.0
 11
129.1090859160294
 21
-133.846689811537
 31
0.0
  0
LINE
  5
3B9
330
A
100
AcDbEntity
  8
0
100
AcDbLine
 10
128.3155783178533
 20
-134.1733364184616
 30
0.0
 11
128.7562444301854
 21
-133.9899856832422
 31
0.0
  0
LINE
  5
3B8
330
A
100
AcDbEntity
  8
0
100
AcDbLine
 10
127.7917120463036
 20
-134.4021446830197
 30
0.0
 11
128.3155783178533
 21
-134.1733364184616
 31
0.0
  0
LINE
  5
3B7
330
A
100
AcDbEntity
  8
0
100
AcDbLine
 10
127.193885605266
 20
-134.6671615423757
 30
0.0
 11
127.7917120463036
 21
-134.4021446830197
 31
0.0
  0
LINE
  5
3B6
330
A
100
AcDbEntity
  8
0
100
AcDbLine
 10
177.0429503919513
 20
-160.3027661560146
 30
0.0
 11
177.522132860311
 21
-160.27425904346
 31
0.0
  0
LINE
  5
3B5
330
A
100
AcDbEntity
  8
0
100
AcDbLine
 10
176.6623755197013
 20
-160.3358887910287
 30
0.0
 11
177.0429503919513
 21
-160.3027661560146
 31
0.0
  0
LINE
  5
3B4
330
A
100
AcDbEntity
  8
0
100
AcDbLine
 10
176.3804127159667
 20
-160.3597714363129
 30
0.0
 11
176.6623755197013
 21
-160.3358887910287
 31
0.0
  0
LINE
  5
3B3
330
A
100
AcDbEntity
  8
0
100
AcDbLine
 10
176.2109264377476
 20
-160.375178873205
 30
0.0
 11
176.3804127159667
 21
-160.3597714363129
 31
0.0
  0
LINE
  5
3B2
330
A
100
AcDbEntity
  8
0
100
AcDbLine
 10
175.9227961868506
 20
-160.4052244932461
 30
0.0
 11
176.0953684248537
 21
-160.3859663152323
 31
0.0
  0
LINE
  5
3B1
330
A
100
AcDbEntity
  8
0
100
AcDbLine
 10
175.6439148704943
 20
-160.4337316058007
 30
0.0
 11
175.9227961868506
 21
-160.4052244932461
 31
0.0
  0
LINE
  5
3B0
330
A
100
AcDbEntity
  8
0
100
AcDbLine
 10
175.2633399982444
 20
-160.4730216879771
 30
0.0
 11
175.6439148704943
 21
-160.4337316058007
 31
0.0
  0
LINE
  5
3AF
330
A
100
AcDbEntity
  8
0
100
AcDbLine
 10
174.79340199202
 20
-160.5315699481672
 30
0.0
 11
175.2633399982444
 21
-160.4730216879771
 31
0.0
  0
LINE
  5
3AE
330
A
100
AcDbEntity
  8
0
100
AcDbLine
 10
174.2510467961996
 20
-160.6055301176551
 30
0.0
 11
174.79340199202
 21
-160.5315699481672
 31
0.0
  0
LINE
  5
3AD
330
A
100
AcDbEntity
  8
0
100
AcDbLine
 10
173.6485958878917
 20
-160.6894995306159
 30
0.0
 11
174.2510467961996
 21
-160.6055301176551
 31
0.0
  0
LINE
  5
3AC
330
A
100
AcDbEntity
  8
0
100
AcDbLine
 10
173.0076286235562
 20
-160.7965868075233
 30
0.0
 11
173.6485958878917
 21
-160.6894995306159
 31
0.0
  0
LINE
  5
3AB
330
A
100
AcDbEntity
  8
0
100
AcDbLine
 10
172.34817243495
 20
-160.9129140741604
 30
0.0
 11
173.0076286235562
 21
-160.7965868075233
 31
0.0
  0
LINE
  5
3AA
330
A
100
AcDbEntity
  8
0
100
AcDbLine
 10
171.6917977337222
 20
-161.0538977122305
 30
0.0
 11
172.34817243495
 21
-160.9129140741604
 31
0.0
  0
LINE
  5
3A9
330
A
100
AcDbEntity
  8
0
100
AcDbLine
 10
171.0585364240355
 20
-161.2002705989087
 30
0.0
 11
171.6917977337222
 21
-161.0538977122305
 31
0.0
  0
LINE
  5
3A8
330
A
100
AcDbEntity
  8
0
100
AcDbLine
 10
170.4668729577548
 20
-161.3551231663844
 30
0.0
 11
171.0585364240355
 21
-161.2002705989087
 31
0.0
  0
LINE
  5
3A7
330
A
100
AcDbEntity
  8
0
100
AcDbLine
 10
169.9306807366913
 20
-161.5145912563196
 30
0.0
 11
170.4668729577548
 21
-161.3551231663844
 31
0.0
  0
LINE
  5
3A6
330
A
100
AcDbEntity
  8
0
100
AcDbLine
 10
169.4622812379534
 20
-161.6640501027817
 30
0.0
 11
169.9306807366913
 21
-161.5145912563196
 31
0.0
  0
LINE
  5
3A5
330
A
100
AcDbEntity
  8
0
100
AcDbLine
 10
169.0724619035682
 20
-161.8034907609599
 30
0.0
 11
169.4622812379534
 21
-161.6640501027817
 31
0.0
  0
LINE
  5
3A4
330
A
100
AcDbEntity
  8
0
100
AcDbLine
 10
168.7627657134276
 20
-161.9198180275969
 30
0.0
 11
169.0724619035682
 21
-161.8034907609599
 31
0.0
  0
LINE
  5
3A3
330
A
100
AcDbEntity
  8
0
100
AcDbLine
 10
168.5424326572616
 20
-162.0114978676121
 30
0.0
 11
168.7627657134276
 21
-161.9198180275969
 31
0.0
  0
LINE
  5
3A2
330
A
100
AcDbEntity
  8
0
100
AcDbLine
 10
168.4099242275836
 20
-162.0715846352888
 30
0.0
 11
168.5424326572616
 21
-162.0114978676121
 31
0.0
  0
LINE
  5
3A1
330
A
100
AcDbEntity
  8
0
100
AcDbLine
 10
168.1911341513095
 20
-162.1709659575473
 30
0.0
 11
168.3220996010956
 21
-162.1093362099787
 31
0.0
  0
LINE
  5
3A0
330
A
100
AcDbEntity
  8
0
100
AcDbLine
 10
167.9800455572786
 20
-162.2688087723193
 30
0.0
 11
168.1911341513095
 21
-162.1709659575473
 31
0.0
  0
LINE
  5
39F
330
A
100
AcDbEntity
  8
0
100
AcDbLine
 10
167.6996212610306
 20
-162.4059371968623
 30
0.0
 11
167.9800455572786
 21
-162.2688087723193
 31
0.0
  0
LINE
  5
39E
330
A
100
AcDbEntity
  8
0
100
AcDbLine
 10
167.3652686994572
 20
-162.5869801708519
 30
0.0
 11
167.6996212610306
 21
-162.4059371968623
 31
0.0
  0
LINE
  5
39D
330
A
100
AcDbEntity
  8
0
100
AcDbLine
 10
166.9893182944776
 20
-162.8050009933828
 30
0.0
 11
167.3652686994572
 21
-162.5869801708519
 31
0.0
  0
LINE
  5
39C
330
A
100
AcDbEntity
  8
0
100
AcDbLine
 10
166.590254497957
 20
-163.063854877982
 30
0.0
 11
166.9893182944776
 21
-162.8050009933828
 31
0.0
  0
LINE
  5
39B
330
A
100
AcDbEntity
  8
0
100
AcDbLine
 10
166.1834892191932
 20
-163.3542928901086
 30
0.0
 11
166.590254497957
 21
-163.063854877982
 31
0.0
  0
LINE
  5
39A
330
A
100
AcDbEntity
  8
0
100
AcDbLine
 10
165.7859639301592
 20
-163.6693828012628
 30
0.0
 11
166.1834892191932
 21
-163.3542928901086
 31
0.0
  0
LINE
  5
399
330
A
100
AcDbEntity
  8
0
100
AcDbLine
 10
165.4069320378012
 20
-164.0106675913363
 30
0.0
 11
165.7859639301592
 21
-163.6693828012628
 31
0.0
  0
LINE
  5
398
330
A
100
AcDbEntity
  8
0
100
AcDbLine
 10
165.0617965066059
 20
-164.3558031225317
 30
0.0
 11
165.4069320378012
 21
-164.0106675913363
 31
0.0
  0
LINE
  5
397
330
A
100
AcDbEntity
  8
0
100
AcDbLine
 10
164.7536388239519
 20
-164.7001693999837
 30
0.0
 11
165.0617965066059
 21
-164.3558031225317
 31
0.0
  0
LINE
  5
396
330
A
100
AcDbEntity
  8
0
100
AcDbLine
 10
164.4886219645959
 20
-165.0252730270164
 30
0.0
 11
164.7536388239519
 21
-164.7001693999837
 31
0.0
  0
LINE
  5
395
330
A
100
AcDbEntity
  8
0
100
AcDbLine
 10
164.2698318883218
 20
-165.3280369886567
 30
0.0
 11
164.4886219645959
 21
-165.0252730270164
 31
0.0
  0
LINE
  5
394
330
A
100
AcDbEntity
  8
0
100
AcDbLine
 10
164.0941826353458
 20
-165.5915153405263
 30
0.0
 11
164.2698318883218
 21
-165.3280369886567
 31
0.0
  0
LINE
  5
393
330
A
100
AcDbEntity
  8
0
100
AcDbLine
 10
163.9632127131541
 20
-165.8072239294219
 30
0.0
 11
164.0941826353458
 21
-165.5915153405263
 31
0.0
  0
LINE
  5
392
330
A
100
AcDbEntity
  8
0
100
AcDbLine
 10
163.8707680918012
 20
-165.9666964917626
 30
0.0
 11
163.9632127131541
 21
-165.8072239294219
 31
0.0
  0
LINE
  5
391
330
A
100
AcDbEntity
  8
0
100
AcDbLine
 10
163.816839826476
 20
-166.0691593013996
 30
0.0
 11
163.8707680918012
 21
-165.9666964917626
 31
0.0
  0
LINE
  5
390
330
A
100
AcDbEntity
  8
0
100
AcDbLine
 10
163.7290151999879
 20
-166.2332518586052
 30
0.0
 11
163.7829434653133
 21
-166.1338705363466
 31
0.0
  0
LINE
  5
38F
330
A
100
AcDbEntity
  8
0
100
AcDbLine
 10
163.6504350356353
 20
-166.3988873957026
 30
0.0
 11
163.7290151999879
 21
-166.2332518586052
 31
0.0
  0
LINE
  5
38E
330
A
100
AcDbEntity
  8
0
100
AcDbLine
 10
163.5472029722551
 20
-166.6230711929904
 30
0.0
 11
163.6504350356353
 21
-166.3988873957026
 31
0.0
  0
LINE
  5
38D
330
A
100
AcDbEntity
  8
0
100
AcDbLine
 10
163.4285634719827
 20
-166.9088847378466
 30
0.0
 11
163.5472029722551
 21
-166.6230711929904
 31
0.0
  0
LINE
  5
38C
330
A
100
AcDbEntity
  8
0
100
AcDbLine
 10
163.3052995044399
 20
-167.2401558120417
 30
0.0
 11
163.4285634719827
 21
-166.9088847378466
 31
0.0
  0
LINE
  5
38B
330
A
100
AcDbEntity
  8
0
100
AcDbLine
 10
163.1835740443838
 20
-167.6207306842916
 30
0.0
 11
163.3052995044399
 21
-167.2401558120417
 31
0.0
  0
LINE
  5
38A
330
A
100
AcDbEntity
  8
0
100
AcDbLine
 10
163.0680160314899
 20
-168.0305774504339
 30
0.0
 11
163.1835740443838
 21
-167.6207306842916
 31
0.0
  0
LINE
  5
389
330
A
100
AcDbEntity
  8
0
100
AcDbLine
 10
162.9617024807312
 20
-168.4627683543739
 30
0.0
 11
163.0680160314899
 21
-168.0305774504339
 31
0.0
  0
LINE
  5
388
330
A
100
AcDbEntity
  8
0
100
AcDbLine
 10
162.8723393467567
 20
-168.9080544615709
 30
0.0
 11
162.9617024807312
 21
-168.4627683543739
 31
0.0
  0
LINE
  5
387
330
A
100
AcDbEntity
  8
0
100
AcDbLine
 10
162.7968406697825
 20
-169.3479513201598
 30
0.0
 11
162.8723393467567
 21
-168.9080544615709
 31
0.0
  0
LINE
  5
386
330
A
100
AcDbEntity
  8
0
100
AcDbLine
 10
162.7305864549435
 20
-169.7755177568294
 30
0.0
 11
162.7968406697825
 21
-169.3479513201598
 31
0.0
  0
LINE
  5
385
330
A
100
AcDbEntity
  8
0
100
AcDbLine
 10
162.6766581896181
 20
-170.1715000659715
 30
0.0
 11
162.7305864549435
 21
-169.7755177568294
 31
0.0
  0
LINE
  5
384
330
A
100
AcDbEntity
  8
0
100
AcDbLine
 10
162.6319743864282
 20
-170.535898247586
 30
0.0
 11
162.6766581896181
 21
-170.1715000659715
 31
0.0
  0
LINE
  5
383
330
A
100
AcDbEntity
  8
0
100
AcDbLine
 10
162.5965350453735
 20
-170.8409744428616
 30
0.0
 11
162.6319743864282
 21
-170.535898247586
 31
0.0
  0
LINE
  5
382
330
A
100
AcDbEntity
  8
0
100
AcDbLine
 10
162.5688016589676
 20
-171.0928916265552
 30
0.0
 11
162.5965350453735
 21
-170.8409744428616
 31
0.0
  0
LINE
  5
381
330
A
100
AcDbEntity
  8
0
100
AcDbLine
 10
162.5487742272105
 20
-171.2777853416666
 30
0.0
 11
162.5688016589676
 21
-171.0928916265552
 31
0.0
  0
LINE
  5
380
330
A
100
AcDbEntity
  8
0
100
AcDbLine
 10
162.5364438052914
 20
-171.3879496335468
 30
0.0
 11
162.5487742272105
 21
-171.2777853416666
 31
0.0
  0
LINE
  5
37F
330
A
100
AcDbEntity
  8
0
100
AcDbLine
 10
203.2101272317887
 20
-169.9850678433735
 30
0.0
 11
204.3071635729431
 21
-180.6072455431815
 31
0.0
  0
LINE
  5
37E
330
A
100
AcDbEntity
  8
0
100
AcDbLine
 10
160.9586820158854
 20
-169.4619708255672
 30
0.0
 11
160.9463560663716
 21
-169.5875425543396
 31
0.0
  0
LINE
  5
37D
330
A
100
AcDbEntity
  8
0
100
AcDbLine
 10
160.975627960264
 20
-169.2578144600366
 30
0.0
 11
160.9586820158854
 21
-169.4619708255672
 31
0.0
  0
LINE
  5
37C
330
A
100
AcDbEntity
  8
0
100
AcDbLine
 10
161.0018228391834
 20
-168.9773901637884
 30
0.0
 11
160.975627960264
 21
-169.2578144600366
 31
0.0
  0
LINE
  5
37B
330
A
100
AcDbEntity
  8
0
100
AcDbLine
 10
161.035719200346
 20
-168.6314853788499
 30
0.0
 11
161.0018228391834
 21
-168.9773901637884
 31
0.0
  0
LINE
  5
37A
330
A
100
AcDbEntity
  8
0
100
AcDbLine
 10
161.0788600236442
 20
-168.2308786024374
 30
0.0
 11
161.035719200346
 21
-168.6314853788499
 31
0.0
  0
LINE
  5
379
330
A
100
AcDbEntity
  8
0
100
AcDbLine
 10
161.1358697763479
 20
-167.782511007862
 30
0.0
 11
161.0788600236442
 21
-168.2308786024374
 31
0.0
  0
LINE
  5
378
330
A
100
AcDbEntity
  8
0
100
AcDbLine
 10
161.2082869659436
 20
-167.3048670469888
 30
0.0
 11
161.1358697763479
 21
-167.782511007862
 31
0.0
  0
LINE
  5
377
330
A
100
AcDbEntity
  8
0
100
AcDbLine
 10
161.3022745671886
 20
-166.8110463954801
 30
0.0
 11
161.2082869659436
 21
-167.3048670469888
 31
0.0
  0
LINE
  5
376
330
A
100
AcDbEntity
  8
0
100
AcDbLine
 10
161.4193755599745
 20
-166.314144256593
 30
0.0
 11
161.3022745671886
 21
-166.8110463954801
 31
0.0
  0
LINE
  5
375
330
A
100
AcDbEntity
  8
0
100
AcDbLine
 10
161.5595854718958
 20
-165.8280250873277
 30
0.0
 11
161.4193755599745
 21
-166.314144256593
 31
0.0
  0
LINE
  5
374
330
A
100
AcDbEntity
  8
0
100
AcDbLine
 10
161.7167458006013
 20
-165.3704085582116
 30
0.0
 11
161.5595854718958
 21
-165.8280250873277
 31
0.0
  0
LINE
  5
373
330
A
100
AcDbEntity
  8
0
100
AcDbLine
 10
161.8939380334693
 20
-164.9474665888123
 30
0.0
 11
161.7167458006013
 21
-165.3704085582116
 31
0.0
  0
LINE
  5
372
330
A
100
AcDbEntity
  8
0
100
AcDbLine
 10
162.0757502612022
 20
-164.5753669249544
 30
0.0
 11
161.8939380334693
 21
-164.9474665888123
 31
0.0
  0
LINE
  5
371
330
A
100
AcDbEntity
  8
0
100
AcDbLine
 10
162.2483180267998
 20
-164.2579647801651
 30
0.0
 11
162.0757502612022
 21
-164.5753669249544
 31
0.0
  0
LINE
  5
370
330
A
100
AcDbEntity
  8
0
100
AcDbLine
 10
162.4039398480188
 20
-164.006043124066
 30
0.0
 11
162.2483180267998
 21
-164.2579647801651
 31
0.0
  0
LINE
  5
36F
330
A
100
AcDbEntity
  8
0
100
AcDbLine
 10
162.5271993431559
 20
-163.8211494089547
 30
0.0
 11
162.4039398480188
 21
-164.006043124066
 31
0.0
  0
LINE
  5
36E
330
A
100
AcDbEntity
  8
0
100
AcDbLine
 10
162.6073224874008
 20
-163.7125236245609
 30
0.0
 11
162.5271993431559
 21
-163.8211494089547
 31
0.0
  0
LINE
  5
36D
330
A
100
AcDbEntity
  8
0
100
AcDbLine
 10
162.7429124044572
 20
-163.5276299094495
 30
0.0
 11
162.6597077728341
 21
-163.6377942013298
 31
0.0
  0
LINE
  5
36C
330
A
100
AcDbEntity
  8
0
100
AcDbLine
 10
162.8846652962705
 20
-163.3496684228383
 30
0.0
 11
162.7429124044572
 21
-163.5276299094495
 31
0.0
  0
LINE
  5
36B
330
A
100
AcDbEntity
  8
0
100
AcDbLine
 10
163.0926679305173
 20
-163.1046834676448
 30
0.0
 11
162.8846652962705
 21
-163.3496684228383
 31
0.0
  0
LINE
  5
36A
330
A
100
AcDbEntity
  8
0
100
AcDbLine
 10
163.3653907445222
 20
-162.8096254606532
 30
0.0
 11
163.0926679305173
 21
-163.1046834676448
 31
0.0
  0
LINE
  5
369
330
A
100
AcDbEntity
  8
0
100
AcDbLine
 10
163.7151462705823
 20
-162.4768158789717
 30
0.0
 11
163.3653907445222
 21
-162.8096254606532
 31
0.0
  0
LINE
  5
368
330
A
100
AcDbEntity
  8
0
100
AcDbLine
 10
164.1388619661302
 20
-162.1139606772491
 30
0.0
 11
163.7151462705823
 21
-162.4768158789717
 31
0.0
  0
LINE
  5
367
330
A
100
AcDbEntity
  8
0
100
AcDbLine
 10
164.638080811058
 20
-161.7333858049992
 30
0.0
 11
164.1388619661302
 21
-162.1139606772491
 31
0.0
  0
LINE
  5
366
330
A
100
AcDbEntity
  8
0
100
AcDbLine
 10
165.2035493984193
 20
-161.3582046537629
 30
0.0
 11
164.638080811058
 21
-161.7333858049992
 31
0.0
  0
LINE
  5
365
330
A
100
AcDbEntity
  8
0
100
AcDbLine
 10
165.8306477333492
 20
-160.9907249847699
 30
0.0
 11
165.2035493984193
 21
-161.3582046537629
 31
0.0
  0
LINE
  5
364
330
A
100
AcDbEntity
  8
0
100
AcDbLine
 10
166.4993483840906
 20
-160.65483391571
 30
0.0
 11
165.8306477333492
 21
-160.9907249847699
 31
0.0
  0
LINE
  5
363
330
A
100
AcDbEntity
  8
0
100
AcDbLine
 10
167.1865379591026
 20
-160.3435947456774
 30
0.0
 11
166.4993483840906
 21
-160.65483391571
 31
0.0
  0
LINE
  5
362
330
A
100
AcDbEntity
  8
0
100
AcDbLine
 10
167.8706505191418
 20
-160.0785778863214
 30
0.0
 11
167.1865379591026
 21
-160.3435947456774
 31
0.0
  0
LINE
  5
361
330
A
100
AcDbEntity
  8
0
100
AcDbLine
 10
168.5193192657207
 20
-159.8543940890337
 30
0.0
 11
167.8706505191418
 21
-160.0785778863214
 31
0.0
  0
LINE
  5
360
330
A
100
AcDbEntity
  8
0
100
AcDbLine
 10
169.101738269866
 20
-159.674894094936
 30
0.0
 11
168.5193192657207
 21
-159.8543940890337
 31
0.0
  0
LINE
  5
35F
330
A
100
AcDbEntity
  8
0
100
AcDbLine
 10
169.5886266928746
 20
-159.5362226905012
 30
0.0
 11
169.101738269866
 21
-159.674894094936
 31
0.0
  0
LINE
  5
35E
330
A
100
AcDbEntity
  8
0
100
AcDbLine
 10
169.9599526305837
 20
-159.4414658355131
 30
0.0
 11
169.5886266928746
 21
-159.5362226905012
 31
0.0
  0
LINE
  5
35D
330
A
100
AcDbEntity
  8
0
100
AcDbLine
 10
170.189530148885
 20
-159.3844560828093
 30
0.0
 11
169.9599526305837
 21
-159.4414658355131
 31
0.0
  0
LINE
  5
35C
330
A
100
AcDbEntity
  8
0
100
AcDbLine
 10
170.2681103132378
 20
-159.3636549249036
 30
0.0
 11
170.189530148885
 21
-159.3844560828093
 31
0.0
  0
LINE
  5
35B
330
A
100
AcDbEntity
  8
0
100
AcDbLine
 10
170.3466904775905
 20
-159.3482474880113
 30
0.0
 11
170.2681103132378
 21
-159.3636549249036
 31
0.0
  0
LINE
  5
35A
330
A
100
AcDbEntity
  8
0
100
AcDbLine
 10
170.5824309706487
 20
-159.2943192226861
 30
0.0
 11
170.3466904775905
 21
-159.3482474880113
 31
0.0
  0
LINE
  5
359
330
A
100
AcDbEntity
  8
0
100
AcDbLine
 10
170.9753317924124
 20
-159.2095760835765
 30
0.0
 11
170.5824309706487
 21
-159.2943192226861
 31
0.0
  0
LINE
  5
358
330
A
100
AcDbEntity
  8
0
100
AcDbLine
 10
171.522311455503
 20
-159.1032625328179
 30
0.0
 11
170.9753317924124
 21
-159.2095760835765
 31
0.0
  0
LINE
  5
357
330
A
100
AcDbEntity
  8
0
100
AcDbLine
 10
172.2218314524343
 20
-158.9853922862888
 30
0.0
 11
171.522311455503
 21
-159.1032625328179
 31
0.0
  0
LINE
  5
356
330
A
100
AcDbEntity
  8
0
100
AcDbLine
 10
173.0615568888814
 20
-158.8575083238812
 30
0.0
 11
172.2218314524343
 21
-158.9853922862888
 31
0.0
  0
LINE
  5
355
330
A
100
AcDbEntity
  8
0
100
AcDbLine
 10
174.0260892727632
 20
-158.7404073310953
 30
0.0
 11
173.0615568888814
 21
-158.8575083238812
 31
0.0
  0
LINE
  5
354
330
A
100
AcDbEntity
  8
0
100
AcDbLine
 10
175.0984781872956
 20
-158.63486303408
 30
0.0
 11
174.0260892727632
 21
-158.7404073310953
 31
0.0
  0
LINE
  5
353
330
A
100
AcDbEntity
  8
0
100
AcDbLine
 10
176.2417413115319
 20
-158.5447261739567
 30
0.0
 11
175.0984781872956
 21
-158.63486303408
 31
0.0
  0
LINE
  5
352
330
A
100
AcDbEntity
  8
0
100
AcDbLine
 10
177.4296882389581
 20
-158.4838656801313
 30
0.0
 11
176.2417413115319
 21
-158.5447261739567
 31
0.0
  0
LINE
  5
351
330
A
100
AcDbEntity
  8
0
100
AcDbLine
 10
178.6207166537628
 20
-158.4468878315901
 30
0.0
 11
177.4296882389581
 21
-158.4838656801313
 31
0.0
  0
LINE
  5
350
330
A
100
AcDbEntity
  8
0
100
AcDbLine
 10
179.7778442349993
 20
-158.429937414806
 30
0.0
 11
178.6207166537628
 21
-158.4468878315901
 31
0.0
  0
LINE
  5
34F
330
A
100
AcDbEntity
  8
0
100
AcDbLine
 10
180.8610205915588
 20
-158.4391818769413
 30
0.0
 11
179.7778442349993
 21
-158.429937414806
 31
0.0
  0
LINE
  5
34E
330
A
100
AcDbEntity
  8
0
100
AcDbLine
 10
181.8363359450624
 20
-158.4553630399822
 30
0.0
 11
180.8610205915588
 21
-158.4391818769413
 31
0.0
  0
LINE
  5
34D
330
A
100
AcDbEntity
  8
0
100
AcDbLine
 10
182.6776043614014
 20
-158.4838656801313
 30
0.0
 11
181.8363359450624
 21
-158.4553630399822
 31
0.0
  0
LINE
  5
34C
330
A
100
AcDbEntity
  8
0
100
AcDbLine
 10
183.3524679868998
 20
-158.5169927875508
 30
0.0
 11
182.6776043614014
 21
-158.4838656801313
 31
0.0
  0
LINE
  5
34B
330
A
100
AcDbEntity
  8
0
100
AcDbLine
 10
183.8501438519355
 20
-158.5401061790919
 30
0.0
 11
183.3524679868998
 21
-158.5169927875508
 31
0.0
  0
LINE
  5
34A
330
A
100
AcDbEntity
  8
0
100
AcDbLine
 10
184.1521385598328
 20
-158.5609028645921
 30
0.0
 11
183.8501438519355
 21
-158.5401061790919
 31
0.0
  0
LINE
  5
349
330
A
100
AcDbEntity
  8
0
100
AcDbLine
 10
184.2553706232129
 20
-158.5655273318625
 30
0.0
 11
184.1521385598328
 21
-158.5609028645921
 31
0.0
  0
LINE
  5
348
330
A
100
AcDbEntity
  8
0
100
AcDbLine
 10
184.3570641791066
 20
-158.5732332865113
 30
0.0
 11
184.2553706232129
 21
-158.5655273318625
 31
0.0
  0
LINE
  5
347
330
A
100
AcDbEntity
  8
0
100
AcDbLine
 10
184.6575159071119
 20
-158.5940299720116
 30
0.0
 11
184.3570641791066
 21
-158.5732332865113
 31
0.0
  0
LINE
  5
346
330
A
100
AcDbEntity
  8
0
100
AcDbLine
 10
185.1505673048773
 20
-158.6256185719446
 30
0.0
 11
184.6575159071119
 21
-158.5940299720116
 31
0.0
  0
LINE
  5
345
330
A
100
AcDbEntity
  8
0
100
AcDbLine
 10
185.8161864682403
 20
-158.6795468372699
 30
0.0
 11
185.1505673048773
 21
-158.6256185719446
 31
0.0
  0
LINE
  5
344
330
A
100
AcDbEntity
  8
0
100
AcDbLine
 10
186.6343459654439
 20
-158.7535025343523
 30
0.0
 11
185.8161864682403
 21
-158.6795468372699
 31
0.0
  0
LINE
  5
343
330
A
100
AcDbEntity
  8
0
100
AcDbLine
 10
187.5742264502982
 20
-158.8513453491243
 30
0.0
 11
186.6343459654439
 21
-158.7535025343523
 31
0.0
  0
LINE
  5
342
330
A
100
AcDbEntity
  8
0
100
AcDbLine
 10
188.5988500742622
 20
-158.964591128383
 30
0.0
 11
187.5742264502982
 21
-158.8513453491243
 31
0.0
  0
LINE
  5
341
330
A
100
AcDbEntity
  8
0
100
AcDbLine
 10
189.6681530290105
 20
-159.0986380655475
 30
0.0
 11
188.5988500742622
 21
-158.964591128383
 31
0.0
  0
LINE
  5
340
330
A
100
AcDbEntity
  8
0
100
AcDbLine
 10
190.7436234309214
 20
-159.2473231858609
 30
0.0
 11
189.6681530290105
 21
-159.0986380655475
 31
0.0
  0
LINE
  5
33F
330
A
100
AcDbEntity
  8
0
100
AcDbLine
 10
191.7836544917775
 20
-159.4021757533366
 30
0.0
 11
190.7436234309214
 21
-159.2473231858609
 31
0.0
  0
LINE
  5
33E
330
A
100
AcDbEntity
  8
0
100
AcDbLine
 10
192.7528068705241
 20
-159.5562545946637
 30
0.0
 11
191.7836544917775
 21
-159.4021757533366
 31
0.0
  0
LINE
  5
33D
330
A
100
AcDbEntity
  8
0
100
AcDbLine
 10
193.6202701657825
 20
-159.7049397149771
 30
0.0
 11
192.7528068705241
 21
-159.5562545946637
 31
0.0
  0
LINE
  5
33C
330
A
100
AcDbEntity
  8
0
100
AcDbLine
 10
194.3721754481472
 20
-159.84206813952
 30
0.0
 11
193.6202701657825
 21
-159.7049397149771
 31
0.0
  0
LINE
  5
33B
330
A
100
AcDbEntity
  8
0
100
AcDbLine
 10
194.9915723008338
 20
-159.9583998785626
 30
0.0
 11
194.3721754481472
 21
-159.84206813952
 31
0.0
  0
LINE
  5
33A
330
A
100
AcDbEntity
  8
0
100
AcDbLine
 10
195.4830807187072
 20
-160.0577812008211
 30
0.0
 11
194.9915723008338
 21
-159.9583998785626
 31
0.0
  0
LINE
  5
339
330
A
100
AcDbEntity
  8
0
100
AcDbLine
 10
195.848248154065
 20
-160.1355876390251
 30
0.0
 11
195.4830807187072
 21
-160.0577812008211
 31
0.0
  0
LINE
  5
338
330
A
100
AcDbEntity
  8
0
100
AcDbLine
 10
196.1009345915018
 20
-160.1887466506072
 30
0.0
 11
195.848248154065
 21
-160.1355876390251
 31
0.0
  0
LINE
  5
337
330
A
100
AcDbEntity
  8
0
100
AcDbLine
 10
196.2457689706936
 20
-160.2218737580267
 30
0.0
 11
196.1009345915018
 21
-160.1887466506072
 31
0.0
  0
LINE
  5
336
330
A
100
AcDbEntity
  8
0
100
AcDbLine
 10
196.4753464889949
 20
-160.27425904346
 30
0.0
 11
196.3412995518303
 21
-160.244213423419
 31
0.0
  0
LINE
  5
335
330
A
100
AcDbEntity
  8
0
100
AcDbLine
 10
196.6848965755391
 20
-160.3212550802852
 30
0.0
 11
196.4753464889949
 21
-160.27425904346
 31
0.0
  0
LINE
  5
334
330
A
100
AcDbEntity
  8
0
100
AcDbLine
 10
196.9468274751112
 20
-160.3844278077458
 30
0.0
 11
196.6848965755391
 21
-160.3212550802852
 31
0.0
  0
LINE
  5
333
330
A
100
AcDbEntity
  8
0
100
AcDbLine
 10
197.2334147461163
 20
-160.4576142510849
 30
0.0
 11
196.9468274751112
 21
-160.3844278077458
 31
0.0
  0
LINE
  5
332
330
A
100
AcDbEntity
  8
0
100
AcDbLine
 10
197.5215405246078
 20
-160.5315699481672
 30
0.0
 11
197.2334147461163
 21
-160.4576142510849
 31
0.0
  0
LINE
  5
331
330
A
100
AcDbEntity
  8
0
100
AcDbLine
 10
197.7896388713422
 20
-160.6009056503846
 30
0.0
 11
197.5215405246078
 21
-160.5315699481672
 31
0.0
  0
LINE
  5
330
330
A
100
AcDbEntity
  8
0
100
AcDbLine
 10
198.02075489713
 20
-160.6579154030884
 30
0.0
 11
197.7896388713422
 21
-160.6009056503846
 31
0.0
  0
LINE
  5
32F
330
A
100
AcDbEntity
  8
0
100
AcDbLine
 10
198.2118160594038
 20
-160.7018299525352
 30
0.0
 11
198.02075489713
 21
-160.6579154030884
 31
0.0
  0
LINE
  5
32E
330
A
100
AcDbEntity
  8
0
100
AcDbLine
 10
198.3597274535685
 20
-160.7226266380355
 30
0.0
 11
198.2118160594038
 21
-160.7018299525352
 31
0.0
  0
LINE
  5
32D
330
A
100
AcDbEntity
  8
0
100
AcDbLine
 10
198.469126964111
 20
-160.7226266380355
 30
0.0
 11
198.3597274535685
 21
-160.7226266380355
 31
0.0
  0
LINE
  5
32C
330
A
100
AcDbEntity
  8
0
100
AcDbLine
 10
198.5507886158421
 20
-160.6972054852648
 30
0.0
 11
198.469126964111
 21
-160.7226266380355
 31
0.0
  0
LINE
  5
32B
330
A
100
AcDbEntity
  8
0
100
AcDbLine
 10
198.9205760460648
 20
-160.1702577263366
 30
0.0
 11
198.8681907606315
 21
-160.2696390485951
 31
0.0
  0
LINE
  5
32A
330
A
100
AcDbEntity
  8
0
100
AcDbLine
 10
198.9852872810119
 20
-160.0377492966586
 30
0.0
 11
198.9205760460648
 21
-160.1702577263366
 31
0.0
  0
LINE
  5
329
330
A
100
AcDbEntity
  8
0
100
AcDbLine
 10
199.0546229832293
 20
-159.8497740941688
 30
0.0
 11
198.9852872810119
 21
-160.0377492966586
 31
0.0
  0
LINE
  5
328
330
A
100
AcDbEntity
  8
0
100
AcDbLine
 10
199.1177957106899
 20
-159.6055583927185
 30
0.0
 11
199.0546229832293
 21
-159.8497740941688
 31
0.0
  0
LINE
  5
327
330
A
100
AcDbEntity
  8
0
100
AcDbLine
 10
199.1578550466094
 20
-159.2881562479291
 30
0.0
 11
199.1177957106899
 21
-159.6055583927185
 31
0.0
  0
LINE
  5
326
330
A
100
AcDbEntity
  8
0
100
AcDbLine
 10
199.156316539123
 20
-158.8906354313006
 30
0.0
 11
199.1578550466094
 21
-159.2881562479291
 31
0.0
  0
LINE
  5
325
330
A
100
AcDbEntity
  8
0
100
AcDbLine
 10
199.0977682789328
 20
-158.4191544451842
 30
0.0
 11
199.156316539123
 21
-158.8906354313006
 31
0.0
  0
LINE
  5
324
330
A
100
AcDbEntity
  8
0
100
AcDbLine
 10
198.9652598492548
 20
-157.8683195685665
 30
0.0
 11
199.0977682789328
 21
-158.4191544451842
 31
0.0
  0
LINE
  5
323
330
A
100
AcDbEntity
  8
0
100
AcDbLine
 10
198.7634157173594
 20
-157.2589409041639
 30
0.0
 11
198.9652598492548
 21
-157.8683195685665
 31
0.0
  0
LINE
  5
322
330
A
100
AcDbEntity
  8
0
100
AcDbLine
 10
198.4922358832465
 20
-156.6172043860851
 30
0.0
 11
198.7634157173594
 21
-157.2589409041639
 31
0.0
  0
LINE
  5
321
330
A
100
AcDbEntity
  8
0
100
AcDbLine
 10
198.1748337384571
 20
-155.9731556343711
 30
0.0
 11
198.4922358832465
 21
-156.6172043860851
 31
0.0
  0
LINE
  5
320
330
A
100
AcDbEntity
  8
0
100
AcDbLine
 10
197.8420241567756
 20
-155.3645417513063
 30
0.0
 11
198.1748337384571
 21
-155.9731556343711
 31
0.0
  0
LINE
  5
31F
330
A
100
AcDbEntity
  8
0
100
AcDbLine
 10
197.5292464792565
 20
-154.8291187839861
 30
0.0
 11
197.8420241567756
 21
-155.3645417513063
 31
0.0
  0
LINE
  5
31E
330
A
100
AcDbEntity
  8
0
100
AcDbLine
 10
197.2719355745494
 20
-154.4177290379519
 30
0.0
 11
197.5292464792565
 21
-154.8291187839861
 31
0.0
  0
LINE
  5
31D
330
A
100
AcDbEntity
  8
0
100
AcDbLine
 10
197.1055307837086
 20
-154.1557981383796
 30
0.0
 11
197.2719355745494
 21
-154.4177290379519
 31
0.0
  0
LINE
  5
31C
330
A
100
AcDbEntity
  8
0
100
AcDbLine
 10
197.0454395436265
 20
-154.0671997857431
 30
0.0
 11
197.1055307837086
 21
-154.1557981383796
 31
0.0
  0
LINE
  5
31B
330
A
100
AcDbEntity
  8
0
100
AcDbLine
 10
196.9853483035443
 20
-153.9770673980253
 30
0.0
 11
197.0454395436265
 21
-154.0671997857431
 31
0.0
  0
LINE
  5
31A
330
A
100
AcDbEntity
  8
0
100
AcDbLine
 10
196.8019930959196
 20
-153.6997245891555
 30
0.0
 11
196.9853483035443
 21
-153.9770673980253
 31
0.0
  0
LINE
  5
319
330
A
100
AcDbEntity
  8
0
100
AcDbLine
 10
196.4830524436436
 20
-153.2390310450664
 30
0.0
 11
196.8019930959196
 21
-153.6997245891555
 31
0.0
  0
LINE
  5
318
330
A
100
AcDbEntity
  8
0
100
AcDbLine
 10
196.0115714575273
 20
-152.5749503891898
 30
0.0
 11
196.4830524436436
 21
-153.2390310450664
 31
0.0
  0
LINE
  5
317
330
A
100
AcDbEntity
  8
0
100
AcDbLine
 10
195.3721427006781
 20
-151.7151930485802
 30
0.0
 11
196.0115714575273
 21
-152.5749503891898
 31
0.0
  0
LINE
  5
316
330
A
100
AcDbEntity
  8
0
100
AcDbLine
 10
194.5524446959881
 20
-150.6612930583185
 30
0.0
 11
195.3721427006781
 21
-151.7151930485802
 31
0.0
  0
LINE
  5
315
330
A
100
AcDbEntity
  8
0
100
AcDbLine
 10
193.5555589308356
 20
-149.4255808403237
 30
0.0
 11
194.5524446959881
 21
-150.6612930583185
 31
0.0
  0
LINE
  5
314
330
A
100
AcDbEntity
  8
0
100
AcDbLine
 10
192.3891824150583
 20
-148.0527401977861
 30
0.0
 11
193.5555589308356
 21
-149.4255808403237
 31
0.0
  0
LINE
  5
313
330
A
100
AcDbEntity
  8
0
100
AcDbLine
 10
191.0856774747382
 20
-146.5743552582332
 30
0.0
 11
192.3891824150583
 21
-148.0527401977861
 31
0.0
  0
LINE
  5
312
330
A
100
AcDbEntity
  8
0
100
AcDbLine
 10
189.6820219584163
 20
-145.0505217341524
 30
0.0
 11
191.0856774747382
 21
-146.5743552582332
 31
0.0
  0
LINE
  5
311
330
A
100
AcDbEntity
  8
0
100
AcDbLine
 10
188.2275196641474
 20
-143.5405481946665
 30
0.0
 11
189.6820219584163
 21
-145.0505217341524
 31
0.0
  0
LINE
  5
310
330
A
100
AcDbEntity
  8
0
100
AcDbLine
 10
186.782261832014
 20
-142.1014533372899
 30
0.0
 11
188.2275196641474
 21
-143.5405481946665
 31
0.0
  0
LINE
  5
30F
330
A
100
AcDbEntity
  8
0
100
AcDbLine
 10
185.4017152348276
 20
-140.7840839399695
 30
0.0
 11
186.782261832014
 21
-142.1014533372899
 31
0.0
  0
LINE
  5
30E
330
A
100
AcDbEntity
  8
0
100
AcDbLine
 10
184.139812610319
 20
-139.6308026274492
 30
0.0
 11
185.4017152348276
 21
-140.7840839399695
 31
0.0
  0
LINE
  5
30D
330
A
100
AcDbEntity
  8
0
100
AcDbLine
 10
183.0443147766512
 20
-138.6685824772026
 30
0.0
 11
184.139812610319
 21
-139.6308026274492
 31
0.0
  0
LINE
  5
30C
330
A
100
AcDbEntity
  8
0
100
AcDbLine
 10
182.1521995823653
 20
-137.9128264537164
 30
0.0
 11
183.0443147766512
 21
-138.6685824772026
 31
0.0
  0
LINE
  5
30B
330
A
100
AcDbEntity
  8
0
100
AcDbLine
 10
181.495820408732
 20
-137.3743219990178
 30
0.0
 11
182.1521995823653
 21
-137.9128264537164
 31
0.0
  0
LINE
  5
30A
330
A
100
AcDbEntity
  8
0
100
AcDbLine
 10
181.095218104725
 20
-137.0530691131068
 30
0.0
 11
181.495820408732
 21
-137.3743219990178
 31
0.0
  0
LINE
  5
309
330
A
100
AcDbEntity
  8
0
100
AcDbLine
 10
180.9611711675605
 20
-136.9421310950778
 30
0.0
 11
181.095218104725
 21
-137.0530691131068
 31
0.0
  0
LINE
  5
308
330
A
100
AcDbEntity
  8
0
100
AcDbLine
 10
180.8271197579907
 20
-136.8365867980624
 30
0.0
 11
180.9611711675605
 21
-136.9421310950778
 31
0.0
  0
LINE
  5
307
330
A
100
AcDbEntity
  8
0
100
AcDbLine
 10
180.4249744740916
 20
-136.5222661406515
 30
0.0
 11
180.8271197579907
 21
-136.8365867980624
 31
0.0
  0
LINE
  5
306
330
A
100
AcDbEntity
  8
0
100
AcDbLine
 10
179.7685997728639
 20
-136.020739534494
 30
0.0
 11
180.4249744740916
 21
-136.5222661406515
 31
0.0
  0
LINE
  5
305
330
A
100
AcDbEntity
  8
0
100
AcDbLine
 10
178.8749460710915
 20
-135.3643648332663
 30
0.0
 11
179.7685997728639
 21
-136.020739534494
 31
0.0
  0
LINE
  5
304
330
A
100
AcDbEntity
  8
0
100
AcDbLine
 10
177.7717422827749
 20
-134.5901198855094
 30
0.0
 11
178.8749460710915
 21
-135.3643648332663
 31
0.0
  0
LINE
  5
303
330
A
100
AcDbEntity
  8
0
100
AcDbLine
 10
176.4944277489687
 20
-133.7442270019
 30
0.0
 11
177.7717422827749
 21
-134.5901198855094
 31
0.0
  0
LINE
  5
302
330
A
100
AcDbEntity
  8
0
100
AcDbLine
 10
175.0815277705114
 20
-132.8759944528983
 30
0.0
 11
176.4944277489687
 21
-133.7442270019
 31
0.0
  0
LINE
  5
301
330
A
100
AcDbEntity
  8
0
100
AcDbLine
 10
173.5838846529446
 20
-132.032413802924
 30
0.0
 11
175.0815277705114
 21
-132.8759944528983
 31
0.0
  0
LINE
  5
300
330
A
100
AcDbEntity
  8
0
100
AcDbLine
 10
172.0446392195663
 20
-131.2527796065591
 30
0.0
 11
173.5838846529446
 21
-132.032413802924
 31
0.0
  0
LINE
  5
2FF
330
A
100
AcDbEntity
  8
0
100
AcDbLine
 10
170.5192582431881
 20
-130.5725222600472
 30
0.0
 11
172.0446392195663
 21
-131.2527796065591
 31
0.0
  0
LINE
  5
2FE
330
A
100
AcDbEntity
  8
0
100
AcDbLine
 10
169.0539729792976
 20
-130.012442921294
 30
0.0
 11
170.5192582431881
 21
-130.5725222600472
 31
0.0
  0
LINE
  5
2FD
330
A
100
AcDbEntity
  8
0
100
AcDbLine
 10
167.6888338190034
 20
-129.5848764846244
 30
0.0
 11
169.0539729792976
 21
-130.012442921294
 31
0.0
  0
LINE
  5
2FC
330
A
100
AcDbEntity
  8
0
100
AcDbLine
 10
166.4608275556575
 20
-129.2790310356055
 30
0.0
 11
167.6888338190034
 21
-129.5848764846244
 31
0.0
  0
LINE
  5
2FB
330
A
100
AcDbEntity
  8
0
100
AcDbLine
 10
165.396144595774
 20
-129.0879743457374
 30
0.0
 11
166.4608275556575
 21
-129.2790310356055
 31
0.0
  0
LINE
  5
2FA
330
A
100
AcDbEntity
  8
0
100
AcDbLine
 10
164.5132738636234
 20
-128.9855115361004
 30
0.0
 11
165.396144595774
 21
-129.0879743457374
 31
0.0
  0
LINE
  5
2F9
330
A
100
AcDbEntity
  8
0
100
AcDbLine
 10
163.8230028012329
 20
-128.944678474032
 30
0.0
 11
164.5132738636234
 21
-128.9855115361004
 31
0.0
  0
LINE
  5
2F8
330
A
100
AcDbEntity
  8
0
100
AcDbLine
 10
163.3284084235755
 20
-128.9415969866537
 30
0.0
 11
163.8230028012329
 21
-128.944678474032
 31
0.0
  0
LINE
  5
2F7
330
A
100
AcDbEntity
  8
0
100
AcDbLine
 10
163.0310381829488
 20
-128.9493029413025
 30
0.0
 11
163.3284084235755
 21
-128.9415969866537
 31
0.0
  0
LINE
  5
2F6
330
A
100
AcDbEntity
  8
0
100
AcDbLine
 10
162.9324261144335
 20
-128.9539229361674
 30
0.0
 11
163.0310381829488
 21
-128.9493029413025
 31
0.0
  0
LINE
  5
2F5
330
A
100
AcDbEntity
  8
0
100
AcDbLine
 10
162.8338185183236
 20
-128.9585474034377
 30
0.0
 11
162.9324261144335
 21
-128.9539229361674
 31
0.0
  0
LINE
  5
2F4
330
A
100
AcDbEntity
  8
0
100
AcDbLine
 10
162.5456927398321
 20
-128.9762670739651
 30
0.0
 11
162.8338185183236
 21
-128.9585474034377
 31
0.0
  0
LINE
  5
2F3
330
A
100
AcDbEntity
  8
0
100
AcDbLine
 10
162.0819132359591
 20
-129.0301908668849
 30
0.0
 11
162.5456927398321
 21
-128.9762670739651
 31
0.0
  0
LINE
  5
2F2
330
A
100
AcDbEntity
  8
0
100
AcDbLine
 10
161.4655978706509
 20
-129.1272644279137
 30
0.0
 11
162.0819132359591
 21
-129.0301908668849
 31
0.0
  0
LINE
  5
2F1
330
A
100
AcDbEntity
  8
0
100
AcDbLine
 10
160.733724492449
 20
-129.2998321935113
 30
0.0
 11
161.4655978706509
 21
-129.1272644279137
 31
0.0
  0
LINE
  5
2F0
330
A
100
AcDbEntity
  8
0
100
AcDbLine
 10
159.9155694676508
 20
-129.5602245855969
 30
0.0
 11
160.733724492449
 21
-129.2998321935113
 31
0.0
  0
LINE
  5
2EF
330
A
100
AcDbEntity
  8
0
100
AcDbLine
 10
159.0481061723924
 20
-129.924618294806
 30
0.0
 11
159.9155694676508
 21
-129.5602245855969
 31
0.0
  0
ELLIPSE
  5
2EE
330
A
100
AcDbEntity
  8
0
100
AcDbEllipse
 10
58.45478438976297
 20
-91.48199881637484
 30
0.0
 11
2.536134405307767
 21
-0.0000000000000005
 31
0.0
210
0.0
220
0.0
230
1.0
 40
0.976003
 41
0.0
 42
6.283185307179584
  0
LINE
  5
2ED
330
A
100
AcDbEntity
  8
0
100
AcDbLine
 10
58.45324140987102
 20
-82.19721794564444
 30
0.0
 11
149.7725697637972
 21
-82.19721794564447
 31
0.0
  0
LINE
  5
2EB
330
A
100
AcDbEntity
  8
0
100
AcDbLine
 10
58.45324140987102
 20
-100.7660059609566
 30
0.0
 11
48.94196898062313
 21
-100.7660059609566
 31
0.0
  0
LINE
  5
2EA
330
A
100
AcDbEntity
  8
0
100
AcDbLine
 10
67.96605681901088
 20
-82.19721794564447
 30
0.0
 11
67.96605681901088
 21
-91.48199881637493
 31
0.0
  0
LINE
  5
2E8
330
A
100
AcDbEntity
  8
0
100
AcDbLine
 10
48.94196898062313
 20
-91.48199881637484
 30
0.0
 11
48.9419689806231
 21
-180.6072455431815
 31
0.0
  0
LINE
  5
2E7
330
A
100
AcDbEntity
  8
0
100
AcDbLine
 10
58.45324140987102
 20
-82.19721794564444
 30
0.0
 11
67.96605681901088
 21
-82.19721794564447
 31
0.0
  0
LINE
  5
2E6
330
A
100
AcDbEntity
  8
0
100
AcDbLine
 10
107.1343911732926
 20
-180.6072455431815
 30
0.0
 11
95.9066810777983
 21
-172.6960790411373
 31
0.0
  0
LINE
  5
2E5
330
A
100
AcDbEntity
  8
0
100
AcDbLine
 10
107.1343911732926
 20
-180.6072455431815
 30
0.0
 11
95.53688917517016
 21
-175.0203568642998
 31
0.0
  0
LINE
  5
2E4
330
A
100
AcDbEntity
  8
0
100
AcDbLine
 10
78.11213801024291
 20
-180.6072455431815
 30
0.0
 11
221.4314630098651
 21
-180.6072455431815
 31
0.0
  0
LINE
  5
2E3
330
A
100
AcDbEntity
  8
0
100
AcDbLine
 10
203.2917888835199
 20
-171.9179833522589
 30
0.0
 11
203.4196728459275
 21
-172.0004142577333
 31
0.0
  0
LINE
  5
2E2
330
A
100
AcDbEntity
  8
0
100
AcDbLine
 10
202.9096710313781
 20
-171.6722246709166
 30
0.0
 11
203.2917888835199
 21
-171.9179833522589
 31
0.0
  0
LINE
  5
2E1
330
A
100
AcDbEntity
  8
0
100
AcDbLine
 10
202.2856541838265
 20
-171.2777853416666
 30
0.0
 11
202.9096710313781
 21
-171.6722246709166
 31
0.0
  0
LINE
  5
2E0
330
A
100
AcDbEntity
  8
0
100
AcDbLine
 10
201.4366798128387
 20
-170.7346564196975
 30
0.0
 11
202.2856541838265
 21
-171.2777853416666
 31
0.0
  0
LINE
  5
2DF
330
A
100
AcDbEntity
  8
0
100
AcDbLine
 10
200.3874042898473
 20
-170.0659557689561
 30
0.0
 11
201.4366798128387
 21
-170.7346564196975
 31
0.0
  0
LINE
  5
2DE
330
A
100
AcDbEntity
  8
0
100
AcDbLine
 10
199.1732669559071
 20
-169.3009552833345
 30
0.0
 11
200.3874042898473
 21
-170.0659557689561
 31
0.0
  0
LINE
  5
2DD
330
A
100
AcDbEntity
  8
0
100
AcDbLine
 10
197.8327796946403
 20
-168.4535238922387
 30
0.0
 11
199.1732669559071
 21
-169.3009552833345
 31
0.0
  0
LINE
  5
2DC
330
A
100
AcDbEntity
  8
0
100
AcDbLine
 10
196.4090922741559
 20
-167.5698839063448
 30
0.0
 11
197.8327796946403
 21
-168.4535238922387
 31
0.0
  0
LINE
  5
2DB
330
A
100
AcDbEntity
  8
0
100
AcDbLine
 10
194.9499699850222
 20
-166.6769994583156
 30
0.0
 11
196.4090922741559
 21
-167.5698839063448
 31
0.0
  0
LINE
  5
2DA
330
A
100
AcDbEntity
  8
0
100
AcDbLine
 10
193.5016306655103
 20
-165.8118439242869
 30
0.0
 11
194.9499699850222
 21
-166.6769994583156
 31
0.0
  0
LINE
  5
2D9
330
A
100
AcDbEntity
  8
0
100
AcDbLine
 10
192.1118396061886
 20
-165.0013903817321
 30
0.0
 11
193.5016306655103
 21
-165.8118439242869
 31
0.0
  0
LINE
  5
2D8
330
A
100
AcDbEntity
  8
0
100
AcDbLine
 10
190.8191221078956
 20
-164.271059983422
 30
0.0
 11
192.1118396061886
 21
-165.0013903817321
 31
0.0
  0
LINE
  5
2D7
330
A
100
AcDbEntity
  8
0
100
AcDbLine
 10
189.6558270794969
 20
-163.6377942013298
 30
0.0
 11
190.8191221078956
 21
-164.271059983422
 31
0.0
  0
LINE
  5
2D6
330
A
100
AcDbEntity
  8
0
100
AcDbLine
 10
188.6496923798036
 20
-163.1123894222936
 30
0.0
 11
189.6558270794969
 21
-163.6377942013298
 31
0.0
  0
LINE
  5
2D5
330
A
100
AcDbEntity
  8
0
100
AcDbLine
 10
187.8145869382214
 20
-162.697918188881
 30
0.0
 11
188.6496923798036
 21
-163.1123894222936
 31
0.0
  0
LINE
  5
2D4
330
A
100
AcDbEntity
  8
0
100
AcDbLine
 10
187.1612937243719
 20
-162.3866790188484
 30
0.0
 11
187.8145869382214
 21
-162.697918188881
 31
0.0
  0
LINE
  5
2D3
330
A
100
AcDbEntity
  8
0
100
AcDbLine
 10
186.6944372055261
 20
-162.1709659575473
 30
0.0
 11
187.1612937243719
 21
-162.3866790188484
 31
0.0
  0
LINE
  5
2D2
330
A
100
AcDbEntity
  8
0
100
AcDbLine
 10
186.4140129092779
 20
-162.0492449698966
 30
0.0
 11
186.6944372055261
 21
-162.1709659575473
 31
0.0
  0
LINE
  5
2D1
330
A
100
AcDbEntity
  8
0
100
AcDbLine
 10
186.3200253080329
 20
-162.0068734003418
 30
0.0
 11
186.4140129092779
 21
-162.0492449698966
 31
0.0
  0
LINE
  5
2D0
330
A
100
AcDbEntity
  8
0
100
AcDbLine
 10
186.2275762142746
 20
-161.9675833181654
 30
0.0
 11
186.3200253080329
 21
-162.0068734003418
 31
0.0
  0
LINE
  5
2CF
330
A
100
AcDbEntity
  8
0
100
AcDbLine
 10
185.9548578726752
 20
-161.8520253052715
 30
0.0
 11
186.2275762142746
 21
-161.9675833181654
 31
0.0
  0
LINE
  5
2CE
330
A
100
AcDbEntity
  8
0
100
AcDbLine
 10
185.5188162276134
 20
-161.6725253111738
 30
0.0
 11
185.9548578726752
 21
-161.8520253052715
 31
0.0
  0
LINE
  5
2CD
330
A
100
AcDbEntity
  8
0
100
AcDbLine
 10
184.9379402033601
 20
-161.4498800213725
 30
0.0
 11
185.5188162276134
 21
-161.6725253111738
 31
0.0
  0
LINE
  5
2CC
330
A
100
AcDbEntity
  8
0
100
AcDbLine
 10
184.249207648456
 20
-161.2033520862871
 30
0.0
 11
184.9379402033601
 21
-161.4498800213725
 31
0.0
  0
LINE
  5
2CB
330
A
100
AcDbEntity
  8
0
100
AcDbLine
 10
183.4788134418209
 20
-160.9591408572423
 30
0.0
 11
184.249207648456
 21
-161.2033520862871
 31
0.0
  0
LINE
  5
2CA
330
A
100
AcDbEntity
  8
0
100
AcDbLine
 10
182.6606584170228
 20
-160.7380340749276
 30
0.0
 11
183.4788134418209
 21
-160.9591408572423
 31
0.0
  0
LINE
  5
2C9
330
A
100
AcDbEntity
  8
0
100
AcDbLine
 10
181.8240099955485
 20
-160.5516018523298
 30
0.0
 11
182.6606584170228
 21
-160.7380340749276
 31
0.0
  0
LINE
  5
2C8
330
A
100
AcDbEntity
  8
0
100
AcDbLine
 10
180.9919860413449
 20
-160.4052244932461
 30
0.0
 11
181.8240099955485
 21
-160.5516018523298
 31
0.0
  0
LINE
  5
2C7
330
A
100
AcDbEntity
  8
0
100
AcDbLine
 10
180.1892339810335
 20
-160.310467638258
 30
0.0
 11
180.9919860413449
 21
-160.4052244932461
 31
0.0
  0
LINE
  5
2C6
330
A
100
AcDbEntity
  8
0
100
AcDbLine
 10
179.4280887089391
 20
-160.2573130990814
 30
0.0
 11
180.1892339810335
 21
-160.310467638258
 31
0.0
  0
LINE
  5
2C5
330
A
100
AcDbEntity
  8
0
100
AcDbLine
 10
178.7224057372509
 20
-160.2380504486621
 30
0.0
 11
179.4280887089391
 21
-160.2573130990814
 31
0.0
  0
LINE
  5
2C4
330
A
100
AcDbEntity
  8
0
100
AcDbLine
 10
178.0829814528074
 20
-160.244213423419
 30
0.0
 11
178.7224057372509
 21
-160.2380504486621
 31
0.0
  0
LINE
  5
2C3
330
A
100
AcDbEntity
  8
0
100
AcDbLine
 10
177.522132860311
 20
-160.27425904346
 30
0.0
 11
178.0829814528074
 21
-160.244213423419
 31
0.0
  0
LINE
  5
2C2
330
A
100
AcDbEntity
  8
0
  6
CENTER2
100
AcDbLine
 10
149.7725697637972
 20
-65.90648544281815
 30
0.0
 11
149.7725697637972
 21
-192.1685389465061
 31
0.0
  0
LINE
  5
2C0
330
A
100
AcDbEntity
  8
0
100
AcDbLine
 10
404.9807238362736
 20
-180.6072455431815
 30
0.0
 11
398.6357669002708
 21
-180.6072455431815
 31
0.0
  0
LINE
  5
2BF
330
A
100
AcDbEntity
  8
0
100
AcDbLine
 10
436.685485556938
 20
-180.6072455431816
 30
0.0
 11
404.9807238362736
 21
-180.6072455431815
 31
0.0
  0
LINE
  5
2BE
330
A
100
AcDbEntity
  8
0
100
AcDbLine
 10
474.7352086860111
 20
-195.191563040451
 30
0.0
 11
468.3948717448727
 21
-195.191563040451
 31
0.0
  0
LINE
  5
2BD
330
A
100
AcDbEntity
  8
0
100
AcDbLine
 10
474.7352086860111
 20
-180.6072455431816
 30
0.0
 11
474.7352086860111
 21
-195.191563040451
 31
0.0
  0
LINE
  5
2BC
330
A
100
AcDbEntity
  8
0
100
AcDbLine
 10
468.3948717448727
 20
-180.6072455431816
 30
0.0
 11
474.7352086860111
 21
-180.6072455431816
 31
0.0
  0
LINE
  5
2BB
330
A
100
AcDbEntity
  8
0
100
AcDbLine
 10
439.6977266812613
 20
-147.9679970586766
 30
0.0
 11
436.685485556938
 21
-147.9679970586766
 31
0.0
  0
LINE
  5
2BA
330
A
100
AcDbEntity
  8
0
100
AcDbLine
 10
439.6977266812613
 20
-147.8254749131201
 30
0.0
 11
439.6977266812613
 21
-140.9658961677025
 31
0.0
  0
LINE
  5
2B9
330
A
100
AcDbEntity
  8
0
100
AcDbLine
 10
358.049912572667
 20
-208.3175185575189
 30
0.0
 11
449.1643153073193
 21
-208.317518557519
 31
0.0
  0
LINE
  5
2B8
330
A
100
AcDbEntity
  8
0
100
AcDbLine
 10
436.685485556938
 20
-180.6072455431816
 30
0.0
 11
468.3948717448727
 21
-180.6072455431816
 31
0.0
  0
LINE
  5
2B7
330
A
100
AcDbEntity
  8
0
100
AcDbLine
 10
436.685485556938
 20
-240.0269047454536
 30
0.0
 11
358.0499125726669
 21
-240.0269047454536
 31
0.0
  0
LINE
  5
2B6
330
A
100
AcDbEntity
  8
0
100
AcDbLine
 10
436.685485556938
 20
-180.6072455431816
 30
0.0
 11
436.685485556938
 21
-240.0269047454536
 31
0.0
  0
LINE
  5
2B5
330
A
100
AcDbEntity
  8
0
100
AcDbLine
 10
358.049912572667
 20
-180.6072455431815
 30
0.0
 11
436.685485556938
 21
-180.6072455431816
 31
0.0
  0
LINE
  5
2B4
330
A
100
AcDbEntity
  8
0
100
AcDbLine
 10
474.7352086860111
 20
-166.0237017720609
 30
0.0
 11
468.3948717448727
 21
-166.0237017720609
 31
0.0
  0
LINE
  5
2B3
330
A
100
AcDbEntity
  8
0
100
AcDbLine
 10
474.7352086860111
 20
-180.6072455431816
 30
0.0
 11
474.7352086860111
 21
-166.0237017720609
 31
0.0
  0
LINE
  5
2B2
330
A
100
AcDbEntity
  8
0
100
AcDbLine
 10
468.3948717448727
 20
-180.6072455431816
 30
0.0
 11
474.7352086860111
 21
-180.6072455431816
 31
0.0
  0
LINE
  5
2B1
330
A
100
AcDbEntity
  8
0
100
AcDbLine
 10
439.6977266812613
 20
-133.9668722917014
 30
0.0
 11
439.6977266812613
 21
-141.5575551615777
 31
0.0
  0
LINE
  5
2B0
330
A
100
AcDbEntity
  8
0
100
AcDbLine
 10
358.049912572667
 20
-133.9668722917013
 30
0.0
 11
439.7155783535866
 21
-133.9668722917014
 31
0.0
  0
LINE
  5
2AF
330
A
100
AcDbEntity
  8
0
100
AcDbLine
 10
358.049912572667
 20
-180.6072455431815
 30
0.0
 11
358.049912572667
 21
-169.4665908204321
 31
0.0
  0
LINE
  5
2AE
330
A
100
AcDbEntity
  8
0
100
AcDbLine
 10
436.685485556938
 20
-180.6072455431816
 30
0.0
 11
468.3948717448727
 21
-180.6072455431816
 31
0.0
  0
LINE
  5
2AD
330
A
100
AcDbEntity
  8
0
100
AcDbLine
 10
436.685485556938
 20
-180.6072455431816
 30
0.0
 11
436.685485556938
 21
-242.9235833844775
 31
0.0
  0
LINE
  5
2AC
330
A
100
AcDbEntity
  8
0
100
AcDbLine
 10
358.0499125726669
 20
-240.0269047454536
 30
0.0
 11
436.685485556938
 21
-240.0269047454536
 31
0.0
  0
LINE
  5
2AB
330
A
100
AcDbEntity
  8
0
100
AcDbLine
 10
358.049912572667
 20
-121.1929845343285
 30
0.0
 11
358.0499125726669
 21
-240.0269047454536
 31
0.0
  0
LINE
  5
2AA
330
A
100
AcDbEntity
  8
0
100
AcDbLine
 10
436.685485556938
 20
-120.6013210680479
 30
0.0
 11
358.049912572667
 21
-120.6013210680478
 31
0.0
  0
LINE
  5
2A9
330
A
100
AcDbEntity
  8
0
100
AcDbLine
 10
436.685485556938
 20
-180.6072455431816
 30
0.0
 11
436.685485556938
 21
-120.6013210680479
 31
0.0
  0
LINE
  5
2A8
330
A
100
AcDbEntity
  8
0
100
AcDbLine
 10
358.049912572667
 20
-180.6072455431815
 30
0.0
 11
436.685485556938
 21
-180.6072455431816
 31
0.0
  0
LINE
  5
2A7
330
A
100
AcDbEntity
  8
0
100
AcDbLine
 10
323.8074766735798
 20
-180.6072455431815
 30
0.0
 11
323.8074766735798
 21
-79.72117798719569
 31
0.0
  0
LINE
  5
2A6
330
A
100
AcDbEntity
  8
0
100
AcDbLine
 10
358.0499125726669
 20
-281.4956298052081
 30
0.0
 11
320.2575048207067
 21
-281.4956298052081
 31
0.0
  0
LINE
  5
2A5
330
A
100
AcDbEntity
  8
0
100
AcDbLine
 10
309.5274661178428
 20
-267.9629000645652
 30
0.0
 11
308.8310320806954
 21
-265.0109978824473
 31
0.0
  0
LINE
  5
2A4
330
A
100
AcDbEntity
  8
0
100
AcDbLine
 10
309.8094333939829
 20
-269.0691853402604
 30
0.0
 11
309.5274661178428
 21
-267.9629000645652
 31
0.0
  0
LINE
  5
2A3
330
A
100
AcDbEntity
  8
0
100
AcDbLine
 10
310.0559568566628
 20
-269.9828754186008
 30
0.0
 11
309.8094333939829
 21
-269.0691853402604
 31
0.0
  0
LINE
  5
2A2
330
A
100
AcDbEntity
  8
0
100
AcDbLine
 10
310.2624209834232
 20
-270.6885539178834
 30
0.0
 11
310.0559568566628
 21
-269.9828754186008
 31
0.0
  0
LINE
  5
2A1
330
A
100
AcDbEntity
  8
0
100
AcDbLine
 10
310.4164998247502
 20
-271.1939312651625
 30
0.0
 11
310.2624209834232
 21
-270.6885539178834
 31
0.0
  0
LINE
  5
2A0
330
A
100
AcDbEntity
  8
0
100
AcDbLine
 10
310.5089489185086
 20
-271.4928444856813
 30
0.0
 11
310.4164998247502
 21
-271.1939312651625
 31
0.0
  0
LINE
  5
29F
330
A
100
AcDbEntity
  8
0
100
AcDbLine
 10
310.5428452796713
 20
-271.5929950616831
 30
0.0
 11
310.5089489185086
 21
-271.4928444856813
 31
0.0
  0
LINE
  5
29E
330
A
100
AcDbEntity
  8
0
100
AcDbLine
 10
310.5767416408342
 20
-271.6931456376848
 30
0.0
 11
310.5428452796713
 21
-271.5929950616831
 31
0.0
  0
LINE
  5
29D
330
A
100
AcDbEntity
  8
0
100
AcDbLine
 10
310.672272221971
 20
-271.9797329086899
 30
0.0
 11
310.5767416408342
 21
-271.6931456376848
 31
0.0
  0
LINE
  5
29C
330
A
100
AcDbEntity
  8
0
100
AcDbLine
 10
310.8325140380549
 20
-272.4450509200494
 30
0.0
 11
310.672272221971
 21
-271.9797329086899
 31
0.0
  0
LINE
  5
29B
330
A
100
AcDbEntity
  8
0
100
AcDbLine
 10
311.0574670890859
 20
-273.0536603307087
 30
0.0
 11
310.8325140380549
 21
-272.4450509200494
 31
0.0
  0
LINE
  5
29A
330
A
100
AcDbEntity
  8
0
100
AcDbLine
 10
311.3409728727124
 20
-273.7701262720185
 30
0.0
 11
311.0574670890859
 21
-273.0536603307087
 31
0.0
  0
LINE
  5
299
330
A
100
AcDbEntity
  8
0
100
AcDbLine
 10
311.6845698964212
 20
-274.5543849356538
 30
0.0
 11
311.3409728727124
 21
-273.7701262720185
 31
0.0
  0
LINE
  5
298
330
A
100
AcDbEntity
  8
0
100
AcDbLine
 10
312.0805522055632
 20
-275.3663814581006
 30
0.0
 11
311.6845698964212
 21
-274.5543849356538
 31
0.0
  0
LINE
  5
297
330
A
100
AcDbEntity
  8
0
100
AcDbLine
 10
312.5242953328682
 20
-276.1645090511416
 30
0.0
 11
312.0805522055632
 21
-275.3663814581006
 31
0.0
  0
LINE
  5
296
330
A
100
AcDbEntity
  8
0
100
AcDbLine
 10
313.0081022684984
 20
-276.9256587956415
 30
0.0
 11
312.5242953328682
 21
-276.1645090511416
 31
0.0
  0
LINE
  5
295
330
A
100
AcDbEntity
  8
0
100
AcDbLine
 10
313.5227285503184
 20
-277.6282558075457
 30
0.0
 11
313.0081022684984
 21
-276.9256587956415
 31
0.0
  0
LINE
  5
294
330
A
100
AcDbEntity
  8
0
100
AcDbLine
 10
314.0542963041113
 20
-278.2430281929617
 30
0.0
 11
313.5227285503184
 21
-277.6282558075457
 31
0.0
  0
LINE
  5
293
330
A
100
AcDbEntity
  8
0
100
AcDbLine
 10
314.5858685303099
 20
-278.7761389266468
 30
0.0
 11
314.0542963041113
 21
-278.2430281929617
 31
0.0
  0
LINE
  5
292
330
A
100
AcDbEntity
  8
0
100
AcDbLine
 10
315.1004903397244
 20
-279.2152665314925
 30
0.0
 11
314.5858685303099
 21
-278.7761389266468
 31
0.0
  0
LINE
  5
291
330
A
100
AcDbEntity
  8
0
100
AcDbLine
 10
315.5842972753544
 20
-279.5711850323094
 30
0.0
 11
315.1004903397244
 21
-279.2152665314925
 31
0.0
  0
LINE
  5
290
330
A
100
AcDbEntity
  8
0
100
AcDbLine
 10
316.0141804180647
 20
-279.8423648664223
 30
0.0
 11
315.5842972753544
 21
-279.5711850323094
 31
0.0
  0
LINE
  5
28F
330
A
100
AcDbEntity
  8
0
100
AcDbLine
 10
316.3685604113952
 20
-280.0472904856963
 30
0.0
 11
316.0141804180647
 21
-279.8423648664223
 31
0.0
  0
LINE
  5
28E
330
A
100
AcDbEntity
  8
0
100
AcDbLine
 10
316.6335727983458
 20
-280.1828804027527
 30
0.0
 11
316.3685604113952
 21
-280.0472904856963
 31
0.0
  0
LINE
  5
28D
330
A
100
AcDbEntity
  8
0
100
AcDbLine
 10
316.7999775891865
 20
-280.2629990745919
 30
0.0
 11
316.6335727983458
 21
-280.1828804027527
 31
0.0
  0
LINE
  5
28C
330
A
100
AcDbEntity
  8
0
100
AcDbLine
 10
317.0773203980563
 20
-280.3893445295129
 30
0.0
 11
316.9109156072155
 21
-280.3169273399171
 31
0.0
  0
LINE
  5
28B
330
A
100
AcDbEntity
  8
0
100
AcDbLine
 10
317.3577446943045
 20
-280.504902542407
 30
0.0
 11
317.0773203980563
 21
-280.3893445295129
 31
0.0
  0
LINE
  5
28A
330
A
100
AcDbEntity
  8
0
100
AcDbLine
 10
317.7475640286897
 20
-280.6466554342202
 30
0.0
 11
317.3577446943045
 21
-280.504902542407
 31
0.0
  0
LINE
  5
289
330
A
100
AcDbEntity
  8
0
100
AcDbLine
 10
318.2390724465632
 20
-280.8053587428177
 30
0.0
 11
317.7475640286897
 21
-280.6466554342202
 31
0.0
  0
LINE
  5
288
330
A
100
AcDbEntity
  8
0
100
AcDbLine
 10
318.8291974053574
 20
-280.9656005589015
 30
0.0
 11
318.2390724465632
 21
-280.8053587428177
 31
0.0
  0
LINE
  5
287
330
A
100
AcDbEntity
  8
0
100
AcDbLine
 10
319.5009795434772
 20
-281.1119734455797
 30
0.0
 11
318.8291974053574
 21
-280.9656005589015
 31
0.0
  0
LINE
  5
286
330
A
100
AcDbEntity
  8
0
100
AcDbLine
 10
320.2420973838145
 20
-281.2383189005009
 30
0.0
 11
319.5009795434772
 21
-281.1119734455797
 31
0.0
  0
LINE
  5
285
330
A
100
AcDbEntity
  8
0
100
AcDbLine
 10
321.0340620020986
 20
-281.341550963881
 30
0.0
 11
320.2420973838145
 21
-281.2383189005009
 31
0.0
  0
LINE
  5
284
330
A
100
AcDbEntity
  8
0
100
AcDbLine
 10
321.8537600067888
 20
-281.4139681534769
 30
0.0
 11
321.0340620020986
 21
-281.341550963881
 31
0.0
  0
LINE
  5
283
330
A
100
AcDbEntity
  8
0
100
AcDbLine
 10
326.2280498592168
 20
-281.4617334440453
 30
0.0
 11
321.8537600067888
 21
-281.4139681534769
 31
0.0
  0
LINE
  5
282
330
A
100
AcDbEntity
  8
0
100
AcDbLine
 10
327.0292589396362
 20
-281.4879238505593
 30
0.0
 11
326.2280498592168
 21
-281.4617334440453
 31
0.0
  0
LINE
  5
281
330
A
100
AcDbEntity
  8
0
100
AcDbLine
 10
327.7796257145143
 20
-281.5002498000731
 30
0.0
 11
327.0292589396362
 21
-281.4879238505593
 31
0.0
  0
LINE
  5
280
330
A
100
AcDbEntity
  8
0
100
AcDbLine
 10
328.4575708273911
 20
-281.5033312874515
 30
0.0
 11
327.7796257145143
 21
-281.5002498000731
 31
0.0
  0
LINE
  5
27F
330
A
100
AcDbEntity
  8
0
100
AcDbLine
 10
329.0461483338878
 20
-281.5033312874515
 30
0.0
 11
328.4575708273911
 21
-281.5033312874515
 31
0.0
  0
LINE
  5
27E
330
A
100
AcDbEntity
  8
0
100
AcDbLine
 10
329.5160908125178
 20
-281.5002498000731
 30
0.0
 11
329.0461483338878
 21
-281.5033312874515
 31
0.0
  0
LINE
  5
27D
330
A
100
AcDbEntity
  8
0
100
AcDbLine
 10
329.865846338578
 20
-281.5002498000731
 30
0.0
 11
329.5160908125178
 21
-281.5002498000731
 31
0.0
  0
LINE
  5
27C
330
A
100
AcDbEntity
  8
0
100
AcDbLine
 10
330.0769349326087
 20
-281.4956298052081
 30
0.0
 11
329.865846338578
 21
-281.5002498000731
 31
0.0
  0
LINE
  5
27B
330
A
100
AcDbEntity
  8
0
100
AcDbLine
 10
330.1493521222043
 20
-281.4956298052081
 30
0.0
 11
330.0769349326087
 21
-281.4956298052081
 31
0.0
  0
LINE
  5
27A
330
A
100
AcDbEntity
  8
0
100
AcDbLine
 10
358.049912572667
 20
-79.72117798719569
 30
0.0
 11
358.0499125726669
 21
-281.4956298052081
 31
0.0
  0
LINE
  5
25B
330
A
100
AcDbEntity
  8
0
100
AcDbLine
 10
309.8556557046594
 20
-78.48469651545777
 30
0.0
 11
330.1493521222046
 21
-78.48469651545777
 31
0.0
  0
LINE
  5
25A
330
A
100
AcDbEntity
  8
0
100
AcDbLine
 10
358.049912572667
 20
-180.6072455431815
 30
0.0
 11
308.8310320806954
 21
-180.6072455431815
 31
0.0
  0
LINE
  5
259
330
A
100
AcDbEntity
  8
0
100
AcDbLine
 10
358.0499125726669
 20
-281.4956298052081
 30
0.0
 11
358.049912572667
 21
-78.48469651545777
 31
0.0
  0
LINE
  5
258
330
A
100
AcDbEntity
  8
0
100
AcDbLine
 10
320.2575048207067
 20
-281.4956298052081
 30
0.0
 11
358.0499125726669
 21
-281.4956298052081
 31
0.0
  0
LINE
  5
24D
330
A
100
AcDbEntity
  8
0
100
AcDbLine
 10
195.9900010458781
 20
-88.6831585197177
 30
0.0
 11
195.9900010458781
 21
-82.19721794564447
 31
0.0
  0
LINE
  5
24C
330
A
100
AcDbEntity
  8
0
100
AcDbLine
 10
213.0603722174751
 20
-88.6831585197177
 30
0.0
 11
195.9900010458781
 21
-88.6831585197177
 31
0.0
  0
LINE
  5
24B
330
A
100
AcDbEntity
  8
0
100
AcDbLine
 10
213.0603722174751
 20
-82.19721794564447
 30
0.0
 11
213.0603722174751
 21
-88.6831585197177
 31
0.0
  0
LINE
  5
24A
330
A
100
AcDbEntity
  8
0
100
AcDbLine
 10
103.5535999742297
 20
-88.6831585197177
 30
0.0
 11
103.5535999742297
 21
-82.19721794564447
 31
0.0
  0
LINE
  5
249
330
A
100
AcDbEntity
  8
0
100
AcDbLine
 10
86.48477178252495
 20
-88.6831585197177
 30
0.0
 11
103.5535999742297
 21
-88.6831585197177
 31
0.0
  0
LINE
  5
248
330
A
100
AcDbEntity
  8
0
100
AcDbLine
 10
86.48477178252495
 20
-82.19721794564447
 30
0.0
 11
86.48477178252495
 21
-88.6831585197177
 31
0.0
  0
LINE
  5
246
330
A
100
AcDbEntity
  8
0
100
AcDbLine
 10
219.65339559605
 20
-269.8611499585445
 30
0.0
 11
219.65339559605
 21
-259.2127773798172
 31
0.0
  0
LINE
  5
244
330
A
100
AcDbEntity
  8
0
100
AcDbLine
 10
80.01500789908709
 20
-259.2127773798172
 30
0.0
 11
80.01500789908709
 21
-269.8611499585445
 31
0.0
  0
LINE
  5
241
330
A
100
AcDbEntity
  8
0
100
AcDbLine
 10
84.21673445832297
 20
-272.8256257922993
 30
0.0
 11
82.5172973053481
 21
-272.6274875546109
 31
0.0
  0
LINE
  5
240
330
A
100
AcDbEntity
  8
0
100
AcDbLine
 10
87.36609953478359
 20
-273.1923317351435
 30
0.0
 11
84.21673445832297
 21
-272.8256257922993
 31
0.0
  0
LINE
  5
23F
330
A
100
AcDbEntity
  8
0
100
AcDbLine
 10
91.26736989360876
 20
-273.6422423096109
 30
0.0
 11
87.36609953478359
 21
-273.1923317351435
 31
0.0
  0
LINE
  5
23E
330
A
100
AcDbEntity
  8
0
100
AcDbLine
 10
95.8111504966615
 20
-274.153782631647
 30
0.0
 11
91.26736989360876
 21
-273.6422423096109
 31
0.0
  0
LINE
  5
23D
330
A
100
AcDbEntity
  8
0
100
AcDbLine
 10
100.8741729039935
 20
-274.7069252694944
 30
0.0
 11
95.8111504966615
 21
-274.153782631647
 31
0.0
  0
LINE
  5
23C
330
A
100
AcDbEntity
  8
0
100
AcDbLine
 10
106.3223946508458
 20
-275.2723938568557
 30
0.0
 11
100.8741729039935
 21
-274.7069252694944
 31
0.0
  0
LINE
  5
23B
330
A
100
AcDbEntity
  8
0
100
AcDbLine
 10
112.0032754033779
 20
-275.8193735199465
 30
0.0
 11
106.3223946508458
 21
-275.2723938568557
 31
0.0
  0
LINE
  5
23A
330
A
100
AcDbEntity
  8
0
100
AcDbLine
 10
117.7611933403708
 20
-276.3247508672256
 30
0.0
 11
112.0032754033779
 21
-275.8193735199465
 31
0.0
  0
LINE
  5
239
330
A
100
AcDbEntity
  8
0
100
AcDbLine
 10
123.4436126003894
 20
-276.7638739996657
 30
0.0
 11
117.7611933403708
 21
-276.3247508672256
 31
0.0
  0
LINE
  5
238
330
A
100
AcDbEntity
  8
0
100
AcDbLine
 10
128.8933728547282
 20
-277.1228784602665
 30
0.0
 11
123.4436126003894
 21
-276.7638739996657
 31
0.0
  0
LINE
  5
237
330
A
100
AcDbEntity
  8
0
100
AcDbLine
 10
133.9610197293306
 20
-277.3940538219739
 30
0.0
 11
128.8933728547282
 21
-277.1228784602665
 31
0.0
  0
LINE
  5
236
330
A
100
AcDbEntity
  8
0
100
AcDbLine
 10
138.5078818197618
 20
-277.5789520094908
 30
0.0
 11
133.9610197293306
 21
-277.3940538219739
 31
0.0
  0
LINE
  5
235
330
A
100
AcDbEntity
  8
0
100
AcDbLine
 10
142.4122336659654
 20
-277.6945100223847
 30
0.0
 11
138.5078818197618
 21
-277.5789520094908
 31
0.0
  0
LINE
  5
234
330
A
100
AcDbEntity
  8
0
100
AcDbLine
 10
145.563141722318
 20
-277.7515197750883
 30
0.0
 11
142.4122336659654
 21
-277.6945100223847
 31
0.0
  0
LINE
  5
233
330
A
100
AcDbEntity
  8
0
100
AcDbLine
 10
147.8804873169802
 20
-277.7761716741159
 30
0.0
 11
145.563141722318
 21
-277.7515197750883
 31
0.0
  0
LINE
  5
232
330
A
100
AcDbEntity
  8
0
100
AcDbLine
 10
149.294925802924
 20
-277.7792531614942
 30
0.0
 11
147.8804873169802
 21
-277.7761716741159
 31
0.0
  0
POLYLINE
  5
22D
330
A
100
AcDbEntity
  8
0
100
AcDb2dPolyline
 66
     1
 10
0.0
 20
0.0
 30
0.0
  0
VERTEX
  5
22E
330
22D
100
AcDbEntity
  8
0
100
AcDbVertex
100
AcDb2dVertex
 10
150.248675217184
 20
-277.7792531614942
 30
0.0
  0
VERTEX
  5
22F
330
22D
100
AcDbEntity
  8
0
100
AcDbVertex
100
AcDb2dVertex
 10
149.7725697637972
 20
-277.7792531614942
 30
0.0
  0
VERTEX
  5
230
330
22D
100
AcDbEntity
  8
0
100
AcDbVertex
100
AcDb2dVertex
 10
149.294925802924
 20
-277.7792531614942
 30
0.0
  0
SEQEND
  5
231
330
22D
100
AcDbEntity
  8
0
  0
LINE
  5
22C
330
A
100
AcDbEntity
  8
0
100
AcDbLine
 10
151.6631181755331
 20
-277.7761716741159
 30
0.0
 11
150.2486752171839
 21
-277.7792531614942
 31
0.0
  0
LINE
  5
22B
330
A
100
AcDbEntity
  8
0
100
AcDbLine
 10
153.978916317898
 20
-277.7515197750883
 30
0.0
 11
151.6631181755331
 21
-277.7761716741159
 31
0.0
  0
LINE
  5
22A
330
A
100
AcDbEntity
  8
0
100
AcDbLine
 10
157.134448841521
 20
-277.6945100223847
 30
0.0
 11
153.978916317898
 21
-277.7515197750883
 31
0.0
  0
LINE
  5
229
330
A
100
AcDbEntity
  8
0
100
AcDbLine
 10
161.0403436676166
 20
-277.5789520094908
 30
0.0
 11
157.134448841521
 21
-277.6945100223847
 31
0.0
  0
LINE
  5
228
330
A
100
AcDbEntity
  8
0
100
AcDbLine
 10
165.5918257529126
 20
-277.3940538219739
 30
0.0
 11
161.0403436676166
 21
-277.5789520094908
 31
0.0
  0
LINE
  5
227
330
A
100
AcDbEntity
  8
0
100
AcDbLine
 10
170.6656356022718
 20
-277.1228784602665
 30
0.0
 11
165.5918257529126
 21
-277.3940538219739
 31
0.0
  0
LINE
  5
226
330
A
100
AcDbEntity
  8
0
100
AcDbLine
 10
176.1231018112595
 20
-276.7638739996657
 30
0.0
 11
170.6656356022718
 21
-277.1228784602665
 31
0.0
  0
LINE
  5
225
330
A
100
AcDbEntity
  8
0
100
AcDbLine
 10
181.8163040408999
 20
-276.3247508672256
 30
0.0
 11
176.1231018112595
 21
-276.7638739996657
 31
0.0
  0
LINE
  5
224
330
A
100
AcDbEntity
  8
0
100
AcDbLine
 10
187.5880909072983
 20
-275.8193735199465
 30
0.0
 11
181.8163040408999
 21
-276.3247508672256
 31
0.0
  0
LINE
  5
223
330
A
100
AcDbEntity
  8
0
100
AcDbLine
 10
193.2812976093441
 20
-275.2723938568557
 30
0.0
 11
187.5880909072983
 21
-275.8193735199465
 31
0.0
  0
LINE
  5
222
330
A
100
AcDbEntity
  8
0
100
AcDbLine
 10
198.7403023258183
 20
-274.7069252694944
 30
0.0
 11
193.2812976093441
 21
-275.2723938568557
 31
0.0
  0
LINE
  5
221
330
A
100
AcDbEntity
  8
0
100
AcDbLine
 10
203.818736642448
 20
-274.153782631647
 30
0.0
 11
198.7403023258183
 21
-274.7069252694944
 31
0.0
  0
LINE
  5
220
330
A
100
AcDbEntity
  8
0
100
AcDbLine
 10
208.3733002151225
 20
-273.6422423096109
 30
0.0
 11
203.818736642448
 21
-274.153782631647
 31
0.0
  0
LINE
  5
21F
330
A
100
AcDbEntity
  8
0
100
AcDbLine
 10
212.283815036083
 20
-273.1923317351435
 30
0.0
 11
208.3733002151225
 21
-273.6422423096109
 31
0.0
  0
LINE
  5
21E
330
A
100
AcDbEntity
  8
0
100
AcDbLine
 10
215.4408860671924
 20
-272.8256257922993
 30
0.0
 11
212.283815036083
 21
-273.1923317351435
 31
0.0
  0
LINE
  5
21D
330
A
100
AcDbEntity
  8
0
100
AcDbLine
 10
217.1524497162199
 20
-272.6267364169334
 30
0.0
 11
215.4408860671924
 21
-272.8256257922993
 31
0.0
  0
LINE
  5
219
330
A
100
AcDbEntity
  8
0
100
AcDbLine
 10
243.6249523012814
 20
-281.4956298052081
 30
0.0
 11
55.91864871882652
 21
-281.495629805208
 31
0.0
  0
LINE
  5
218
330
A
100
AcDbEntity
  8
0
100
AcDbLine
 10
253.772572
 20
-78.48469651545777
 30
0.0
 11
253.7725719999999
 21
-271.5929950616831
 31
0.0
  0
LINE
  5
216
330
A
100
AcDbEntity
  8
0
100
AcDbLine
 10
45.77257199999999
 20
-78.48469651545769
 30
0.0
 11
45.77257199999996
 21
-271.592995061683
 31
0.0
  0
ELLIPSE
  5
206
330
A
100
AcDbEntity
  8
0
100
AcDbEllipse
 10
241.088816630345
 20
-91.48199881637493
 30
0.0
 11
2.536134405307767
 21
-0.0000000000000005
 31
0.0
210
0.0
220
0.0
230
1.0
 40
0.976003
 41
0.0
 42
6.283185307179584
  0
LINE
  5
205
330
A
100
AcDbEntity
  8
0
100
AcDbLine
 10
241.090359610237
 20
-82.19721794564447
 30
0.0
 11
149.7725697637972
 21
-82.19721794564447
 31
0.0
  0
LINE
  5
203
330
A
100
AcDbEntity
  8
0
100
AcDbLine
 10
241.090359610237
 20
-100.7660059609567
 30
0.0
 11
250.6016320394849
 21
-100.7660059609567
 31
0.0
  0
LINE
  5
202
330
A
100
AcDbEntity
  8
0
100
AcDbLine
 10
231.5775442010972
 20
-82.19721794564447
 30
0.0
 11
231.5775442010972
 21
-91.48199881637493
 31
0.0
  0
LINE
  5
200
330
A
100
AcDbEntity
  8
0
100
AcDbLine
 10
250.6016320394849
 20
-91.48199881637493
 30
0.0
 11
250.6016320394849
 21
-180.6072455431815
 31
0.0
  0
LINE
  5
1FF
330
A
100
AcDbEntity
  8
0
100
AcDbLine
 10
241.090359610237
 20
-82.19721794564447
 30
0.0
 11
231.5775442010972
 21
-82.19721794564447
 31
0.0
  0
LINE
  5
1FE
330
A
100
AcDbEntity
  8
0
100
AcDbLine
 10
398.6357669002708
 20
-166.0237017720608
 30
0.0
 11
404.9807238362736
 21
-166.0237017720608
 31
0.0
  0
LINE
  5
1FD
330
A
100
AcDbEntity
  8
0
100
AcDbLine
 10
404.9807238362736
 20
-180.6072455431815
 30
0.0
 11
398.6357669002708
 21
-180.6072455431815
 31
0.0
  0
LINE
  5
1FC
330
A
100
AcDbEntity
  8
0
100
AcDbLine
 10
436.685485556938
 20
-180.6072455431816
 30
0.0
 11
404.9807238362736
 21
-180.6072455431815
 31
0.0
  0
LINE
  5
1FA
330
A
100
AcDbEntity
  8
0
100
AcDbLine
 10
398.6357669002708
 20
-195.191563040451
 30
0.0
 11
404.9807238362736
 21
-195.191563040451
 31
0.0
  0
LINE
  5
1F7
330
A
100
AcDbEntity
  8
0
100
AcDbLine
 10
463.3195233880271
 20
-220.8394891311981
 30
0.0
 11
436.685485556938
 21
-220.8394891311981
 31
0.0
  0
LINE
  5
1F6
330
A
100
AcDbEntity
  8
0
100
AcDbLine
 10
468.3948717448727
 20
-180.6072455431816
 30
0.0
 11
468.3948717448727
 21
-215.8889432493817
 31
0.0
  0
LINE
  5
1F4
330
A
100
AcDbEntity
  8
0
100
AcDbLine
 10
468.3948717448727
 20
-180.6072455431816
 30
0.0
 11
468.3948717448727
 21
-145.3263215631304
 31
0.0
  0
LINE
  5
1F3
330
A
100
AcDbEntity
  8
0
100
AcDbLine
 10
463.3195233880271
 20
-140.3757756813138
 30
0.0
 11
436.685485556938
 21
-140.3757756813138
 31
0.0
  0
LINE
  5
1F2
330
A
100
AcDbEntity
  8
0
  6
DASHED2
100
AcDbLine
 10
404.9807238362736
 20
-170.3086329629199
 30
0.0
 11
404.9807238362736
 21
-215.8889432493816
 31
0.0
  0
LINE
  5
1F1
330
A
100
AcDbEntity
  8
0
  6
DASHED2
100
AcDbLine
 10
404.9807238362736
 20
-169.4665908204321
 30
0.0
 11
404.9807238362736
 21
-145.3263215631303
 31
0.0
  0
LINE
  5
1F0
330
A
100
AcDbEntity
  8
0
100
AcDbLine
 10
398.6357669002708
 20
-169.1253060303585
 30
0.0
 11
398.6357669002708
 21
-195.191563040451
 31
0.0
  0
LINE
  5
1EF
330
A
100
AcDbEntity
  8
0
100
AcDbLine
 10
398.6357669002708
 20
-169.4665908204321
 30
0.0
 11
398.6357669002708
 21
-166.0237017720608
 31
0.0
  0
LINE
  5
1EE
330
A
100
AcDbEntity
  8
0
  6
DASHED2
100
AcDbLine
 10
410.0514521982547
 20
-220.8394891311981
 30
0.0
 11
436.685485556938
 21
-220.8394891311981
 31
0.0
  0
LINE
  5
1ED
330
A
100
AcDbEntity
  8
0
  6
DASHED2
100
AcDbLine
 10
410.0514521982547
 20
-140.3757756813138
 30
0.0
 11
436.0383553178458
 21
-140.3757756813138
 31
0.0
  0
LINE
  5
1EC
330
A
100
AcDbEntity
  8
0
100
AcDbLine
 10
54.51037320763973
 20
-91.68229996837835
 30
0.0
 11
243.6249523012815
 21
-91.68229996837842
 31
0.0
  0
LINE
  5
1DC
330
A
100
AcDbEntity
  8
0
100
AcDbLine
 10
308.8310320806954
 20
-180.9585485215392
 30
0.0
 11
308.8310320806954
 21
-265.0109978824473
 31
0.0
  0
LINE
  5
1D9
330
A
100
AcDbEntity
  8
0
100
AcDbLine
 10
436.685485556938
 20
-144.8787232222982
 30
0.0
 11
358.049912572667
 21
-144.8787232222981
 31
0.0
  0
LINE
  5
1D8
330
A
100
AcDbEntity
  8
0
100
AcDbLine
 10
436.685485556938
 20
-175.6574689151082
 30
0.0
 11
436.685485556938
 21
-183.9284136039021
 31
0.0
  0
LINE
  5
1D7
330
A
100
AcDbEntity
  8
0
100
AcDbLine
 10
358.049912572667
 20
-142.5243997790946
 30
0.0
 11
436.685485556938
 21
-142.5243997790947
 31
0.0
  0
LINE
  5
1D6
330
A
100
AcDbEntity
  8
0
100
AcDbLine
 10
358.049912572667
 20
-148.2992681328716
 30
0.0
 11
436.685485556938
 21
-148.2992681328717
 31
0.0
  0
LINE
  5
1D5
330
A
100
AcDbEntity
  8
0
100
AcDbLine
 10
358.049912572667
 20
-136.3520106086891
 30
0.0
 11
436.685485556938
 21
-136.3520106086892
 31
0.0
  0
LINE
  5
1D2
330
A
100
AcDbEntity
  8
0
100
AcDbLine
 10
320.20665804276
 20
-110.6694099582249
 30
0.0
 11
320.20665804276
 21
-180.6072455431815
 31
0.0
  0
LINE
  5
1D1
330
A
100
AcDbEntity
  8
0
100
AcDbLine
 10
323.8074766735798
 20
-110.6694099582249
 30
0.0
 11
320.20665804276
 21
-110.6694099582249
 31
0.0
  0
LINE
  5
1D0
330
A
100
AcDbEntity
  8
0
100
AcDbLine
 10
359.4458666067456
 20
-97.42404121473592
 30
0.0
 11
358.049912572667
 21
-97.42404121473592
 31
0.0
  0
LINE
  5
1CF
330
A
100
AcDbEntity
  8
0
100
AcDbLine
 10
359.4458666067456
 20
-92.54745103000168
 30
0.0
 11
359.4458666067456
 21
-97.42404121473592
 31
0.0
  0
LINE
  5
1CE
330
A
100
AcDbEntity
  8
0
100
AcDbLine
 10
352.5477670328949
 20
-82.19721794564447
 30
0.0
 11
323.8074766735798
 21
-82.19721794564447
 31
0.0
  0
LINE
  5
1CD
330
A
100
AcDbEntity
  8
0
100
AcDbLine
 10
359.4458666067456
 20
-92.54745103000168
 30
0.0
 11
358.049912572667
 21
-92.54745103000168
 31
0.0
  0
LINE
  5
1CC
330
A
100
AcDbEntity
  8
0
100
AcDbLine
 10
359.4458666067456
 20
-82.19721794564447
 30
0.0
 11
359.4458666067456
 21
-92.54745103000168
 31
0.0
  0
LINE
  5
1CB
330
A
100
AcDbEntity
  8
0
100
AcDbLine
 10
352.5477670328949
 20
-82.19721794564447
 30
0.0
 11
359.4458666067456
 21
-82.19721794564447
 31
0.0
  0
LINE
  5
1CA
330
A
100
AcDbEntity
  8
0
100
AcDbLine
 10
352.5477670328949
 20
-100.7660059609567
 30
0.0
 11
352.5477670328949
 21
-82.19721794564447
 31
0.0
  0
LINE
  5
1C9
330
A
100
AcDbEntity
  8
0
100
AcDbLine
 10
323.8074766735798
 20
-100.7660059609567
 30
0.0
 11
352.5477670328949
 21
-100.7660059609567
 31
0.0
  0
LINE
  5
1C8
330
A
100
AcDbEntity
  8
0
100
AcDbLine
 10
358.049912572667
 20
-78.48469651545777
 30
0.0
 11
354.2487927898435
 21
-78.48469651545777
 31
0.0
  0
LINE
  5
1C6
330
A
100
AcDbEntity
  8
0
100
AcDbLine
 10
405.3544539546471
 20
-190.3434312232487
 30
0.0
 11
419.5550231452591
 21
-185.529288784849
 31
0.0
  0
LINE
  5
1C5
330
A
100
AcDbEntity
  8
0
100
AcDbLine
 10
408.1925221367227
 20
-198.7061996567826
 30
0.0
 11
418.880159519761
 21
-195.75086418065
 31
0.0
  0
LINE
  5
1C4
330
A
100
AcDbEntity
  8
0
100
AcDbLine
 10
358.0499125726669
 20
-186.687517240627
 30
0.0
 11
405.3544539546471
 21
-190.3434312232487
 31
0.0
  0
LINE
  5
1C2
330
A
100
AcDbEntity
  8
0
100
AcDbLine
 10
358.049912572667
 20
-194.7484444624402
 30
0.0
 11
408.1925221367227
 21
-198.7061996567826
 31
0.0
  0
LINE
  5
185
330
A
100
AcDbEntity
  8
0
100
AcDbLine
 10
448.4632568029015
 20
-160.2503763981759
 30
0.0
 11
439.6977266812613
 21
-147.9679970586766
 31
0.0
  0
LINE
  5
181
330
A
100
AcDbEntity
  8
0
100
AcDbLine
 10
452.7635954306528
 20
-151.6805229612688
 30
0.0
 11
439.7155783535866
 21
-133.9668722917014
 31
0.0
  0
LINE
  5
180
330
A
100
AcDbEntity
  8
0
100
AcDbLine
 10
323.8074766735798
 20
-78.48469651545777
 30
0.0
 11
323.8074766735798
 21
-180.6072455431815
 31
0.0
  0
LINE
  5
17F
330
A
100
AcDbEntity
  8
0
  6
DASHED2
100
AcDbLine
 10
213.060372217475
 20
-83.92598156140449
 30
0.0
 11
231.5775442010972
 21
-83.92598156140449
 31
0.0
  0
LINE
  5
17E
330
A
100
AcDbEntity
  8
0
  6
DASHED2
100
AcDbLine
 10
103.5535999742297
 20
-83.92598156140449
 30
0.0
 11
195.8235962550375
 21
-83.92598156140449
 31
0.0
  0
LINE
  5
17D
330
A
100
AcDbEntity
  8
0
  6
DASHED2
100
AcDbLine
 10
98.7910292949029
 20
-148.379615266062
 30
0.0
 11
98.79102929490294
 21
-88.6831585197177
 31
0.0
  0
LINE
  5
17B
330
A
100
AcDbEntity
  8
0
  6
DASHED2
100
AcDbLine
 10
201.3971849892676
 20
-147.82547491312
 30
0.0
 11
249.0731740481338
 21
-147.82547491312
 31
0.0
  0
LINE
  5
177
330
A
100
AcDbEntity
  8
0
100
AcDbLine
 10
419.5550231452591
 20
-185.529288784849
 30
0.0
 11
424.2051172990706
 21
-185.529288784849
 31
0.0
  0
LINE
  5
176
330
A
100
AcDbEntity
  8
0
100
AcDbLine
 10
418.880159519761
 20
-195.75086418065
 30
0.0
 11
424.2051172990706
 21
-195.75086418065
 31
0.0
  0
LINE
  5
175
330
A
100
AcDbEntity
  8
0
100
AcDbLine
 10
424.2051172990706
 20
-183.7543028584125
 30
0.0
 11
424.2051172990706
 21
-195.75086418065
 31
0.0
  0
LINE
  5
174
330
A
100
AcDbEntity
  8
0
100
AcDbLine
 10
418.9633641513839
 20
-183.7543028584125
 30
0.0
 11
424.2051172990706
 21
-183.7543028584125
 31
0.0
  0
LINE
  5
173
330
A
100
AcDbEntity
  8
0
100
AcDbLine
 10
404.6529534423086
 20
-188.6056827278219
 30
0.0
 11
418.9633641513839
 21
-183.7543028584125
 31
0.0
  0
LINE
  5
172
330
A
100
AcDbEntity
  8
0
100
AcDbLine
 10
358.0884334011001
 20
-185.0069610207858
 30
0.0
 11
404.6529534423086
 21
-188.6056827278219
 31
0.0
  0
LINE
  5
B4
330
A
100
AcDbEntity
  8
hyou
100
AcDbLine
 10
1004.753399206227
 20
-433.8223928666908
 30
0.0
 11
1004.753399206227
 21
-430.4788896129838
 31
0.0
  0
LINE
  5
B3
330
A
100
AcDbEntity
  8
hyou
100
AcDbLine
 10
983.4235224689475
 20
-433.8223928666908
 30
0.0
 11
983.4235224689475
 21
-430.4788896129838
 31
0.0
  0
LINE
  5
B2
330
A
100
AcDbEntity
  8
hyou
100
AcDbLine
 10
961.5320323578341
 20
-433.8223928666908
 30
0.0
 11
961.5320323578341
 21
-430.4788896129838
 31
0.0
  0
LINE
  5
B1
330
A
100
AcDbEntity
  8
hyou
100
AcDbLine
 10
940.2006126406623
 20
-433.8223928666908
 30
0.0
 11
940.2006126406623
 21
-430.4788896129838
 31
0.0
  0
LINE
  5
B0
330
A
100
AcDbEntity
  8
hyou
100
AcDbLine
 10
918.8707359033827
 20
-433.8223928666908
 30
0.0
 11
918.8707359033827
 21
-430.4788896129838
 31
0.0
  0
LINE
  5
AF
330
A
100
AcDbEntity
  8
hyou
100
AcDbLine
 10
896.9792457922691
 20
-433.8223928666908
 30
0.0
 11
896.9792457922691
 21
-430.4788896129838
 31
0.0
  0
LINE
  5
AE
330
A
100
AcDbEntity
  8
hyou
100
AcDbLine
 10
875.6493690549897
 20
-433.8223928666908
 30
0.0
 11
875.6493690549897
 21
-430.4788896129838
 31
0.0
  0
LINE
  5
AD
330
A
100
AcDbEntity
  8
hyou
100
AcDbLine
 10
854.31949231771
 20
-433.8223928666908
 30
0.0
 11
854.31949231771
 21
-430.4788896129838
 31
0.0
  0
LINE
  5
AC
330
A
100
AcDbEntity
  8
hyou
100
AcDbLine
 10
832.9896155804306
 20
-433.8223928666908
 30
0.0
 11
832.9896155804306
 21
-430.4788896129838
 31
0.0
  0
LINE
  5
AB
330
A
100
AcDbEntity
  8
hyou
100
AcDbLine
 10
811.0965824894249
 20
-433.8223928666908
 30
0.0
 11
811.0965824894249
 21
-430.4788896129838
 31
0.0
  0
LINE
  5
AA
330
A
100
AcDbEntity
  8
hyou
100
AcDbLine
 10
789.7674750058885
 20
-433.8223928666908
 30
0.0
 11
789.7674750058885
 21
-430.4788896129838
 31
0.0
  0
LINE
  5
A9
330
A
100
AcDbEntity
  8
hyou
100
AcDbLine
 10
768.4352860349737
 20
-433.8223928666908
 30
0.0
 11
768.4352860349737
 21
-430.4788896129838
 31
0.0
  0
LINE
  5
A8
330
A
100
AcDbEntity
  8
hyou
100
AcDbLine
 10
746.5437959238601
 20
-433.8223928666908
 30
0.0
 11
746.5437959238601
 21
-430.4788896129838
 31
0.0
  0
LINE
  5
A7
330
A
100
AcDbEntity
  8
hyou
100
AcDbLine
 10
725.2162314202157
 20
-433.8223928666908
 30
0.0
 11
725.2162314202157
 21
-430.4788896129838
 31
0.0
  0
LINE
  5
A5
330
A
100
AcDbEntity
  8
hyou
100
AcDbLine
 10
725.2162314202157
 20
-188.6570879220662
 30
0.0
 11
728.5828480654637
 21
-188.6570879220662
 31
0.0
  0
LINE
  5
A4
330
A
100
AcDbEntity
  8
hyou
100
AcDbLine
 10
725.2162314202157
 20
-219.3017866777118
 30
0.0
 11
728.5828480654637
 21
-219.3017866777118
 31
0.0
  0
LINE
  5
A3
330
A
100
AcDbEntity
  8
hyou
100
AcDbLine
 10
725.2162314202157
 20
-249.9480284132494
 30
0.0
 11
728.5828480654637
 21
-249.9480284132494
 31
0.0
  0
LINE
  5
A2
330
A
100
AcDbEntity
  8
hyou
100
AcDbLine
 10
725.2162314202157
 20
-280.5927271688949
 30
0.0
 11
728.5828480654637
 21
-280.5927271688949
 31
0.0
  0
LINE
  5
A1
330
A
100
AcDbEntity
  8
hyou
100
AcDbLine
 10
725.2162314202157
 20
-311.2389689044326
 30
0.0
 11
728.5828480654637
 21
-311.2389689044326
 31
0.0
  0
LINE
  5
A0
330
A
100
AcDbEntity
  8
hyou
100
AcDbLine
 10
725.2162314202157
 20
-341.8867536198622
 30
0.0
 11
728.5828480654637
 21
-341.8867536198622
 31
0.0
  0
LINE
  5
9F
330
A
100
AcDbEntity
  8
hyou
100
AcDbLine
 10
725.2162314202157
 20
-372.5314523755078
 30
0.0
 11
728.5828480654637
 21
-372.5314523755078
 31
0.0
  0
LINE
  5
9E
330
A
100
AcDbEntity
  8
hyou
100
AcDbLine
 10
725.2162314202157
 20
-403.1761511311533
 30
0.0
 11
728.5828480654637
 21
-403.1761511311533
 31
0.0
  0
LINE
  5
9D
330
A
100
AcDbEntity
  8
hyou
100
AcDbLine
 10
725.2162314202157
 20
-433.8223928666908
 30
0.0
 11
728.5828480654637
 21
-433.8223928666908
 31
0.0
  0
LWPOLYLINE
  5
A74
330
A
100
AcDbEntity
  8
waku
100
AcDbPolyline
 90
        4
 70
     1
 43
0.0
 10
-40.49143542883751
 20
238.4288737540204
 10
1144.988074836741
 20
238.4288737540204
 10
1144.988074836741
 20
-613.707666807225
 10
-40.49143542883751
 20
-613.707666807225
  0
LWPOLYLINE
  5
A75
330
A
100
AcDbEntity
  8
waku
100
AcDbPolyline
 90
        4
 70
     1
 43
0.0
 10
565.0645790308792
 20
-513.1020190750816
 10
1144.988074836741
 20
-513.1020190750816
 10
1144.988074836741
 20
-613.707666807225
 10
565.0645790308792
 20
-613.707666807225
  0
LINE
  5
A76
330
A
100
AcDbEntity
  8
waku
100
AcDbLine
 10
565.0645790308792
 20
-546.6125815959667
 30
0.0
 11
1144.988074836741
 21
-546.6125815959668
 31
0.0
  0
LINE
  5
A77
330
A
100
AcDbEntity
  8
waku
100
AcDbLine
 10
565.0645790308792
 20
-580.1231441168517
 30
0.0
 11
1144.988074836741
 21
-580.1231441168519
 31
0.0
  0
LINE
  5
A78
330
A
100
AcDbEntity
  8
waku
100
AcDbLine
 10
820.1656502988541
 20
-513.1020190750816
 30
0.0
 11
820.1656502988541
 21
-613.707666807225
 31
0.0
  0
LWPOLYLINE
  5
A79
330
A
100
AcDbEntity
  8
waku
100
AcDbPolyline
 90
        4
 70
     1
 43
0.0
 10
-40.49143542883751
 20
238.4288737540204
 10
592.8950345253812
 20
238.4288737540204
 10
592.8950345253812
 20
171.3337885427622
 10
-40.49143542883751
 20
171.3337885427622
  0
LINE
  5
A7A
330
A
100
AcDbEntity
  8
waku
100
AcDbLine
 10
276.2017995482719
 20
171.3337885427623
 30
0.0
 11
276.2017995482719
 21
238.4288737540203
 31
0.0
  0
LINE
  5
A7B
330
A
100
AcDbEntity
  8
waku
100
AcDbLine
 10
592.8950345253812
 20
204.8813311483913
 30
0.0
 11
-40.49143542883751
 21
204.8813311483916
 31
0.0
  0
LWPOLYLINE
  5
A7C
330
A
100
AcDbEntity
  8
hyou
100
AcDbPolyline
 90
        4
 70
     1
 43
0.0
 10
617.7448374954926
 20
3.633055599361
 10
1144.988074836741
 20
3.633055599361
 10
1144.988074836741
 20
238.4288737540204
 10
617.7448374954926
 20
238.4288737540204
  0
LINE
  5
A7D
330
A
100
AcDbEntity
  8
hyou
100
AcDbLine
 10
648.2762904718797
 20
238.4288737540204
 30
0.0
 11
648.2762904718797
 21
3.633055599361012
 31
0.0
  0
LINE
  5
A7E
330
A
100
AcDbEntity
  8
hyou
100
AcDbLine
 10
831.3841159322134
 20
238.4288737540204
 30
0.0
 11
831.3841159322134
 21
3.633055599361012
 31
0.0
  0
LINE
  5
A7F
330
A
100
AcDbEntity
  8
hyou
100
AcDbLine
 10
936.3209126934867
 20
238.4288737540204
 30
0.0
 11
936.3209126934867
 21
3.633055599361012
 31
0.0
  0
LINE
  5
A80
330
A
100
AcDbEntity
  8
hyou
100
AcDbLine
 10
617.7448374954926
 20
214.9280287811621
 30
0.0
 11
1144.988074836741
 21
214.9280287811621
 31
0.0
  0
LINE
  5
A81
330
A
100
AcDbEntity
  8
hyou
100
AcDbLine
 10
617.7448374954926
 20
191.4271838083037
 30
0.0
 11
1144.988074836741
 21
191.4271838083037
 31
0.0
  0
LINE
  5
A82
330
A
100
AcDbEntity
  8
hyou
100
AcDbLine
 10
617.7448374954926
 20
167.9263388354454
 30
0.0
 11
1144.988074836741
 21
167.9263388354454
 31
0.0
  0
LINE
  5
A83
330
A
100
AcDbEntity
  8
hyou
100
AcDbLine
 10
617.7448374954926
 20
144.4254938625872
 30
0.0
 11
1144.988074836741
 21
144.4254938625872
 31
0.0
  0
LINE
  5
A84
330
A
100
AcDbEntity
  8
hyou
100
AcDbLine
 10
617.7448374954926
 20
120.9246488897289
 30
0.0
 11
1144.988074836741
 21
120.9246488897289
 31
0.0
  0
LINE
  5
A85
330
A
100
AcDbEntity
  8
hyou
100
AcDbLine
 10
617.7448374954926
 20
97.42380391687072
 30
0.0
 11
1144.988074836741
 21
97.42380391687072
 31
0.0
  0
LINE
  5
A86
330
A
100
AcDbEntity
  8
hyou
100
AcDbLine
 10
617.7448374954926
 20
73.92295894401243
 30
0.0
 11
1144.988074836741
 21
73.92295894401243
 31
0.0
  0
LINE
  5
A87
330
A
100
AcDbEntity
  8
hyou
100
AcDbLine
 10
617.7448374954926
 20
50.42211397115417
 30
0.0
 11
1144.988074836741
 21
50.42211397115417
 31
0.0
  0
LINE
  5
A88
330
A
100
AcDbEntity
  8
hyou
100
AcDbLine
 10
617.7448374954926
 20
26.92126899829592
 30
0.0
 11
1144.988074836741
 21
26.92126899829592
 31
0.0
  0
TEXT
  5
A89
330
A
100
AcDbEntity
  8
moji
100
AcDbText
 10
691.5919031446621
 20
221.1750375509937
 30
0.0
 40
12.0
  1
部　品　名
  7
スタイル1
100
AcDbText
  0
TEXT
  5
A8A
330
A
100
AcDbEntity
  8
moji
100
AcDbText
 10
629.5211404720737
 20
196.3037245144624
 30
0.0
 40
12.0
  1
1
  7
スタイル1
100
AcDbText
  0
TEXT
  5
A8B
330
A
100
AcDbEntity
  8
moji
100
AcDbText
 10
629.5211404720737
 20
172.8028795416041
 30
0.0
 40
12.0
  1
2
  7
スタイル1
100
AcDbText
  0
TEXT
  5
A8C
330
A
100
AcDbEntity
  8
moji
100
AcDbText
 10
629.5211404720737
 20
149.3020345687458
 30
0.0
 40
12.0
  1
3
  7
スタイル1
100
AcDbText
  0
TEXT
  5
A8D
330
A
100
AcDbEntity
  8
moji
100
AcDbText
 10
629.5211404720737
 20
125.8011895958875
 30
0.0
 40
12.0
  1
4
  7
スタイル1
100
AcDbText
  0
TEXT
  5
A8E
330
A
100
AcDbEntity
  8
moji
100
AcDbText
 10
629.5211404720737
 20
102.3003446230293
 30
0.0
 40
12.0
  1
5
  7
スタイル1
100
AcDbText
  0
TEXT
  5
A8F
330
A
100
AcDbEntity
  8
moji
100
AcDbText
 10
629.5211404720737
 20
78.79949965017106
 30
0.0
 40
12.0
  1
6
  7
スタイル1
100
AcDbText
  0
TEXT
  5
A90
330
A
100
AcDbEntity
  8
moji
100
AcDbText
 10
629.5211404720737
 20
55.29865467731281
 30
0.0
 40
12.0
  1
7
  7
スタイル1
100
AcDbText
  0
TEXT
  5
A91
330
A
100
AcDbEntity
  8
moji
100
AcDbText
 10
629.5211404720737
 20
31.79780970445455
 30
0.0
 40
12.0
  1
8
  7
スタイル1
100
AcDbText
  0
TEXT
  5
A92
330
A
100
AcDbEntity
  8
moji
100
AcDbText
 10
629.5211404720737
 20
8.509596305519636
 30
0.0
 40
12.0
  1
9
  7
スタイル1
100
AcDbText
  0
TEXT
  5
A93
330
A
100
AcDbEntity
  8
moji
100
AcDbText
 10
660.052593448461
 20
196.3037245144624
 30
0.0
 40
12.0
  1
前面グリル
  7
スタイル1
100
AcDbText
  0
TEXT
  5
A94
330
A
100
AcDbEntity
  8
moji
100
AcDbText
 10
660.052593448461
 20
172.8028795416041
 30
0.0
 40
12.0
  1
本体
  7
スタイル1
100
AcDbText
  0
TEXT
  5
A95
330
A
100
AcDbEntity
  8
moji
100
AcDbText
 10
660.052593448461
 20
149.3020345687458
 30
0.0
 40
12.0
  1
板バネ
  7
スタイル1
100
AcDbText
  0
TEXT
  5
A96
330
A
100
AcDbEntity
  8
moji
100
AcDbText
 10
660.052593448461
 20
125.8011895958875
 30
0.0
 40
12.0
  1
ファン
  7
スタイル1
100
AcDbText
  0
TEXT
  5
A97
330
A
100
AcDbEntity
  8
moji
100
AcDbText
 10
660.0525934484608
 20
102.3003446230293
 30
0.0
 40
12.0
  1
モーター
  7
スタイル1
100
AcDbText
  0
TEXT
  5
A98
330
A
100
AcDbEntity
  8
moji
100
AcDbText
 10
660.052593448461
 20
78.79949965017106
 30
0.0
 40
12.0
  1
コネクター端子台
  7
スタイル1
100
AcDbText
  0
TEXT
  5
A99
330
A
100
AcDbEntity
  8
moji
100
AcDbText
 10
660.0525934484608
 20
55.29865467731281
 30
0.0
 40
12.0
  1
取付ネジ
  7
スタイル1
100
AcDbText
  0
TEXT
  5
A9A
330
A
100
AcDbEntity
  8
moji
100
AcDbText
 10
660.0525934484608
 20
31.79780970445455
 30
0.0
 40
12.0
  1
スイッチ
  7
スタイル1
100
AcDbText
  0
TEXT
  5
A9B
330
A
100
AcDbEntity
  8
moji
100
AcDbText
 10
660.052593448461
 20
8.509596305519636
 30
0.0
 40
12.0
  1
配線カバー
  7
スタイル1
100
AcDbText
  0
TEXT
  5
A9C
330
A
100
AcDbEntity
  8
moji
100
AcDbText
 10
853.1837894037661
 20
221.1750375509937
 30
0.0
 40
12.0
  1
材　　質
  7
スタイル1
100
AcDbText
  0
TEXT
  5
A9D
330
A
100
AcDbEntity
  8
moji
100
AcDbText
 10
997.285468484506
 20
221.1750375509937
 30
0.0
 40
12.0
  1
備　　考
  7
スタイル1
100
AcDbText
  0
TEXT
  5
A9F
330
A
100
AcDbEntity
  8
moji
100
AcDbText
 10
855.015000676655
 20
196.3037245144624
 30
0.0
 40
12.0
  1
ABS
  7
スタイル1
100
AcDbText
  0
TEXT
  5
AA0
330
A
100
AcDbEntity
  8
moji
100
AcDbText
 10
855.015000676655
 20
172.8028795416041
 30
0.0
 40
12.0
  1
PP
  7
スタイル1
100
AcDbText
  0
TEXT
  5
AA1
330
A
100
AcDbEntity
  8
moji
100
AcDbText
 10
855.015000676655
 20
149.3020345687458
 30
0.0
 40
12.0
  1
SUS304
  7
スタイル1
100
AcDbText
  0
TEXT
  5
AA2
330
A
100
AcDbEntity
  8
moji
100
AcDbText
 10
855.015000676655
 20
125.8011895958875
 30
0.0
 40
12.0
  1
PP
  7
スタイル1
100
AcDbText
  0
TEXT
  5
AA3
330
A
100
AcDbEntity
  8
moji
100
AcDbText
 10
834.6670561476017
 20
102.3003446230293
 30
0.0
 40
12.0
  1
ACｲﾝﾀﾞｸｼｮﾝﾓｰﾀｰ
 41
0.75
  7
スタイル1
100
AcDbText
  0
TEXT
  5
AA4
330
A
100
AcDbEntity
  8
moji
100
AcDbText
 10
855.015000676655
 20
78.79949965017106
 30
0.0
 40
12.0
  1
PA66V0
  7
スタイル1
100
AcDbText
  0
TEXT
  5
AA5
330
A
100
AcDbEntity
  8
moji
100
AcDbText
 10
855.015000676655
 20
55.29865467731281
 30
0.0
 40
12.0
  1
SUS304
  7
スタイル1
100
AcDbText
  0
TEXT
  5
AA6
330
A
100
AcDbEntity
  8
moji
100
AcDbText
 10
855.015000676655
 20
31.79780970445455
 30
0.0
 40
12.0
  1
ZE-200
  7
スタイル1
100
AcDbText
  0
TEXT
  5
AA7
330
A
100
AcDbEntity
  8
moji
100
AcDbText
 10
855.015000676655
 20
8.509596305519636
 30
0.0
 40
12.0
  1
PP
  7
スタイル1
100
AcDbText
  0
TEXT
  5
AA8
330
A
100
AcDbEntity
  8
moji
100
AcDbText
 10
949.139267385777
 20
149.3020345687458
 30
0.0
 40
12.0
  1
2本
  7
スタイル1
100
AcDbText
  0
TEXT
  5
AA9
330
A
100
AcDbEntity
  8
moji
100
AcDbText
 10
949.139267385777
 20
125.8011895958875
 30
0.0
 40
12.0
  1
ターボ　12.5cm
  7
スタイル1
100
AcDbText
  0
TEXT
  5
AAA
330
A
100
AcDbEntity
  8
moji
100
AcDbText
 10
949.139267385777
 20
78.79949965017106
 30
0.0
 40
12.0
  1
5型
  7
スタイル1
100
AcDbText
  0
TEXT
  5
AAB
330
A
100
AcDbEntity
  8
moji
100
AcDbText
 10
949.1392673857768
 20
55.29865467731281
 30
0.0
 40
12.0
  1
4.0×35　4本
  7
スタイル1
100
AcDbText
  0
TEXT
  5
AAC
330
A
100
AcDbEntity
  8
moji
100
AcDbText
 10
949.139267385777
 20
102.3003446230293
 30
0.0
 40
12.0
  1
温度ヒューズ内臓　133℃
  7
スタイル1
100
AcDbText
  0
TEXT
  5
AAD
330
A
100
AcDbEntity
  8
moji
100
AcDbText
 10
3.978527482037861
 20
212.8164970303751
 30
0.0
 40
18.0
  1
VF-H12E1S
  7
スタイル1
100
AcDbText
  0
TEXT
  5
AAE
330
A
100
AcDbEntity
  8
moji
100
AcDbText
 10
3.978527482037861
 20
179.2689544247457
 30
0.0
 40
18.0
  1
パイプ用排気ファン
  7
スタイル1
100
AcDbText
  0
TEXT
  5
AAF
330
A
100
AcDbEntity
  8
moji
100
AcDbText
 10
320.6717624591472
 20
212.8164970303751
 30
0.0
 40
18.0
  1
承　　認　　図
  7
スタイル1
100
AcDbText
  0
TEXT
  5
AB0
330
A
100
AcDbEntity
  8
moji
100
AcDbText
 10
320.6717624591472
 20
179.2689544247457
 30
0.0
 40
18.0
  1
φ150入切スイッチ付
  7
スタイル1
100
AcDbText
  0
LWPOLYLINE
  5
AB1
330
A
100
AcDbEntity
  8
hyou
100
AcDbPolyline
 90
        4
 70
     1
 43
0.0
 10
9.564089012202542
 20
-426.7655944566481
 10
521.8016098666745
 20
-426.7655944566481
 10
521.8016098666745
 20
-591.1289826486936
 10
9.564089012202542
 20
-591.1289826486936
  0
LINE
  5
AB2
330
A
100
AcDbEntity
  8
hyou
100
AcDbLine
 10
9.564089012202542
 20
-473.6964057202552
 30
0.0
 11
521.8016098666745
 21
-473.6964057202552
 31
0.0
  0
LINE
  5
AB3
330
A
100
AcDbEntity
  8
hyou
100
AcDbLine
 10
9.564089012202515
 20
-567.6289069295782
 30
0.0
 11
521.8016098666745
 21
-567.6289069295782
 31
0.0
  0
LINE
  5
AB4
330
A
100
AcDbEntity
  8
hyou
100
AcDbLine
 10
155.3964407636255
 20
-567.6289069295782
 30
0.0
 11
155.3964407636255
 21
-426.7655944566481
 31
0.0
  0
LINE
  5
AB5
330
A
100
AcDbEntity
  8
hyou
100
AcDbLine
 10
209.2161116113534
 20
-567.6289069295782
 30
0.0
 11
209.2161116113535
 21
-426.7655944566481
 31
0.0
  0
LINE
  5
AB6
330
A
100
AcDbEntity
  8
hyou
100
AcDbLine
 10
258.5582560708677
 20
-567.6289069295782
 30
0.0
 11
258.5582560708677
 21
-426.7655944566481
 31
0.0
  0
LINE
  5
AB7
330
A
100
AcDbEntity
  8
hyou
100
AcDbLine
 10
324.6117672413777
 20
-567.6289069295782
 30
0.0
 11
324.6117672413778
 21
-426.7655944566481
 31
0.0
  0
LINE
  5
AB8
330
A
100
AcDbEntity
  8
hyou
100
AcDbLine
 10
392.7484220209781
 20
-567.6289069295782
 30
0.0
 11
392.7484220209781
 21
-426.7655944566481
 31
0.0
  0
LINE
  5
AB9
330
A
100
AcDbEntity
  8
hyou
100
AcDbLine
 10
460.835773002524
 20
-567.6289069295782
 30
0.0
 11
460.835773002524
 21
-426.7655944566481
 31
0.0
  0
LINE
  5
ABA
330
A
100
AcDbEntity
  8
hyou
100
AcDbLine
 10
460.296499294082
 20
-523.3960116604784
 30
0.0
 11
209.2161116113535
 21
-523.3960116604784
 31
0.0
  0
TEXT
  5
ABB
330
A
100
AcDbEntity
  8
moji
100
AcDbText
 10
53.59860104632114
 20
-458.265634027191
 30
0.0
 40
12.0
  1
型　　名
  7
スタイル1
100
AcDbText
  0
TEXT
  5
ABC
330
A
100
AcDbEntity
  8
moji
100
AcDbText
 10
158.5075569451005
 20
-447.5648967549186
 30
0.0
 40
12.0
  1
定格電圧
 41
0.7
  7
スタイル1
 72
     1
 11
182.9439205814642
 21
-441.5648967549186
 31
0.0
100
AcDbText
 73
     2
  0
TEXT
  5
ABE
330
A
100
AcDbEntity
  8
moji
100
AcDbText
 10
177.4211933087369
 20
-468.8310391447858
 30
0.0
 40
12.0
  1
V
  7
スタイル1
 72
     1
 11
182.9439205814642
 21
-462.8310391447858
 31
0.0
100
AcDbText
 73
     2
  0
TEXT
  5
AC0
330
A
100
AcDbEntity
  8
moji
100
AcDbText
 10
214.1283675389611
 20
-447.5648967549186
 30
0.0
 40
12.0
  1
周波数
 41
0.7
  7
スタイル1
 72
     1
 11
232.4556402662338
 21
-441.5648967549186
 31
0.0
100
AcDbText
 73
     2
  0
TEXT
  5
AC1
330
A
100
AcDbEntity
  8
moji
100
AcDbText
 10
224.0970161205246
 20
-468.8310391447858
 30
0.0
 40
12.0
  1
Hz
  7
スタイル1
 72
     1
 11
233.6765615750701
 21
-462.8310391447858
 31
0.0
100
AcDbText
 73
     2
  0
TEXT
  5
AC2
330
A
100
AcDbEntity
  8
moji
100
AcDbText
 10
267.623873826528
 20
-447.5648967549186
 30
0.0
 40
12.0
  1
消費電力
 41
0.7
  7
スタイル1
 72
     1
 11
292.0602374628916
 21
-441.5648967549186
 31
0.0
100
AcDbText
 73
     2
  0
TEXT
  5
AC3
330
A
100
AcDbEntity
  8
moji
100
AcDbText
 10
286.8038860444551
 20
-468.8310391447858
 30
0.0
 40
12.0
  1
W
  7
スタイル1
 72
     1
 11
293.2811587717278
 21
-462.8310391447858
 31
0.0
100
AcDbText
 73
     2
  0
TEXT
  5
AC4
330
A
100
AcDbEntity
  8
moji
100
AcDbText
 10
340.3013593814099
 20
-447.5648967549186
 30
0.0
 40
12.0
  1
風量
  7
スタイル1
 72
     1
 11
357.7559048359554
 21
-441.5648967549186
 31
0.0
100
AcDbText
 73
     2
  0
TEXT
  5
AC5
330
A
100
AcDbEntity
  8
moji
100
AcDbText
 10
339.4768261447916
 20
-468.8310391447858
 30
0.0
 40
12.0
  1
m3/h
  7
スタイル1
 72
     1
 11
358.9768261447916
 21
-462.8310391447858
 31
0.0
100
AcDbText
 73
     2
  0
TEXT
  5
AC6
330
A
100
AcDbEntity
  8
moji
100
AcDbText
 10
405.9257962183359
 20
-447.5648967549186
 30
0.0
 40
12.0
  1
騒音
  7
スタイル1
 72
     1
 11
423.3803416728814
 21
-441.5648967549186
 31
0.0
100
AcDbText
 73
     2
  0
TEXT
  5
AC7
330
A
100
AcDbEntity
  8
moji
100
AcDbText
 10
414.7148993453542
 20
-468.8310391447858
 30
0.0
 40
12.0
  1
dB
  7
スタイル1
 72
     1
 11
424.6012629817178
 21
-462.8310391447858
 31
0.0
100
AcDbText
 73
     2
  0
TEXT
  5
AC8
330
A
100
AcDbEntity
  8
moji
100
AcDbText
 10
474.0852422900367
 20
-447.5648967549186
 30
0.0
 40
12.0
  1
重量
  7
スタイル1
 72
     1
 11
491.5397877445821
 21
-441.5648967549186
 31
0.0
100
AcDbText
 73
     2
  0
TEXT
  5
AC9
330
A
100
AcDbEntity
  8
moji
100
AcDbText
 10
484.7152545079637
 20
-468.8310391447858
 30
0.0
 40
12.0
  1
kg
  7
スタイル1
 72
     1
 11
492.7607090534183
 21
-462.8310391447858
 31
0.0
100
AcDbText
 73
     2
  0
TEXT
  5
ACA
330
A
100
AcDbEntity
  8
moji
100
AcDbText
 10
25.38237163469785
 20
-528.5608995817026
 30
0.0
 40
12.0
  1
VF-H12E1S
  7
スタイル1
100
AcDbText
  0
TEXT
  5
ACB
330
A
100
AcDbEntity
  8
moji
100
AcDbText
 10
169.0680978864202
 20
-528.5608995817026
 30
0.0
 40
12.0
  1
100
  7
スタイル1
100
AcDbText
  0
TEXT
  5
ACC
330
A
100
AcDbEntity
  8
moji
100
AcDbText
 10
224.9696803119132
 20
-507.4734581964652
 30
0.0
 40
12.0
  1
50
  7
スタイル1
100
AcDbText
  0
TEXT
  5
ACD
330
A
100
AcDbEntity
  8
moji
100
AcDbText
 10
283.257652724008
 20
-507.4734581964652
 30
0.0
 40
12.0
  1
6.0
  7
スタイル1
100
AcDbText
  0
TEXT
  5
ACE
330
A
100
AcDbEntity
  8
moji
100
AcDbText
 10
347.3439060014253
 20
-507.4734581964652
 30
0.0
 40
12.0
  1
100
  7
スタイル1
100
AcDbText
  0
TEXT
  5
ACF
330
A
100
AcDbEntity
  8
moji
100
AcDbText
 10
413.0068653270382
 20
-507.4734581964652
 30
0.0
 40
12.0
  1
28
  7
スタイル1
100
AcDbText
  0
TEXT
  5
AD0
330
A
100
AcDbEntity
  8
moji
100
AcDbText
 10
224.9696803119132
 20
-553.3402028294889
 30
0.0
 40
12.0
  1
60
  7
スタイル1
100
AcDbText
  0
TEXT
  5
AD1
330
A
100
AcDbEntity
  8
moji
100
AcDbText
 10
283.257652724008
 20
-553.3402028294889
 30
0.0
 40
12.0
  1
6.5
  7
スタイル1
100
AcDbText
  0
TEXT
  5
AD2
330
A
100
AcDbEntity
  8
moji
100
AcDbText
 10
347.3439060014253
 20
-553.3402028294889
 30
0.0
 40
12.0
  1
100
  7
スタイル1
100
AcDbText
  0
TEXT
  5
AD3
330
A
100
AcDbEntity
  8
moji
100
AcDbText
 10
413.0068653270382
 20
-553.3402028294889
 30
0.0
 40
12.0
  1
28
  7
スタイル1
100
AcDbText
  0
TEXT
  5
AD4
330
A
100
AcDbEntity
  8
moji
100
AcDbText
 10
480.4265121058261
 20
-528.5608995817026
 30
0.0
 40
12.0
  1
0.9
  7
スタイル1
100
AcDbText
  0
TEXT
  5
ADA
330
A
100
AcDbEntity
  8
moji
100
AcDbText
 10
23.72979278002219
 20
-585.7315389432068
 30
0.0
 40
11.0
  1
耐電圧AC1500V 1秒間(JIS) 絶縁抵抗1MΩ以上(直流500V)温度ヒューズ133℃
 41
0.9
  7
スタイル1
100
AcDbText
  0
TEXT
  5
ADB
330
A
100
AcDbEntity
  8
moji
100
AcDbText
 10
553.229863287687
 20
-506.3197368820078
 30
0.0
 40
15.0
  1
適合パイプ　φ150用
  7
スタイル1
 72
     1
 11
650.0054314695051
 21
-498.8197368820078
 31
0.0
100
AcDbText
 73
     2
  0
TEXT
  5
ADC
330
A
100
AcDbEntity
  8
moji
100
AcDbText
 10
603.6107918664997
 20
-541.006878266397
 30
0.0
 40
18.0
  1
承　　認　　図
  7
スタイル1
 72
     1
 11
677.6562464119542
 21
-532.006878266397
 31
0.0
100
AcDbText
 73
     2
  0
TEXT
  5
ADD
330
A
100
AcDbEntity
  8
moji
100
AcDbText
 10
650.0482869126431
 20
-603.8291821954266
 30
0.0
 40
12.0
  1
2009.07.30
  7
スタイル1
 72
     1
 11
688.5028323671885
 21
-597.8291821954266
 31
0.0
100
AcDbText
 73
     2
  0
TEXT
  5
ADE
330
A
100
AcDbEntity
  8
moji
100
AcDbText
 10
584.6043031285112
 20
-605.832498115203
 30
0.0
 40
10.0
  1
作図
  7
スタイル1
 72
     1
 11
599.1497576739657
 21
-600.832498115203
 31
0.0
100
AcDbText
 73
     2
  0
TEXT
  5
ADF
330
A
100
AcDbEntity
  8
moji
100
AcDbText
 10
865.1644468688502
 20
-541.006878266397
 30
0.0
 40
18.0
  1
VF-H12E1S
  7
スタイル1
 72
     1
 11
930.516719596123
 21
-532.006878266397
 31
0.0
100
AcDbText
 73
     2
  0
TEXT
  5
AE0
330
A
100
AcDbEntity
  8
moji
100
AcDbText
 10
865.1644468688502
 20
-574.589857976878
 30
0.0
 40
18.0
  1
パイプ用排気ファン
  7
スタイル1
 72
     1
 11
971.6303559597594
 21
-565.5898579768781
 31
0.0
100
AcDbText
 73
     2
  0
TEXT
  5
AE1
330
A
100
AcDbEntity
  8
moji
100
AcDbText
 10
865.1644468688502
 20
-608.1019634776549
 30
0.0
 40
18.0
  1
マックス株式会社
  7
スタイル1
 72
     1
 11
961.300810505214
 21
-599.101963477655
 31
0.0
100
AcDbText
 73
     2
  0
TEXT
  5
AE3
330
A
100
AcDbEntity
  8
moji
100
AcDbText
 10
736.5956347371127
 20
-28.00624896747468
 30
0.0
 40
12.0
  1
■結線図
  7
スタイル1
100
AcDbText
  0
LWPOLYLINE
  5
AE5
330
A
100
AcDbEntity
  8
hyou
100
AcDbPolyline
 90
        4
 70
     1
 43
0.0
 10
724.3087043166322
 20
-33.72793050240245
 10
1031.546905127251
 20
-33.72793050240245
 10
1031.546905127251
 20
-150.3546783555565
 10
724.3087043166322
 20
-150.3546783555565
  0
TEXT
  5
AE6
330
A
100
AcDbEntity
  8
moji
100
AcDbText
 10
737.5323939907192
 20
-51.73234163404959
 30
0.0
 40
10.0
  1
電源
  7
スタイル1
100
AcDbText
  0
TEXT
  5
AE7
330
A
100
AcDbEntity
  8
moji
100
AcDbText
 10
737.5323939907192
 20
-67.81033413395107
 30
0.0
 40
10.0
  1
AC100V
  7
スタイル1
100
AcDbText
  0
TEXT
  5
AE8
330
A
100
AcDbEntity
  8
moji
100
AcDbText
 10
737.5323939907192
 20
-83.88832663385208
 30
0.0
 40
10.0
  1
50/60Hz
  7
スタイル1
100
AcDbText
  0
TEXT
  5
AE9
330
A
100
AcDbEntity
  8
moji
100
AcDbText
 10
804.4354414635135
 20
-51.73234163404959
 30
0.0
 40
10.0
  1
連結端子
  7
スタイル1
100
AcDbText
  0
TEXT
  5
AEA
330
A
100
AcDbEntity
  8
moji
100
AcDbText
 10
804.4354414635135
 20
-67.81033413395107
 30
0.0
 40
10.0
  1
コネクタ
  7
スタイル1
100
AcDbText
  0
TEXT
  5
AEB
330
A
100
AcDbEntity
  8
moji
100
AcDbText
 10
885.0060762055154
 20
-51.73234163404959
 30
0.0
 40
10.0
  1
ｺﾝﾃﾞﾝｻ1.0μF
  7
スタイル1
100
AcDbText
  0
TEXT
  5
AEC
330
A
100
AcDbEntity
  8
moji
100
AcDbText
 10
865.4232075702831
 20
-130.3605097531608
 30
0.0
 40
10.0
  1
スイッチ
  7
スタイル1
100
AcDbText
  0
TEXT
  5
AED
330
A
100
AcDbEntity
  8
moji
100
AcDbText
 10
949.7668385556062
 20
-140.9121968918257
 30
0.0
 40
10.0
  1
Motor
  7
スタイル1
100
AcDbText
  0
TEXT
  5
AEE
330
A
100
AcDbEntity
  8
moji
100
AcDbText
 10
988.2979302913907
 20
-99.70048940545849
 30
0.0
 40
10.0
  1
M
  7
スタイル1
100
AcDbText
  0
POLYLINE
  5
AEF
330
A
100
AcDbEntity
  8
0
100
AcDb2dPolyline
 66
     1
 10
0.0
 20
0.0
 30
0.0
  0
VERTEX
  5
AF0
330
AEF
100
AcDbEntity
  8
0
100
AcDbVertex
100
AcDb2dVertex
 10
918.698941863934
 20
-63.61687770696736
 30
0.0
  0
VERTEX
  5
AF1
330
AEF
100
AcDbEntity
  8
0
100
AcDbVertex
100
AcDb2dVertex
 10
907.3610630041541
 20
-63.61687770696736
 30
0.0
  0
VERTEX
  5
AF2
330
AEF
100
AcDbEntity
  8
0
100
AcDbVertex
100
AcDb2dVertex
 10
907.3610630041541
 20
-96.59278651427548
 30
0.0
  0
VERTEX
  5
AF3
330
AEF
100
AcDbEntity
  8
0
100
AcDbVertex
100
AcDb2dVertex
 10
965.4625432408767
 20
-96.59278651427557
 30
0.0
  0
SEQEND
  5
AF4
330
AEF
100
AcDbEntity
  8
0
  0
DIMENSION
  5
AF5
330
A
100
AcDbEntity
  8
Dim
100
AcDbDimension
  2
*D1
 10
241.090359610237
 20
-58.09315728314057
 30
0.0
 11
149.5283562985497
 21
-50.09315728314057
 31
0.0
 70
    32
  1
192
 71
     5
 42
183.1240066233744
  3
1-2
100
AcDbAlignedDimension
 13
57.96635298686247
 23
-91.68229996837835
 33
0.0
 14
241.090359610237
 24
-91.68229996837842
 34
0.0
100
AcDbRotatedDimension
  0
DIMENSION
  5
B02
330
A
100
AcDbEntity
  8
Dim
100
AcDbDimension
  2
*D2
 10
250.6016320394849
 20
-39.79996743719676
 30
0.0
 11
149.771800510054
 21
-31.79996743719676
 31
0.0
 70
    32
 71
     5
 42
201.6596630588618
  3
1-2
100
AcDbAlignedDimension
 13
48.94196898062313
 23
-93.56129168434376
 33
0.0
 14
250.6016320394849
 24
-93.56129168434376
 34
0.0
100
AcDbRotatedDimension
  0
DIMENSION
  5
B0F
330
A
100
AcDbEntity
  8
Dim
100
AcDbDimension
  2
*D3
 10
253.772572
 20
-21.50677759125293
 30
0.0
 11
149.772572
 21
-13.50677759125292
 31
0.0
 70
    32
 71
     5
 42
208.0
  3
1-2
100
AcDbAlignedDimension
 13
45.77257199999999
 23
-78.48469651545769
 33
0.0
 14
253.772572
 24
-78.48469651545777
 34
0.0
100
AcDbRotatedDimension
  0
ARC
  5
B6F
330
A
100
AcDbEntity
  8
0
  6
DASHED2
100
AcDbCircle
 10
150.2916477725363
 20
-184.6797129071156
 30
0.0
 40
63.00802165065007
100
AcDbArc
 50
35.79687439852206
 51
144.8219889550103
  0
LINE
  5
B75
330
A
100
AcDbEntity
  8
0
  6
DASHED2
100
AcDbLine
 10
249.0731740481337
 20
-100.7660059609567
 30
0.0
 11
249.0731740481338
 21
-147.82547491312
 31
0.0
  0
LWPOLYLINE
  5
B76
330
A
100
AcDbEntity
  8
0
  6
DASHED2
100
AcDbPolyline
 90
        4
 70
   128
 43
0.0
 10
230.3125600892101
 20
-83.92598156140449
 10
230.3125600892102
 20
-91.48199881637493
 42
0.4209186218510237
 10
241.1052654799315
 20
-102.0309915225468
 10
249.0731740481337
 20
-102.0309903061761
  0
POLYLINE
  5
B7B
330
A
100
AcDbEntity
  8
0
  6
DASHED2
100
AcDb2dPolyline
 66
     1
 10
0.0
 20
0.0
 30
0.0
  0
VERTEX
  5
B83
330
B7B
100
AcDbEntity
  8
0
  6
DASHED2
100
AcDbVertex
100
AcDb2dVertex
 10
212.3254173518945
 20
-89.84260280699482
 30
0.0
  0
VERTEX
  5
B7C
330
B7B
100
AcDbEntity
  8
0
  6
DASHED2
100
AcDbVertex
100
AcDb2dVertex
 10
196.7249559114588
 20
-89.84260280699482
 30
0.0
  0
VERTEX
  5
B7D
330
B7B
100
AcDbEntity
  8
0
  6
DASHED2
100
AcDbVertex
100
AcDb2dVertex
 10
196.1980081525306
 20
-89.73705850997948
 30
0.0
  0
VERTEX
  5
B7E
330
B7B
100
AcDbEntity
  8
0
  6
DASHED2
100
AcDbVertex
100
AcDb2dVertex
 10
195.777373944361
 20
-89.52596991594878
 30
0.0
  0
VERTEX
  5
B7F
330
B7B
100
AcDbEntity
  8
0
  6
DASHED2
100
AcDbVertex
100
AcDb2dVertex
 10
195.5662853503304
 20
-89.00056066450707
 30
0.0
  0
VERTEX
  5
B80
330
B7B
100
AcDbEntity
  8
0
  6
DASHED2
100
AcDbVertex
100
AcDb2dVertex
 10
195.4615103070582
 20
-88.68470149960954
 30
0.0
  0
VERTEX
  5
B81
330
B7B
100
AcDbEntity
  8
0
  6
DASHED2
100
AcDbVertex
100
AcDb2dVertex
 10
195.4615103070582
 20
-83.92598156140449
 30
0.0
  0
SEQEND
  5
B82
330
B7B
100
AcDbEntity
  8
0
  6
DASHED2
  0
LWPOLYLINE
  5
B84
330
A
100
AcDbEntity
  8
0
  6
DASHED2
100
AcDbPolyline
 90
        4
 70
     1
 43
0.0
 10
100.5028469662843
 20
-97.14669840586616
 10
122.9967835133005
 20
-97.14669840586616
 10
122.9967835133005
 20
-115.384989073132
 10
100.5028469662843
 20
-115.384989073132
  0
LWPOLYLINE
  5
B85
330
A
100
AcDbEntity
  8
0
  6
DASHED2
100
AcDbPolyline
 90
        4
 70
     1
 43
0.0
 10
100.5028469662843
 20
-105.2604827659545
 10
109.4686827123336
 20
-105.2604827659545
 10
109.4686827123336
 20
-107.1933982748397
 10
100.5028469662843
 20
-107.1933982748397
  0
CIRCLE
  5
B86
330
A
100
AcDbEntity
  8
0
  6
DASHED2
100
AcDbCircle
 10
112.9319296503936
 20
-106.4978840785625
 30
0.0
 40
1.638369042603699
  0
LWPOLYLINE
  5
B87
330
A
100
AcDbEntity
  8
0
  6
DASHED2
100
AcDbPolyline
 90
        4
 70
     1
 43
0.0
 10
119.4406486856706
 20
-104.3329282306139
 10
116.7350312089205
 20
-104.3329282306139
 10
116.7350312089205
 20
-108.5831893341614
 10
119.4406486856706
 20
-108.5831893341614
  0
LINE
  5
B88
330
A
100
AcDbEntity
  8
0
  6
DASHED2
100
AcDbLine
 10
118.0878399472955
 20
-104.3329282306139
 30
0.0
 11
118.0878399472955
 21
-108.5831893341614
 31
0.0
  0
LINE
  5
B89
330
A
100
AcDbEntity
  8
0
  6
DASHED2
100
AcDbLine
 10
119.4406486856706
 20
-106.4580587823876
 30
0.0
 11
116.7194530158403
 21
-106.4580587823876
 31
0.0
  0
MTEXT
  5
BA7
330
A
100
AcDbEntity
  8
Dim
100
AcDbMText
 10
0.7569994532597378
 20
-219.0653606723818
 30
0.0
 40
12.0
 41
0.0
 71
     5
 72
     1
  1
1
  7
スタイル1
 73
     1
 44
1.0
1001
ACAD
1000
MTEXTBEGIN
1070
    73
1070
     1
1070
    44
1040
1.0
1070
    74
1070
     0
1000
MTEXTEND
  0
CIRCLE
  5
BA8
330
A
100
AcDbEntity
  8
Dim
100
AcDbCircle
 10
1.168902274288625
 20
-219.0653606723818
 30
0.0
 40
10.10930087779707
  0
CIRCLE
  5
BA9
330
A
100
AcDbEntity
  8
Dim
100
AcDbCircle
 10
2.274375417731588
 20
-130.621826058102
 30
0.0
 40
10.10930087779707
  0
MTEXT
  5
BAA
330
A
100
AcDbEntity
  8
Dim
100
AcDbMText
 10
1.8624725967027
 20
-130.621826058102
 30
0.0
 40
12.0
 41
0.0
 71
     5
 72
     1
  1
2
  7
スタイル1
 73
     1
 44
1.0
1001
ACAD
1000
MTEXTBEGIN
1070
    73
1070
     1
1070
    44
1040
1.0
1070
    74
1070
     0
1000
MTEXTEND
  0
MTEXT
  5
BAB
330
A
100
AcDbEntity
  8
Dim
100
AcDbMText
 10
56.42317025691045
 20
-2.606075267695814
 30
0.0
 40
12.0
 41
0.0
 71
     5
 72
     1
  1
6
  7
スタイル1
 73
     1
 44
1.0
1001
ACAD
1000
MTEXTBEGIN
1070
    73
1070
     1
1070
    44
1040
1.0
1070
    74
1070
     0
1000
MTEXTEND
  0
CIRCLE
  5
BAC
330
A
100
AcDbEntity
  8
Dim
100
AcDbCircle
 10
56.83507307793934
 20
-2.606075267695814
 30
0.0
 40
10.10930087779707
  0
MTEXT
  5
BAD
330
A
100
AcDbEntity
  8
Dim
100
AcDbMText
 10
103.6882675135539
 20
-2.610548324098997
 30
0.0
 40
12.0
 41
0.0
 71
     5
 72
     1
  1
4
  7
スタイル1
 73
     1
 44
1.0
1001
ACAD
1000
MTEXTBEGIN
1070
    73
1070
     1
1070
    44
1040
1.0
1070
    74
1070
     0
1000
MTEXTEND
  0
CIRCLE
  5
BAE
330
A
100
AcDbEntity
  8
Dim
100
AcDbCircle
 10
104.1001703345828
 20
-2.610548324098997
 30
0.0
 40
10.10930087779707
  0
MTEXT
  5
BAF
330
A
100
AcDbEntity
  8
Dim
100
AcDbMText
 10
270.1827674940578
 20
-3.400571562789081
 30
0.0
 40
12.0
 41
0.0
 71
     5
 72
     1
  1
1
  7
スタイル1
 73
     1
 44
1.0
1001
ACAD
1000
MTEXTBEGIN
1070
    73
1070
     1
1070
    44
1040
1.0
1070
    74
1070
     0
1000
MTEXTEND
  0
CIRCLE
  5
BB0
330
A
100
AcDbEntity
  8
Dim
100
AcDbCircle
 10
270.5946703150867
 20
-3.400571562789081
 30
0.0
 40
10.10930087779707
  0
MTEXT
  5
BB1
330
A
100
AcDbEntity
  8
Dim
100
AcDbMText
 10
266.0381583475601
 20
-316.1703454412745
 30
0.0
 40
12.0
 41
0.0
 71
     5
 72
     1
  1
8
  7
スタイル1
 73
     1
 44
1.0
1001
ACAD
1000
MTEXTBEGIN
1070
    73
1070
     1
1070
    44
1040
1.0
1070
    74
1070
     0
1000
MTEXTEND
  0
CIRCLE
  5
BB2
330
A
100
AcDbEntity
  8
Dim
100
AcDbCircle
 10
266.4500611685889
 20
-316.1703454412745
 30
0.0
 40
10.10930087779707
  0
MTEXT
  5
BB3
330
A
100
AcDbEntity
  8
Dim
100
AcDbMText
 10
484.2178009815603
 20
-276.5671550242942
 30
0.0
 40
12.0
 41
0.0
 71
     5
 72
     1
  1
3
  7
スタイル1
 73
     1
 44
1.0
1001
ACAD
1000
MTEXTBEGIN
1070
    73
1070
     1
1070
    44
1040
1.0
1070
    74
1070
     0
1000
MTEXTEND
  0
CIRCLE
  5
BB4
330
A
100
AcDbEntity
  8
Dim
100
AcDbCircle
 10
484.6297038025896
 20
-276.5671550242942
 30
0.0
 40
10.10930087779707
  0
MTEXT
  5
BB5
330
A
100
AcDbEntity
  8
Dim
100
AcDbMText
 10
530.6408534148093
 20
-276.4042114968006
 30
0.0
 40
12.0
 41
0.0
 71
     5
 72
     1
  1
5
  7
スタイル1
 73
     1
 44
1.0
1001
ACAD
1000
MTEXTBEGIN
1070
    73
1070
     1
1070
    44
1040
1.0
1070
    74
1070
     0
1000
MTEXTEND
  0
CIRCLE
  5
BB6
330
A
100
AcDbEntity
  8
Dim
100
AcDbCircle
 10
530.2303801936968
 20
-276.4042114968006
 30
0.0
 40
10.10930087779707
  0
MTEXT
  5
BBF
330
A
100
AcDbEntity
  8
Dim
100
AcDbMText
 10
7.625725364763638
 20
44.8568567264546
 30
0.0
 40
12.0
 41
0.0
 71
     7
 72
     1
  1
電源線差込方向
  7
スタイル1
 73
     1
 44
1.0
1001
ACAD
1000
MTEXTBEGIN
1070
    73
1070
     1
1070
    44
1040
1.0
1070
    74
1070
     0
1000
MTEXTEND
  0
DIMENSION
  5
BC0
330
A
100
AcDbEntity
  8
Dim
100
AcDbDimension
  2
*D4
 10
358.0499125726669
 20
-39.79996743719676
 30
0.0
 11
333.9527841386632
 21
-31.79996743719676
 31
0.0
 70
    32
  1
40
 71
     5
 42
48.19425686800747
  3
1-2
100
AcDbAlignedDimension
 13
309.8556557046594
 23
-78.48469651545777
 33
0.0
 14
358.0499125726669
 24
-78.48469651545777
 34
0.0
100
AcDbRotatedDimension
  0
DIMENSION
  5
BCD
330
A
100
AcDbEntity
  8
Dim
100
AcDbDimension
  2
*D5
 10
358.0499125726669
 20
-58.09315728314057
 30
0.0
 11
340.9286946231234
 21
-50.09315728314057
 31
0.0
 70
    32
  1
28
 71
     5
 42
34.24243589908713
  3
1-2
100
AcDbAlignedDimension
 13
323.8074766735798
 23
-78.48469651545777
 33
0.0
 14
358.0499125726669
 24
-78.48469651545777
 34
0.0
100
AcDbRotatedDimension
  0
DIMENSION
  5
BEC
330
A
100
AcDbEntity
  8
Dim
100
AcDbDimension
  2
*D6
 10
474.7352086860111
 20
-58.09315728314057
 30
0.0
 11
416.392560629339
 21
-50.09315728314057
 31
0.0
 70
    32
  1
95
 71
     5
 42
116.6852961133441
  3
1-2
100
AcDbAlignedDimension
 13
358.0499125726669
 23
-78.48469651545777
 33
0.0
 14
474.7352086860111
 24
-166.0237017720609
 34
0.0
100
AcDbRotatedDimension
1001
ACAD
1000
DSTYLE
1002
{
1070
   279
1070
     1
1002
}
  0
DIMENSION
  5
BF9
330
A
100
AcDbEntity
  8
Dim
100
AcDbDimension
  2
*D7
 10
474.7352086860111
 20
-21.50677759125293
 30
0.0
 11
392.2954321953353
 21
-13.50677759125292
 31
0.0
 70
    32
  1
135
 71
     5
 42
164.8795529813516
  3
1-2
100
AcDbAlignedDimension
 13
309.8556557046594
 23
-78.48469651545777
 33
0.0
 14
474.7352086860111
 24
-166.0237017720609
 34
0.0
100
AcDbRotatedDimension
  0
DIMENSION
  5
C0F
330
A
100
AcDbEntity
  8
Dim
100
AcDbDimension
  2
*D8
 10
513.7248078275328
 20
-220.8394891311981
 30
0.0
 11
503.9179896457146
 21
-180.6076324062559
 31
0.0
 70
    32
  1
φ64
 71
     5
 42
80.46371344988429
  3
1-2
100
AcDbAlignedDimension
 13
463.3241704803196
 23
-140.3757756813138
 33
0.0
 14
463.3195233880271
 24
-220.8394891311981
 34
0.0
 50
90.0
100
AcDbRotatedDimension
  0
DIMENSION
  5
C1C
330
A
100
AcDbEntity
  8
Dim
100
AcDbDimension
  2
*D9
 10
544.2138892343647
 20
-120.6013210680479
 30
0.0
 11
534.4070710525468
 21
-180.3141129067507
 31
0.0
 70
    32
  1
φ135
 71
     5
 42
119.4255836774057
  3
1-2
100
AcDbAlignedDimension
 13
436.685485556938
 23
-240.0269047454536
 33
0.0
 14
436.685485556938
 24
-120.6013210680479
 34
0.0
 50
90.0
100
AcDbRotatedDimension
  0
LINE
  5
C7A
330
A
100
AcDbEntity
  8
hyou
 62
   250
100
AcDbLine
 10
725.2162314202153
 20
-219.3017866777115
 30
0.0
 11
1004.753403678633
 21
-219.3017866777115
 31
0.0
  0
LINE
  5
C7B
330
A
100
AcDbEntity
  8
hyou
 62
   250
100
AcDbLine
 10
725.2162314202153
 20
-249.9480284132491
 30
0.0
 11
1004.753403678633
 21
-249.9480284132492
 31
0.0
  0
LINE
  5
C7C
330
A
100
AcDbEntity
  8
hyou
 62
   250
100
AcDbLine
 10
725.2162314202153
 20
-280.5927271688949
 30
0.0
 11
1004.753403678633
 21
-280.592727168895
 31
0.0
  0
LINE
  5
C7D
330
A
100
AcDbEntity
  8
hyou
 62
   250
100
AcDbLine
 10
725.2162314202153
 20
-311.2389689044326
 30
0.0
 11
1004.753403678633
 21
-311.2389689044326
 31
0.0
  0
LINE
  5
C7E
330
A
100
AcDbEntity
  8
hyou
 62
   250
100
AcDbLine
 10
725.2162314202153
 20
-341.8867491474567
 30
0.0
 11
1004.753403678633
 21
-341.8867491474568
 31
0.0
  0
LINE
  5
C7F
330
A
100
AcDbEntity
  8
hyou
 62
   250
100
AcDbLine
 10
725.2162314202153
 20
-372.531452375508
 30
0.0
 11
1004.753403678633
 21
-372.531452375508
 31
0.0
  0
LINE
  5
C80
330
A
100
AcDbEntity
  8
hyou
 62
   250
100
AcDbLine
 10
725.2162314202153
 20
-403.1761511311536
 30
0.0
 11
1004.753403678633
 21
-403.1761511311537
 31
0.0
  0
LINE
  5
C81
330
A
100
AcDbEntity
  8
hyou
 62
   250
100
AcDbLine
 10
725.2162314202153
 20
-194.7847932892813
 30
0.0
 11
1004.753403678633
 21
-194.7847932892813
 31
0.0
  0
LINE
  5
C82
330
A
100
AcDbEntity
  8
hyou
 62
   250
100
AcDbLine
 10
725.2162314202153
 20
-200.9140416363889
 30
0.0
 11
1004.753403678633
 21
-200.9140416363889
 31
0.0
  0
LINE
  5
C83
330
A
100
AcDbEntity
  8
hyou
 62
   250
100
AcDbLine
 10
725.2162314202153
 20
-207.0448284909828
 30
0.0
 11
1004.753403678633
 21
-207.0448284909829
 31
0.0
  0
LINE
  5
C84
330
A
100
AcDbEntity
  8
hyou
 62
   250
100
AcDbLine
 10
725.2162314202153
 20
-213.1740768380903
 30
0.0
 11
1004.753403678633
 21
-213.1740768380904
 31
0.0
  0
LINE
  5
C85
330
A
100
AcDbEntity
  8
hyou
 62
   250
100
AcDbLine
 10
725.2162314202153
 20
-225.431035024819
 30
0.0
 11
1004.753403678633
 21
-225.431035024819
 31
0.0
  0
LINE
  5
C86
330
A
100
AcDbEntity
  8
hyou
 62
   250
100
AcDbLine
 10
725.2162314202153
 20
-231.5602833719265
 30
0.0
 11
1004.753403678633
 21
-231.5602833719266
 31
0.0
  0
LINE
  5
C87
330
A
100
AcDbEntity
  8
hyou
 62
   250
100
AcDbLine
 10
725.2162314202153
 20
-237.689531719034
 30
0.0
 11
1004.753403678633
 21
-237.6895317190341
 31
0.0
  0
LINE
  5
C88
330
A
100
AcDbEntity
  8
hyou
 62
   250
100
AcDbLine
 10
725.2162314202153
 20
-243.8203185736281
 30
0.0
 11
1004.753403678633
 21
-243.8203185736281
 31
0.0
  0
LINE
  5
C89
330
A
100
AcDbEntity
  8
hyou
 62
   250
100
AcDbLine
 10
725.2162314202153
 20
-256.0757337804647
 30
0.0
 11
1004.753403678633
 21
-256.0757337804647
 31
0.0
  0
LINE
  5
C8A
330
A
100
AcDbEntity
  8
hyou
 62
   250
100
AcDbLine
 10
725.2162314202153
 20
-262.2080636149507
 30
0.0
 11
1004.753403678633
 21
-262.2080636149507
 31
0.0
  0
LINE
  5
C8B
330
A
100
AcDbEntity
  8
hyou
 62
   250
100
AcDbLine
 10
725.2162314202153
 20
-268.3357734545717
 30
0.0
 11
1004.753403678633
 21
-268.3357734545718
 31
0.0
  0
LINE
  5
C8C
330
A
100
AcDbEntity
  8
hyou
 62
   250
100
AcDbLine
 10
725.2162314202153
 20
-274.4650218016793
 30
0.0
 11
1004.753403678633
 21
-274.4650218016793
 31
0.0
  0
LINE
  5
C8D
330
A
100
AcDbEntity
  8
hyou
 62
   250
100
AcDbLine
 10
725.2162314202153
 20
-286.7219755160024
 30
0.0
 11
1004.753403678633
 21
-286.7219755160025
 31
0.0
  0
LINE
  5
C8E
330
A
100
AcDbEntity
  8
hyou
 62
   250
100
AcDbLine
 10
725.2162314202153
 20
-292.8527668430019
 30
0.0
 11
1004.753403678633
 21
-292.8527668430021
 31
0.0
  0
LINE
  5
C8F
330
A
100
AcDbEntity
  8
hyou
 62
   250
100
AcDbLine
 10
725.2162314202153
 20
-298.9820151901095
 30
0.0
 11
1004.753403678633
 21
-298.9820151901095
 31
0.0
  0
LINE
  5
C90
330
A
100
AcDbEntity
  8
hyou
 62
   250
100
AcDbLine
 10
725.2162314202153
 20
-305.109720557325
 30
0.0
 11
1004.753403678633
 21
-305.1097205573252
 31
0.0
  0
LINE
  5
C91
330
A
100
AcDbEntity
  8
hyou
 62
   250
100
AcDbLine
 10
725.2162314202153
 20
-317.3682172515401
 30
0.0
 11
1004.753403678633
 21
-317.3682172515402
 31
0.0
  0
LINE
  5
C92
330
A
100
AcDbEntity
  8
hyou
 62
   250
100
AcDbLine
 10
725.2162314202153
 20
-323.4990085785396
 30
0.0
 11
1004.753403678633
 21
-323.4990085785396
 31
0.0
  0
LINE
  5
C93
330
A
100
AcDbEntity
  8
hyou
 62
   250
100
AcDbLine
 10
725.2162314202153
 20
-329.6251709658632
 30
0.0
 11
1004.753403678633
 21
-329.6251709658633
 31
0.0
  0
LINE
  5
C94
330
A
100
AcDbEntity
  8
hyou
 62
   250
100
AcDbLine
 10
725.2162314202153
 20
-335.7559622928627
 30
0.0
 11
1004.753403678633
 21
-335.7559622928627
 31
0.0
  0
LINE
  5
C95
330
A
100
AcDbEntity
  8
hyou
 62
   250
100
AcDbLine
 10
725.2162314202153
 20
-348.0129160071858
 30
0.0
 11
1004.753403678633
 21
-348.0129160071859
 31
0.0
  0
LINE
  5
C96
330
A
100
AcDbEntity
  8
hyou
 62
   250
100
AcDbLine
 10
725.2162314202153
 20
-354.1437073341854
 30
0.0
 11
1004.753403678633
 21
-354.1437073341854
 31
0.0
  0
LINE
  5
C97
330
A
100
AcDbEntity
  8
hyou
 62
   250
100
AcDbLine
 10
725.2162314202153
 20
-360.2729556812929
 30
0.0
 11
1004.753403678633
 21
-360.272955681293
 31
0.0
  0
LINE
  5
C98
330
A
100
AcDbEntity
  8
hyou
 62
   250
100
AcDbLine
 10
725.2162314202153
 20
-366.4006610485085
 30
0.0
 11
1004.753403678633
 21
-366.4006610485085
 31
0.0
  0
LINE
  5
C99
330
A
100
AcDbEntity
  8
hyou
 62
   250
100
AcDbLine
 10
725.2162314202153
 20
-378.6591577427234
 30
0.0
 11
1004.753403678633
 21
-378.6591577427236
 31
0.0
  0
LINE
  5
C9A
330
A
100
AcDbEntity
  8
hyou
 62
   250
100
AcDbLine
 10
725.2162314202153
 20
-384.7884060898311
 30
0.0
 11
1004.753403678633
 21
-384.7884060898311
 31
0.0
  0
LINE
  5
C9B
330
A
100
AcDbEntity
  8
hyou
 62
   250
100
AcDbLine
 10
725.2162314202153
 20
-390.9176544369386
 30
0.0
 11
1004.753403678633
 21
-390.9176544369387
 31
0.0
  0
LINE
  5
C9C
330
A
100
AcDbEntity
  8
hyou
 62
   250
100
AcDbLine
 10
725.2162314202153
 20
-397.0469027840461
 30
0.0
 11
1004.753403678633
 21
-397.0469027840461
 31
0.0
  0
LINE
  5
C9D
330
A
100
AcDbEntity
  8
hyou
 62
   250
100
AcDbLine
 10
725.2162314202153
 20
-409.3069424581531
 30
0.0
 11
1004.753403678633
 21
-409.3069424581531
 31
0.0
  0
LINE
  5
C9E
330
A
100
AcDbEntity
  8
hyou
 62
   250
100
AcDbLine
 10
725.2162314202153
 20
-415.4346478253686
 30
0.0
 11
1004.753403678633
 21
-415.4346478253688
 31
0.0
  0
LINE
  5
C9F
330
A
100
AcDbEntity
  8
hyou
 62
   250
100
AcDbLine
 10
725.2162314202153
 20
-421.5654391523683
 30
0.0
 11
1004.753403678633
 21
-421.5654391523683
 31
0.0
  0
LINE
  5
CA0
330
A
100
AcDbEntity
  8
hyou
 62
   250
100
AcDbLine
 10
725.2162314202153
 20
-427.6931445195838
 30
0.0
 11
1004.753403678633
 21
-427.6931445195838
 31
0.0
  0
TEXT
  5
E4F
330
A
100
AcDbEntity
  8
moji
100
AcDbText
 10
704.3569455435539
 20
-193.0371018854005
 30
0.0
 40
7.5
  1
40
  7
スタイル1
100
AcDbText
  0
TEXT
  5
E50
330
A
100
AcDbEntity
  8
moji
100
AcDbText
 10
704.3569455435539
 20
-223.6805427484783
 30
0.0
 40
7.5
  1
35
  7
スタイル1
100
AcDbText
  0
TEXT
  5
E51
330
A
100
AcDbEntity
  8
moji
100
AcDbText
 10
704.3569455435539
 20
-254.3267844840169
 30
0.0
 40
7.5
  1
30
  7
スタイル1
100
AcDbText
  0
TEXT
  5
E52
330
A
100
AcDbEntity
  8
moji
100
AcDbText
 10
704.3569455435539
 20
-284.971157165399
 30
0.0
 40
7.5
  1
25
  7
スタイル1
100
AcDbText
  0
TEXT
  5
E53
330
A
100
AcDbEntity
  8
moji
100
AcDbText
 10
704.3569455435553
 20
-315.6173989009375
 30
0.0
 40
7.5
  1
20
  7
スタイル1
100
AcDbText
  0
TEXT
  5
E54
330
A
100
AcDbEntity
  8
moji
100
AcDbText
 10
704.3569455435539
 20
-346.2636352189276
 30
0.0
 40
7.5
  1
15
  7
スタイル1
100
AcDbText
  0
TEXT
  5
E55
330
A
100
AcDbEntity
  8
moji
100
AcDbText
 10
704.3569455435539
 20
-376.9061442637016
 30
0.0
 40
7.5
  1
10
  7
スタイル1
100
AcDbText
  0
TEXT
  5
E56
330
A
100
AcDbEntity
  8
moji
100
AcDbText
 10
709.8165373896591
 20
-407.550522362631
 30
0.0
 40
7.5
  1
5
  7
スタイル1
100
AcDbText
  0
TEXT
  5
E57
330
A
100
AcDbEntity
  8
moji
100
AcDbText
 10
709.8165373896591
 20
-438.1967586806212
 30
0.0
 40
7.5
  1
0
  7
スタイル1
100
AcDbText
  0
TEXT
  5
E58
330
A
100
AcDbEntity
  8
moji
100
AcDbText
 10
694.1297250802415
 20
-318.4345361033042
 30
0.0
 40
7.5
  1
静圧（Pa）
 50
90.0
  7
スタイル1
100
AcDbText
  0
TEXT
  5
E59
330
A
100
AcDbEntity
  8
moji
100
AcDbText
 10
723.7717768690802
 20
-452.475090312097
 30
0.0
 40
7.5
  1
0
  7
スタイル1
100
AcDbText
  0
TEXT
  5
E5F
330
A
100
AcDbEntity
  8
moji
100
AcDbText
 10
835.7715140717166
 20
-469.810879455612
 30
0.0
 40
7.5
  1
風量（m3/h）
  7
スタイル1
100
AcDbText
  0
TEXT
  5
E63
330
A
100
AcDbEntity
  8
moji
100
AcDbText
 10
741.284807471148
 20
-452.475090312097
 30
0.0
 40
7.5
  1
10
  7
スタイル1
100
AcDbText
  0
TEXT
  5
E64
330
A
100
AcDbEntity
  8
moji
100
AcDbText
 10
763.1762975822617
 20
-452.475090312097
 30
0.0
 40
7.5
  1
20
  7
スタイル1
100
AcDbText
  0
TEXT
  5
E65
330
A
100
AcDbEntity
  8
moji
100
AcDbText
 10
784.5084865531766
 20
-452.475090312097
 30
0.0
 40
7.5
  1
30
  7
スタイル1
100
AcDbText
  0
TEXT
  5
E66
330
A
100
AcDbEntity
  8
moji
100
AcDbText
 10
805.8375940367128
 20
-452.475090312097
 30
0.0
 40
7.5
  1
40
  7
スタイル1
100
AcDbText
  0
TEXT
  5
E67
330
A
100
AcDbEntity
  8
moji
100
AcDbText
 10
827.7306271277181
 20
-452.475090312097
 30
0.0
 40
7.5
  1
50
  7
スタイル1
100
AcDbText
  0
TEXT
  5
E68
330
A
100
AcDbEntity
  8
moji
100
AcDbText
 10
849.0605038649981
 20
-452.475090312097
 30
0.0
 40
7.5
  1
60
  7
スタイル1
100
AcDbText
  0
TEXT
  5
E69
330
A
100
AcDbEntity
  8
moji
100
AcDbText
 10
870.3903806022777
 20
-452.475090312097
 30
0.0
 40
7.5
  1
70
  7
スタイル1
100
AcDbText
  0
TEXT
  5
E6A
330
A
100
AcDbEntity
  8
moji
100
AcDbText
 10
891.7202573395572
 20
-452.475090312097
 30
0.0
 40
7.5
  1
80
  7
スタイル1
100
AcDbText
  0
TEXT
  5
E6B
330
A
100
AcDbEntity
  8
moji
100
AcDbText
 10
913.6117519230763
 20
-452.475090312097
 30
0.0
 40
7.5
  1
90
  7
スタイル1
100
AcDbText
  0
TEXT
  5
E6C
330
A
100
AcDbEntity
  8
moji
100
AcDbText
 10
932.2607360718652
 20
-452.4750903120969
 30
0.0
 40
7.5
  1
100
  7
スタイル1
100
AcDbText
  0
TEXT
  5
E6D
330
A
100
AcDbEntity
  8
moji
100
AcDbText
 10
953.5921557890366
 20
-452.4750903120969
 30
0.0
 40
7.5
  1
110
  7
スタイル1
100
AcDbText
  0
TEXT
  5
E6E
330
A
100
AcDbEntity
  8
moji
100
AcDbText
 10
975.4836503725559
 20
-452.4750903120969
 30
0.0
 40
7.5
  1
120
  7
スタイル1
100
AcDbText
  0
TEXT
  5
E6F
330
A
100
AcDbEntity
  8
moji
100
AcDbText
 10
996.8135226374299
 20
-452.4750903120969
 30
0.0
 40
7.5
  1
130
  7
スタイル1
100
AcDbText
  0
LINE
  5
E7E
330
A
100
AcDbEntity
  8
hyou
 62
     5
100
AcDbLine
 10
1030.510458593992
 20
-266.6021403935831
 30
0.0
 11
1046.690735458222
 21
-266.6021403935831
 31
0.0
  0
TEXT
  5
E80
330
A
100
AcDbEntity
  8
moji
100
AcDbText
 10
1048.922584781861
 20
-269.6055471500143
 30
0.0
 40
7.5
  1
50Hz
  7
スタイル1
100
AcDbText
  0
TEXT
  5
E81
330
A
100
AcDbEntity
  8
moji
100
AcDbText
 10
1048.922584781861
 20
-283.4431621131201
 30
0.0
 40
7.5
  1
60Hz
  7
スタイル1
100
AcDbText
  0
LINE
  5
E82
330
A
100
AcDbEntity
  8
hyou
  6
DASHED2
 62
     6
100
AcDbLine
 10
1030.510458593992
 20
-280.4397553566889
 30
0.0
 11
1046.690735458222
 21
-280.4397553566889
 31
0.0
  0
LWPOLYLINE
  5
E83
330
A
100
AcDbEntity
  8
hyou
100
AcDbPolyline
 90
        4
 70
     1
 43
0.0
 10
670.2055366300887
 20
-163.2955980839193
 10
1114.783268467279
 20
-163.2955980839193
 10
1114.783268467279
 20
-480.213014622114
 10
670.2055366300887
 20
-480.2130146221143
  0
LWPOLYLINE
  5
E84
330
A
100
AcDbEntity
  8
hyou
100
AcDbPolyline
 90
        4
 70
     1
 43
0.0
 10
725.2162314202157
 20
-188.6570834496602
 10
1004.753403678633
 20
-188.6570834496602
 10
1004.753403678633
 20
-433.8223928666908
 10
725.2162314202157
 20
-433.8223928666908
  0
LINE
  5
E95
330
A
100
AcDbEntity
  8
hyou
 62
   250
100
AcDbLine
 10
983.4235269413536
 20
-188.6570834496603
 30
0.0
 11
983.4235269413536
 21
-433.8223928666913
 31
0.0
  0
LINE
  5
E96
330
A
100
AcDbEntity
  8
hyou
 62
   250
100
AcDbLine
 10
961.5320323578343
 20
-188.6570834496602
 30
0.0
 11
961.5320323578343
 21
-433.8223928666913
 31
0.0
  0
LINE
  5
E97
330
A
100
AcDbEntity
  8
hyou
 62
   250
100
AcDbLine
 10
940.2006171130683
 20
-188.6570834496602
 30
0.0
 11
940.2006171130679
 21
-433.8223928666913
 31
0.0
  0
LINE
  5
E98
330
A
100
AcDbEntity
  8
hyou
 62
   250
100
AcDbLine
 10
918.8707403757886
 20
-188.6570834496602
 30
0.0
 11
918.8707403757884
 21
-433.8223928666913
 31
0.0
  0
LINE
  5
E99
330
A
100
AcDbEntity
  8
hyou
 62
   250
100
AcDbLine
 10
896.9792457922691
 20
-188.6570834496602
 30
0.0
 11
896.9792457922691
 21
-433.8223928666913
 31
0.0
  0
LINE
  5
E9A
330
A
100
AcDbEntity
  8
hyou
 62
   250
100
AcDbLine
 10
875.6493690549897
 20
-188.6570834496602
 30
0.0
 11
875.6493690549897
 21
-433.8223928666913
 31
0.0
  0
LINE
  5
E9B
330
A
100
AcDbEntity
  8
hyou
 62
   250
100
AcDbLine
 10
854.31949231771
 20
-188.6570834496602
 30
0.0
 11
854.31949231771
 21
-433.8223928666913
 31
0.0
  0
LINE
  5
E9C
330
A
100
AcDbEntity
  8
hyou
 62
   250
100
AcDbLine
 10
832.9896155804304
 20
-188.6570834496602
 30
0.0
 11
832.9896155804304
 21
-433.8223928666913
 31
0.0
  0
LINE
  5
E9D
330
A
100
AcDbEntity
  8
hyou
 62
   250
100
AcDbLine
 10
811.0965824894247
 20
-188.6570834496602
 30
0.0
 11
811.0965824894247
 21
-433.8223928666913
 31
0.0
  0
LINE
  5
E9E
330
A
100
AcDbEntity
  8
hyou
 62
   250
100
AcDbLine
 10
789.7674794782938
 20
-188.6570834496602
 30
0.0
 11
789.7674794782938
 21
-433.8223928666913
 31
0.0
  0
LINE
  5
E9F
330
A
100
AcDbEntity
  8
hyou
 62
   250
100
AcDbLine
 10
768.4352905073787
 20
-188.6570834496602
 30
0.0
 11
768.4352905073787
 21
-433.8223928666913
 31
0.0
  0
LINE
  5
EA0
330
A
100
AcDbEntity
  8
hyou
 62
   250
100
AcDbLine
 10
746.5437959238595
 20
-188.6570834496602
 30
0.0
 11
746.5437959238595
 21
-433.8223928666913
 31
0.0
  0
LINE
  5
EA1
330
A
100
AcDbEntity
  8
hyou
 62
   250
100
AcDbLine
 10
994.0896191906082
 20
-188.6570834496603
 30
0.0
 11
994.0896191906082
 21
-433.8223928666913
 31
0.0
  0
LINE
  5
EA2
330
A
100
AcDbEntity
  8
hyou
 62
   250
100
AcDbLine
 10
972.7582039458424
 20
-188.6570834496603
 30
0.0
 11
972.758203945842
 21
-433.8223928666913
 31
0.0
  0
LINE
  5
EA3
330
A
100
AcDbEntity
  8
hyou
 62
   250
100
AcDbLine
 10
950.8659401085795
 20
-188.6570834496602
 30
0.0
 11
950.8659401085795
 21
-433.8223928666913
 31
0.0
  0
LINE
  5
EA4
330
A
100
AcDbEntity
  8
hyou
 62
   250
100
AcDbLine
 10
929.5352941175567
 20
-188.6570834496602
 30
0.0
 11
929.5352941175567
 21
-433.8223928666913
 31
0.0
  0
LINE
  5
EA5
330
A
100
AcDbEntity
  8
hyou
 62
   250
100
AcDbLine
 10
908.2054173802772
 20
-188.6570834496602
 30
0.0
 11
908.2054173802772
 21
-433.8223928666913
 31
0.0
  0
LINE
  5
EA6
330
A
100
AcDbEntity
  8
hyou
 62
   250
100
AcDbLine
 10
886.3139227967577
 20
-188.6570834496602
 30
0.0
 11
886.3139227967577
 21
-433.8223928666913
 31
0.0
  0
LINE
  5
EA7
330
A
100
AcDbEntity
  8
hyou
 62
   250
100
AcDbLine
 10
864.9825075519917
 20
-188.6570834496602
 30
0.0
 11
864.9825075519917
 21
-433.8223928666913
 31
0.0
  0
LINE
  5
EA8
330
A
100
AcDbEntity
  8
hyou
 62
   250
100
AcDbLine
 10
843.6541693221986
 20
-188.6570834496602
 30
0.0
 11
843.6541693221981
 21
-433.8223928666913
 31
0.0
  0
LINE
  5
EA9
330
A
100
AcDbEntity
  8
hyou
 62
   250
100
AcDbLine
 10
821.7626792110847
 20
-188.6570834496602
 30
0.0
 11
821.7626792110847
 21
-433.8223928666913
 31
0.0
  0
LINE
  5
EAA
330
A
100
AcDbEntity
  8
hyou
 62
   250
100
AcDbLine
 10
800.4328024738052
 20
-188.6570834496602
 30
0.0
 11
800.4328024738052
 21
-433.8223928666913
 31
0.0
  0
LINE
  5
EAB
330
A
100
AcDbEntity
  8
hyou
 62
   250
100
AcDbLine
 10
779.1013827566332
 20
-188.6570834496602
 30
0.0
 11
779.1013827566332
 21
-433.8223928666913
 31
0.0
  0
LINE
  5
EAC
330
A
100
AcDbEntity
  8
hyou
 62
   250
100
AcDbLine
 10
757.2098881731143
 20
-188.6570834496602
 30
0.0
 11
757.2098881731143
 21
-433.8223928666913
 31
0.0
  0
LINE
  5
EAD
330
A
100
AcDbEntity
  8
hyou
 62
   250
100
AcDbLine
 10
735.8800159082402
 20
-188.6570834496602
 30
0.0
 11
735.88001590824
 21
-433.8223928666913
 31
0.0
  0
TEXT
  5
EAE
330
A
100
AcDbEntity
  8
moji
100
AcDbText
 10
796.0243509208021
 20
-184.3538216136676
 30
0.0
 40
10.0
  1
静圧－風量曲線表
  7
スタイル1
100
AcDbText
  0
LWPOLYLINE
  5
EAF
330
A
100
AcDbEntity
  8
hyou
  6
DASHED2
 62
     6
100
AcDbPolyline
 90
       38
 70
   128
 43
0.0
 10
725.2162314202157
 20
-213.9298394545533
 10
731.3617662959011
 20
-218.3464372207473
 10
743.6201299831491
 20
-227.85656663806
 10
748.6515466639438
 20
-231.2399790941354
 10
757.4336574933186
 20
-237.7324702637316
 10
765.8337404742543
 20
-244.2626100009729
 10
773.5627807755162
 20
-250.1907718154798
 10
780.3922256926889
 20
-255.2816531882327
 10
786.1802463462598
 20
-259.5887826543631
 10
793.2027239084109
 20
-265.7093188145736
 10
797.7807950805217
 20
-269.5131574220486
 10
802.5473325564899
 20
-274.470995200908
 10
807.3063764153184
 20
-278.1995531332823
 10
812.0102209602007
 20
-282.7757902319108
 10
821.0270113507695
 20
-292.1810517841159
 10
831.5257208242746
 20
-302.7411519773523
 10
840.7502326062047
 20
-311.1079854612808
 10
849.5015363428992
 20
-320.0003639796014
 10
858.1261345867298
 20
-328.9900427910652
 10
865.0799913529452
 20
-336.0190373659843
 10
869.2025071586268
 20
-340.7182649979795
 10
873.5523555339959
 20
-345.4327059598008
 10
878.0364972787019
 20
-349.9150417943464
 10
882.0236514425833
 20
-355.0619001553678
 10
886.6607656148598
 20
-360.2738544494514
 10
892.0210269325908
 20
-366.1389161288316
 10
897.0177457048176
 20
-372.5875079739517
 10
902.9574610483059
 20
-378.8919126771189
 10
907.2340227906536
 20
-384.6933763006518
 10
912.160335076207
 20
-391.499508144505
 10
917.9563625366299
 20
-399.3979546008814
 10
922.4475475483178
 20
-405.9896431004217
 10
927.0096679462813
 20
-412.1508153526083
 10
930.777396851362
 20
-417.8040138223257
 10
934.176660778996
 20
-422.7924222874935
 10
937.0696525812991
 20
-427.853128018477
 10
939.5411271103967
 20
-432.4987736197243
 10
940.1956264056099
 20
-433.8223928666908
  0
LWPOLYLINE
  5
EB9
330
A
100
AcDbEntity
  8
hyou
100
AcDbPolyline
 90
        4
 70
     1
 43
0.0
 10
1024.269114277977
 20
-257.6506959239432
 10
1074.898939446114
 20
-257.6506959239432
 10
1074.898939446114
 20
-288.6086230026817
 10
1024.269114277977
 20
-288.6086230026817
  0
INSERT
  5
EC7
330
A
100
AcDbEntity
  8
Dim
100
AcDbBlockReference
  2
_Open30
 10
113.9770239743315
 20
-102.0702846274256
 30
0.0
 41
7.199999999999997
 42
7.199999999999997
 43
7.199999999999997
 50
299.8772647278103
1001
ACAD
1000
DSTYLE
1002
{
1070
   147
1040
0.05
1070
    77
1070
     0
1002
}
  0
LWPOLYLINE
  5
EC8
330
A
100
AcDbEntity
  8
Dim
100
AcDbPolyline
 90
        2
 70
     0
 43
0.0
 10
110.3903892533662
 20
-95.82720434775863
 10
61.87095773529929
 20
-11.37179428872288
1001
ACAD
1000
DSTYLE
1002
{
1070
   147
1040
0.05
1070
    77
1070
     0
1002
}
  0
INSERT
  5
EC9
330
A
100
AcDbEntity
  8
Dim
100
AcDbBlockReference
  2
_Open30
 10
124.3033744134045
 20
-166.1985817712936
 30
0.0
 41
7.199999999999997
 42
7.199999999999997
 43
7.199999999999997
 50
277.1824630671904
1001
ACAD
1000
DSTYLE
1002
{
1070
   147
1040
0.05
1070
    77
1070
     0
1002
}
  0
LWPOLYLINE
  5
ECA
330
A
100
AcDbEntity
  8
Dim
100
AcDbPolyline
 90
        2
 70
     0
 43
0.0
 10
123.4031615526744
 20
-159.0550800525721
 10
104.9576348170858
 20
-12.68341876400214
1001
ACAD
1000
DSTYLE
1002
{
1070
   147
1040
0.05
1070
    77
1070
     0
1002
}
  0
INSERT
  5
ECB
330
A
100
AcDbEntity
  8
Dim
100
AcDbBlockReference
  2
_Open30
 10
234.6760669720165
 20
-147.82547491312
 30
0.0
 41
7.199999999999997
 42
7.199999999999997
 43
7.199999999999997
 50
256.0338324941213
1001
ACAD
1000
DSTYLE
1002
{
1070
   147
1040
0.05
1070
    77
1070
     0
1002
}
  0
LWPOLYLINE
  5
ECC
330
A
100
AcDbEntity
  8
Dim
100
AcDbPolyline
 90
        2
 70
     0
 43
0.0
 10
236.4137790885183
 20
-140.8383183669874
 10
268.1548016172103
 20
-13.21102542461176
1001
ACAD
1000
DSTYLE
1002
{
1070
   147
1040
0.05
1070
    77
1070
     0
1002
}
  0
INSERT
  5
ECD
330
A
100
AcDbEntity
  8
Dim
100
AcDbBlockReference
  2
_Open30
 10
60.92466584586034
 20
-166.7586611100468
 30
0.0
 41
7.199999999999997
 42
7.199999999999997
 43
7.199999999999997
 50
328.3610842119454
1001
ACAD
1000
DSTYLE
1002
{
1070
   147
1040
0.05
1070
    77
1070
     0
1002
}
  0
LWPOLYLINE
  5
ECE
330
A
100
AcDbEntity
  8
Dim
100
AcDbPolyline
 90
        2
 70
     0
 43
0.0
 10
54.7947957837588
 20
-162.9817982555403
 10
10.88113941767398
 20
-135.9248042484328
1001
ACAD
1000
DSTYLE
1002
{
1070
   147
1040
0.05
1070
    77
1070
     0
1002
}
  0
INSERT
  5
ECF
330
A
100
AcDbEntity
  8
Dim
100
AcDbBlockReference
  2
_Open30
 10
61.82910698965995
 20
-208.0864025317312
 30
0.0
 41
7.199999999999997
 42
7.199999999999997
 43
7.199999999999997
 50
10.19123180439696
1001
ACAD
1000
DSTYLE
1002
{
1070
   147
1040
0.05
1070
    77
1070
     0
1002
}
  0
LWPOLYLINE
  5
ED0
330
A
100
AcDbEntity
  8
Dim
100
AcDbPolyline
 90
        2
 70
     0
 43
0.0
 10
54.74270357550867
 20
-209.3603282171246
 10
11.10555218397503
 20
-217.2049970492806
1001
ACAD
1000
DSTYLE
1002
{
1070
   147
1040
0.05
1070
    77
1070
     0
1002
}
  0
INSERT
  5
ED1
330
A
100
AcDbEntity
  8
Dim
100
AcDbBlockReference
  2
_Open30
 10
224.4498671089451
 20
-252.6736777941619
 30
0.0
 41
7.199999999999997
 42
7.199999999999997
 43
7.199999999999997
 50
123.2235194413478
1001
ACAD
1000
DSTYLE
1002
{
1070
   147
1040
0.05
1070
    77
1070
     0
1002
}
  0
LWPOLYLINE
  5
ED2
330
A
100
AcDbEntity
  8
Dim
100
AcDbPolyline
 90
        2
 70
     0
 43
0.0
 10
228.3947950764015
 20
-258.6967619984198
 10
260.6260774083505
 20
-307.9072239125598
1001
ACAD
1000
DSTYLE
1002
{
1070
   147
1040
0.05
1070
    77
1070
     0
1002
}
  0
INSERT
  5
ED3
330
A
100
AcDbEntity
  8
Dim
100
AcDbBlockReference
  2
_Open30
 10
61.9107686413912
 20
-106.8035789404545
 30
0.0
 41
7.199999999999997
 42
7.199999999999997
 43
7.199999999999997
 50
294.9439496544658
  0
LWPOLYLINE
  5
ED4
330
A
100
AcDbEntity
  8
Dim
100
AcDbPolyline
 90
        4
 70
     0
 43
0.0
 10
58.87430218543875
 20
-100.2751892874178
 10
-7.698877356748752
 20
42.8568567264546
 10
5.625725364763638
 20
42.85685672645459
 10
128.4439071829454
 20
42.85685672645459
  0
INSERT
  5
ED5
330
A
100
AcDbEntity
  8
Dim
100
AcDbBlockReference
  2
_Open30
 10
414.5413045359822
 20
-195.1592051867747
 30
0.0
 41
7.199999999999997
 42
7.199999999999997
 43
7.199999999999997
 50
130.5599880222673
1001
ACAD
1000
DSTYLE
1002
{
1070
   147
1040
0.05
1070
    77
1070
     0
1002
}
  0
LWPOLYLINE
  5
ED6
330
A
100
AcDbEntity
  8
Dim
100
AcDbPolyline
 90
        2
 70
     0
 43
0.0
 10
419.2230601013891
 20
-200.6292293938309
 10
477.8717696352503
 20
-269.152640405132
1001
ACAD
1000
DSTYLE
1002
{
1070
   147
1040
0.05
1070
    77
1070
     0
1002
}
  0
INSERT
  5
ED7
330
A
100
AcDbEntity
  8
Dim
100
AcDbBlockReference
  2
_Open30
 10
461.8742655558937
 20
-210.1479757291729
 30
0.0
 41
7.199999999999997
 42
7.199999999999997
 43
7.199999999999997
 50
135.8937102621741
1001
ACAD
1000
DSTYLE
1002
{
1070
   147
1040
0.05
1070
    77
1070
     0
1002
}
  0
LWPOLYLINE
  5
ED8
330
A
100
AcDbEntity
  8
Dim
100
AcDbPolyline
 90
        2
 70
     0
 43
0.0
 10
467.0442248248908
 20
-215.1591154355581
 10
522.9713977247735
 20
-269.3682227422836
1001
ACAD
1000
DSTYLE
1002
{
1070
   147
1040
0.05
1070
    77
1070
     0
1002
}
  0
ARC
  5
ED9
330
A
100
AcDbEntity
  8
0
100
AcDbCircle
 10
55.79876040480385
 20
-271.4693956726593
 30
0.0
 40
10.02695022115852
100
AcDbArc
 50
180.7062868110214
 51
270.6850860045148
  0
ARC
  5
EDA
330
A
100
AcDbEntity
  8
0
100
AcDbCircle
 10
82.98731789255855
 20
-269.6874394810444
 30
0.0
 40
2.977381740268381
100
AcDbArc
 50
183.3447281091621
 51
260.9170788365271
  0
ARC
  5
EDB
330
A
100
AcDbEntity
  8
0
100
AcDbCircle
 10
216.659266707792
 20
-269.6671386923951
 30
0.0
 40
3.000408000738276
100
AcDbArc
 50
279.460753550339
 51
356.2925750137071
  0
ARC
  5
EDC
330
A
100
AcDbEntity
  8
0
100
AcDbCircle
 10
243.7450478962199
 20
-271.4680457153311
 30
0.0
 40
10.02830254784141
100
AcDbArc
 50
269.3138288737515
 51
359.2860949885853
  0
ARC
  5
EDD
330
A
100
AcDbEntity
  8
0
100
AcDbCircle
 10
58.34455599527583
 20
-91.59991835880585
 30
0.0
 40
9.403326326986215
100
AcDbArc
 50
89.33773727093939
 51
179.2814820162921
  0
ARC
  5
EDE
330
A
100
AcDbEntity
  8
0
100
AcDbCircle
 10
58.56569598394168
 20
-91.36559519699458
 30
0.0
 40
9.401083371741911
100
AcDbArc
 50
269.3146187634565
 51
359.2905480785399
  0
ARC
  5
EDF
330
A
100
AcDbEntity
  8
0
100
AcDbCircle
 10
240.9779058533639
 20
-91.36559624086713
 30
0.0
 40
9.401082318169036
100
AcDbArc
 50
180.7094445618457
 51
270.6853763325141
  0
ARC
  5
EE0
330
A
100
AcDbEntity
  8
0
100
AcDbCircle
 10
241.2000073758902
 20
-91.5989315085933
 30
0.0
 40
9.402352926382226
100
AcDbArc
 50
0.7125782662501125
 51
90.66818344927288
  0
ARC
  5
EF1
330
A
100
AcDbEntity
  8
0
100
AcDbCircle
 10
149.7132206873909
 20
-180.6719965065449
 30
0.0
 40
5.014876802379037
100
AcDbArc
 50
89.32191136258536
 51
179.2602080765126
  0
ARC
  5
EF2
330
A
100
AcDbEntity
  8
0
100
AcDbCircle
 10
149.8302191170208
 20
-180.6721419933139
 30
0.0
 40
5.014876802379037
100
AcDbArc
 50
0.5972981554741673
 51
90.53559486940139
  0
ARC
  5
EF3
330
A
100
AcDbEntity
  8
0
100
AcDbCircle
 10
149.6090120133105
 20
-180.7773471154451
 30
0.0
 40
13.78931049752443
100
AcDbArc
 50
89.32038744356725
 51
179.2932021712277
  0
ARC
  5
EF4
330
A
100
AcDbEntity
  8
0
100
AcDbCircle
 10
149.5858552448173
 20
-180.8035333647257
 30
0.0
 40
15.66920523596088
100
AcDbArc
 50
89.31724634809938
 51
179.2822381392017
  0
ARC
  5
EF5
330
A
100
AcDbEntity
  8
0
100
AcDbCircle
 10
149.2892616809067
 20
-181.1118395375418
 30
0.0
 40
40.73893286260921
100
AcDbArc
 50
89.32025310883387
 51
179.2903164408911
  0
ARC
  5
EF6
330
A
100
AcDbEntity
  8
0
100
AcDbCircle
 10
149.131539947517
 20
-181.2762237085717
 30
0.0
 40
53.90079524225475
100
AcDbArc
 50
89.31857834933163
 51
179.2888692132768
  0
ARC
  5
EF7
330
A
100
AcDbEntity
  8
0
100
AcDbCircle
 10
149.0844935227183
 20
-181.3239446910433
 30
0.0
 40
57.65979399446564
100
AcDbArc
 50
89.31625145318667
 51
179.2878087776899
  0
ARC
  5
EF8
330
A
100
AcDbEntity
  8
0
100
AcDbCircle
 10
148.9293949400691
 20
-181.4871162202147
 30
0.0
 40
70.82272361314998
100
AcDbArc
 50
89.31785311768932
 51
179.2881652102163
  0
ARC
  5
EF9
330
A
100
AcDbEntity
  8
0
100
AcDbCircle
 10
150.6157445875252
 20
-181.4871162202147
 30
0.0
 40
70.82272361314998
100
AcDbArc
 50
0.7118347897836478
 51
90.68214688231071
  0
ARC
  5
EFA
330
A
100
AcDbEntity
  8
0
100
AcDbCircle
 10
150.460646004876
 20
-181.3239446910433
 30
0.0
 40
57.65979399446564
100
AcDbArc
 50
0.7121912223101115
 51
90.68374854681334
  0
ARC
  5
EFB
330
A
100
AcDbEntity
  8
0
100
AcDbCircle
 10
150.4135995800774
 20
-181.2762237085717
 30
0.0
 40
53.90079524225475
100
AcDbArc
 50
0.7111307867231556
 51
90.68142165066836
  0
ARC
  5
EFC
330
A
100
AcDbEntity
  8
0
100
AcDbCircle
 10
150.2558778466877
 20
-181.1118395375418
 30
0.0
 40
40.73893286260921
100
AcDbArc
 50
0.7096835591088495
 51
90.67974689116615
  0
ARC
  5
EFD
330
A
100
AcDbEntity
  8
0
100
AcDbCircle
 10
149.959284282777
 20
-180.8035333647257
 30
0.0
 40
15.66920523596088
100
AcDbArc
 50
0.717761860798285
 51
90.68275365190064
  0
ARC
  5
EFE
330
A
100
AcDbEntity
  8
0
100
AcDbCircle
 10
149.9361275142838
 20
-180.7773471154451
 30
0.0
 40
13.78931049752443
100
AcDbArc
 50
0.7067978287723187
 51
90.67961255643274
  0
ARC
  5
EFF
330
A
100
AcDbEntity
  8
0
  6
DASHED2
100
AcDbCircle
 10
409.9931347569822
 20
-145.3882296638471
 30
0.0
 40
5.0127932184533
100
AcDbArc
 50
89.3334218094786
 51
179.2923779400568
  0
ARC
  5
F00
330
A
100
AcDbEntity
  8
0
  6
DASHED2
100
AcDbCircle
 10
409.9936320035596
 20
-215.826527879915
 30
0.0
 40
5.013296716930677
100
AcDbArc
 50
180.7133488879829
 51
270.6608482695533
  0
ARC
  5
F01
330
A
100
AcDbEntity
  8
0
100
AcDbCircle
 10
463.380388375218
 20
-145.3902976381768
 30
0.0
 40
5.014891325096382
100
AcDbArc
 50
0.7309687675405741
 51
90.69540739389372
  0
ARC
  5
F02
330
A
100
AcDbEntity
  8
0
100
AcDbCircle
 10
463.3798938125898
 20
-215.8244622000966
 30
0.0
 40
5.015392314080597
100
AcDbArc
 50
269.3102874367562
 51
359.2633352932084
  0
ARC
  5
F0D
330
A
100
AcDbEntity
  8
0
100
AcDbCircle
 10
450.891246055379
 20
-157.0563317411559
 30
0.0
 40
4.349750616245381
100
AcDbArc
 50
221.5779021896445
 51
312.6916089919508
  0
ARC
  5
F0E
330
A
100
AcDbEntity
  8
0
100
AcDbCircle
 10
450.8451938601937
 20
-156.8868142053558
 30
0.0
 40
4.50630385329298
100
AcDbArc
 50
311.6604932996062
 51
38.14611128121392
  0
ARC
  5
F0F
330
A
100
AcDbEntity
  8
0
100
AcDbCircle
 10
451.1585046174904
 20
-155.4534610379733
 30
0.0
 40
5.837232695757012
100
AcDbArc
 50
19.42925678477882
 51
111.2366695346304
  0
ARC
  5
F10
330
A
100
AcDbEntity
  8
0
100
AcDbCircle
 10
450.97319439467
 20
-155.6372340359791
 30
0.0
 40
6.074147296224682
100
AcDbArc
 50
291.8310434843675
 51
20.48262703860757
  0
ARC
  5
F11
330
A
100
AcDbEntity
  8
0
100
AcDbCircle
 10
451.1618327320515
 20
-155.8130057860705
 30
0.0
 40
5.84186294656139
100
AcDbArc
 50
199.4810358713331
 51
290.7546175860751
  0
ARC
  5
F12
330
A
100
AcDbEntity
  8
0
100
AcDbCircle
 10
451.4159151532021
 20
-155.9652201414725
 30
0.0
 40
9.076880515179151
100
AcDbArc
 50
159.3155374563283
 51
249.3105452710349
  0
ARC
  5
F14
330
A
100
AcDbEntity
  8
0
100
AcDbCircle
 10
451.2098332499185
 20
-155.8944743915019
 30
0.0
 40
9.072868777653242
100
AcDbArc
 50
250.6860116539787
 51
340.6964749211568
  0
ARC
  5
F15
330
A
100
AcDbEntity
  8
0
100
AcDbCircle
 10
451.2806372897435
 20
-155.6863954445351
 30
0.0
 40
9.077491625315914
100
AcDbArc
 50
339.3090780549679
 51
69.27939375383521
  0
ARC
  5
F16
330
A
100
AcDbEntity
  8
0
100
AcDbCircle
 10
451.4778550546154
 20
-155.5240064557922
 30
0.0
 40
8.85673928791231
100
AcDbArc
 50
70.10104601351192
 51
110.6327673497069
  0
CIRCLE
  5
F17
330
A
100
AcDbEntity
  8
0
100
AcDbCircle
 10
842.0055266144805
 20
-111.5368732534836
 30
0.0
 40
5.16851796098004
  0
CIRCLE
  5
F18
330
A
100
AcDbEntity
  8
0
100
AcDbCircle
 10
842.0055266144805
 20
-96.59278651427548
 30
0.0
 40
5.16851796098004
  0
CIRCLE
  5
F1C
330
A
100
AcDbEntity
  8
0
100
AcDbCircle
 10
874.0465133502629
 20
-111.6170804375975
 30
0.0
 40
3.255566040574469
  0
CIRCLE
  5
F1D
330
A
100
AcDbEntity
  8
0
100
AcDbCircle
 10
908.2278713677002
 20
-111.5368747035212
 30
0.0
 40
3.255566040574469
  0
CIRCLE
  5
F1F
330
A
100
AcDbEntity
  8
0
100
AcDbCircle
 10
993.4378485713223
 20
-95.64905532226964
 30
0.0
 40
27.99121892477039
  0
LWPOLYLINE
  5
F24
330
A
100
AcDbEntity
  8
0
 62
     5
100
AcDbPolyline
 90
       59
 70
   128
 43
0.0
 10
725.2162280794998
 20
-227.6605531802699
 10
730.4041216967894
 20
-231.5602833719265
 10
735.8800159082402
 20
-235.6649161365427
 10
738.5854962327067
 20
-237.689531719034
 10
746.5437959238595
 20
-243.6368578602666
 10
746.7894491871167
 20
-243.8203185736281
 10
754.9946830726077
 20
-249.9480284132491
 10
757.2098881731143
 20
-251.6031349527683
 10
757.5323356408175
 20
-251.8441116854043
 10
763.190137102558
 20
-256.0757337804647
 10
768.4352905073787
 20
-260.0065843867189
 10
771.3669192807124
 20
-262.2080636149507
 10
779.1013827566332
 20
-268.0360635874681
 10
779.497936146943
 20
-268.3357734545717
 10
787.5770814366092
 20
-274.4650218016793
 10
789.7674740760786
 20
-276.1352339368845
 42
-0.0162789164129641
 10
795.5061758900499
 20
-280.592727168895
 42
-0.0114228018126714
 10
800.4328024738052
 20
-284.8783913762885
 42
-0.0035669084824797
 10
802.4321550977685
 20
-286.7219755160024
 42
-0.0197029632546675
 10
808.7973891265665
 20
-292.8527668430019
 10
811.0965824894247
 20
-295.1080834541003
 10
815.0884278891346
 20
-298.9820151901095
 10
821.7626721985366
 20
-305.109720557325
 10
828.6998479425086
 20
-311.2389689044326
 10
832.9896155804304
 20
-315.0544093916569
 10
835.5752577838588
 20
-317.3682172515401
 10
842.3507739539401
 20
-323.4990085785396
 10
843.6541693221981
 20
-324.6919443489137
 10
848.9831563869676
 20
-329.6251709658632
 10
854.31949231771
 20
-334.670879244907
 10
855.4505067296883
 20
-335.7559622928627
 10
861.7212671379835
 20
-341.8867491474568
 10
864.9825075519917
 20
-345.1611530614608
 10
867.2289699921392
 20
-347.4551533744734
 10
867.7763919985405
 20
-348.0129160071859
 10
873.7935216738152
 20
-354.1437073341854
 10
875.6493690549897
 20
-356.0346110777913
 10
877.893908360779
 20
-358.3215490119343
 10
879.8091369752349
 20
-360.272955681293
 10
885.8232379027995
 20
-366.4006610485085
 10
888.5588467294189
 20
-369.1879446493952
 10
891.590980071056
 20
-372.531452375508
 10
893.6114707940005
 20
-374.7594303637903
 10
896.9792457922691
 20
-378.4730472987367
 10
897.1480241318651
 20
-378.6591577427234
 10
902.4803548120203
 20
-384.7884060898311
 10
903.4347538832273
 20
-385.9031688101209
 10
907.7278831184507
 20
-390.9176544369387
 10
908.2054173802772
 20
-391.4754271650926
 10
912.4156124392968
 20
-396.7687929576356
 10
916.6258119707221
 20
-402.062164373215
 10
917.4526955705863
 20
-403.1761511311536
 10
918.8707403757884
 20
-405.0865568223756
 10
922.0034236347752
 20
-409.3069424581531
 10
926.5518610707164
 20
-415.4346478253686
 10
929.5352941175567
 20
-419.4539619197857
 10
931.1025891349052
 20
-421.5654391523683
 10
935.6510265708463
 20
-427.6931445195838
 10
940.2006126406623
 20
-433.8223973390966
  0
TEXT
  5
F8B
330
A
100
AcDbEntity
  8
Dim
100
AcDbText
 10
121.0141383823058
 20
-18.7094799821557
 30
0.0
 40
10.0
  1
□
  7
スタイル1
 72
     1
 11
128.2868656550331
 21
-13.7094799821557
 31
0.0
100
AcDbText
 73
     2
  0
TEXT
  5
F8C
330
A
100
AcDbEntity
  8
Dim
100
AcDbText
 10
121.0133668923598
 20
-37.00266982809954
 30
0.0
 40
10.0
  1
□
  7
スタイル1
 72
     1
 11
128.2860941650871
 21
-32.00266982809954
 31
0.0
100
AcDbText
 73
     2
  0
TEXT
  5
F8D
330
A
100
AcDbEntity
  8
Dim
100
AcDbText
 10
120.7699226808555
 20
-55.29585967404335
 30
0.0
 40
10.0
  1
□
  7
スタイル1
 72
     1
 11
128.0426499535828
 21
-50.29585967404335
 31
0.0
100
AcDbText
 73
     2
  0
ENDSEC
  0
SECTION
  2
OBJECTS
  0
DICTIONARY
  5
19
330
0
100
AcDbDictionary
281
     1
  3
ACAD_COLOR
350
A22
  3
ACAD_GROUP
350
1A
  3
ACAD_LAYOUT
350
1E
  3
ACAD_MATERIAL
350
A21
  3
ACAD_MLINESTYLE
350
1B
  3
ACAD_PLOTSETTINGS
350
22
  3
ACAD_PLOTSTYLENAME
350
1F
  3
ACAD_WIPEOUT_VARS
350
23
  3
AcadDim
350
B8A
  3
ACDBHEADERROUNDTRIPXREC
350
F8F
  3
AcDbVariableDictionary
350
B60
  0
DICTIONARY
  5
A22
102
{ACAD_REACTORS
330
19
102
}
330
19
100
AcDbDictionary
281
     1
  0
DICTIONARY
  5
1A
102
{ACAD_REACTORS
330
19
102
}
330
19
100
AcDbDictionary
281
     1
  0
DICTIONARY
  5
1E
102
{ACAD_REACTORS
330
19
102
}
330
19
100
AcDbDictionary
281
     1
  3
Layout1
350
21
  3
Model
350
20
  0
DICTIONARY
  5
A21
102
{ACAD_REACTORS
330
19
102
}
330
19
100
AcDbDictionary
281
     1
  0
DICTIONARY
  5
1B
102
{ACAD_REACTORS
330
19
102
}
330
19
100
AcDbDictionary
281
     1
  3
Standard
350
1C
  0
DICTIONARY
  5
22
102
{ACAD_REACTORS
330
19
102
}
330
19
100
AcDbDictionary
281
     1
  0
ACDBDICTIONARYWDFLT
  5
1F
102
{ACAD_REACTORS
330
19
102
}
330
19
100
AcDbDictionary
281
     1
  3
Normal
350
1D
100
AcDbDictionaryWithDefault
340
1D
  0
WIPEOUTVARIABLES
  5
23
330
19
100
AcDbWipeoutVariables
 70
     1
  0
XRECORD
  5
B8A
102
{ACAD_REACTORS
330
19
102
}
330
19
100
AcDbXrecord
280
     1
 90
   990106
  3

 60
     0
 61
     0
 62
     1
 63
     3
 64
     0
 65
     0
 66
     0
 67
     3
 68
     1
 69
     0
 70
     0
 71
     0
 72
     0
 40
0.0
170
     0
  0
DICTIONARY
  5
F8F
102
{ACAD_REACTORS
330
19
102
}
330
19
100
AcDbDictionary
281
     1
  3
COLORDICT
350
F91
  3
MATERIALDICT
350
F90
  0
DICTIONARY
  5
B60
102
{ACAD_REACTORS
330
19
102
}
330
19
100
AcDbDictionary
281
     1
  3
DIMASSOC
350
B61
  3
PROJECTNAME
350
B62
  0
LAYOUT
  5
21
102
{ACAD_XDICTIONARY
360
F94
102
}
102
{ACAD_REACTORS
330
1E
102
}
330
1E
100
AcDbPlotSettings
  1

  2

  4

  6

 40
0.0
 41
0.0
 42
0.0
 43
0.0
 44
0.0
 45
0.0
 46
0.0
 47
0.0
 48
0.0
 49
0.0
140
0.0
141
0.0
142
1.0
143
1.0
 70
     0
 72
     0
 73
     0
 74
     0
  7

 75
     0
147
1.0
148
0.0
149
0.0
100
AcDbLayout
  1
Layout1
 70
     0
 71
     1
 10
0.0
 20
0.0
 11
12.0
 21
9.0
 12
0.0
 22
0.0
 32
0.0
 14
1.000000000000000E+20
 24
1.000000000000000E+20
 34
1.000000000000000E+20
 15
-1.000000000000000E+20
 25
-1.000000000000000E+20
 35
-1.000000000000000E+20
146
0.0
 13
0.0
 23
0.0
 33
0.0
 16
1.0
 26
0.0
 36
0.0
 17
0.0
 27
1.0
 37
0.0
 76
     0
330
B
  0
LAYOUT
  5
20
102
{ACAD_XDICTIONARY
360
F92
102
}
102
{ACAD_REACTORS
330
1E
102
}
330
1E
100
AcDbPlotSettings
  1

  2

  4

  6

 40
0.0
 41
0.0
 42
0.0
 43
0.0
 44
0.0
 45
0.0
 46
0.0
 47
0.0
 48
0.0
 49
0.0
140
0.0
141
0.0
142
1.0
143
1.0
 70
  1024
 72
     0
 73
     0
 74
     0
  7

 75
     0
147
1.0
148
0.0
149
0.0
100
AcDbLayout
  1
Model
 70
     0
 71
     0
 10
0.0
 20
0.0
 11
0.0
 21
0.0
 12
0.0
 22
0.0
 32
0.0
 14
0.0
 24
0.0
 34
0.0
 15
0.0
 25
0.0
 35
0.0
146
0.0
 13
0.0
 23
0.0
 33
0.0
 16
0.0
 26
0.0
 36
0.0
 17
0.0
 27
0.0
 37
0.0
 76
     0
330
A
  0
MLINESTYLE
  5
1C
102
{ACAD_REACTORS
330
1B
102
}
330
1B
100
AcDbMlineStyle
  2
STANDARD
 70
     0
  3

 62
     0
 51
90.0
 52
90.0
 71
     2
 49
0.5
 62
   256
  6
BYLAYER
 49
-0.5
 62
   256
  6
BYLAYER
  0
ACDBPLACEHOLDER
  5
1D
102
{ACAD_REACTORS
330
1F
102
}
330
1F
  0
XRECORD
  5
F91
102
{ACAD_REACTORS
330
F8F
102
}
330
F8F
100
AcDbXrecord
280
     1
340
A22
  0
XRECORD
  5
F90
102
{ACAD_REACTORS
330
F8F
102
}
330
F8F
100
AcDbXrecord
280
     1
340
A21
  0
DICTIONARYVAR
  5
B61
102
{ACAD_REACTORS
330
B60
102
}
330
B60
100
DictionaryVariables
280
     0
  1
1
  0
DICTIONARYVAR
  5
B62
102
{ACAD_REACTORS
330
B60
102
}
330
B60
100
DictionaryVariables
280
     0
  1

  0
DICTIONARY
  5
F94
330
21
100
AcDbDictionary
280
     1
281
     1
  3
ACAD_XREC_ROUNDTRIP
360
F95
  0
DICTIONARY
  5
F92
330
20
100
AcDbDictionary
280
     1
281
     1
  3
ACAD_XREC_ROUNDTRIP
360
F93
  0
XRECORD
  5
F95
102
{ACAD_REACTORS
330
F94
102
}
330
F94
100
AcDbXrecord
280
     1
102
SHADEPLOT
 70
     0
102
SHADEPLOTRESLEVEL
 70
     2
102
SHADEPLOTCUSTOMDPI
 70
   300
  0
XRECORD
  5
F93
102
{ACAD_REACTORS
330
F92
102
}
330
F92
100
AcDbXrecord
280
     1
102
SHADEPLOT
 70
     0
102
SHADEPLOTRESLEVEL
 70
     2
102
SHADEPLOTCUSTOMDPI
 70
   300
  0
ENDSEC
  0
EOF
