  0
SECTION
  2
HEADER
  9
$ACADVER
  1
AC1015
  9
$ACADMAINTVER
 70
    20
  9
$DWGCODEPAGE
  3
ANSI_932
  9
$INSBASE
 10
0.0
 20
0.0
 30
0.0
  9
$EXTMIN
 10
-0.0045292325966102
 20
-0.0032024876944092
 30
-0.0000000000112498
  9
$EXTMAX
 10
277.0676624172887
 20
192.3974552782588
 30
0.0000000000002956
  9
$LIMMIN
 10
0.0
 20
0.0
  9
$LIMMAX
 10
297.0
 20
210.0
  9
$ORTHOMODE
 70
     0
  9
$REGENMODE
 70
     1
  9
$FILLMODE
 70
     1
  9
$QTEXTMODE
 70
     0
  9
$MIRRTEXT
 70
     0
  9
$LTSCALE
 40
0.5
  9
$ATTMODE
 70
     1
  9
$TEXTSIZE
 40
0.2
  9
$TRACEWID
 40
0.05
  9
$TEXTSTYLE
  7
STANDARD
  9
$CLAYER
  8
Hach
  9
$CELTYPE
  6
ByLayer
  9
$CECOLOR
 62
   256
  9
$CELTSCALE
 40
1.0
  9
$DISPSILH
 70
     0
  9
$DIMSCALE
 40
20.0
  9
$DIMASZ
 40
0.18
  9
$DIMEXO
 40
0.0625
  9
$DIMDLI
 40
0.38
  9
$DIMRND
 40
0.0
  9
$DIMDLE
 40
0.0
  9
$DIMEXE
 40
0.1
  9
$DIMTP
 40
0.0
  9
$DIMTM
 40
0.0
  9
$DIMTXT
 40
0.3
  9
$DIMCEN
 40
0.09
  9
$DIMTSZ
 40
0.0
  9
$DIMTOL
 70
     0
  9
$DIMLIM
 70
     0
  9
$DIMTIH
 70
     0
  9
$DIMTOH
 70
     0
  9
$DIMSE1
 70
     0
  9
$DIMSE2
 70
     0
  9
$DIMTAD
 70
     1
  9
$DIMZIN
 70
     0
  9
$DIMBLK
  1
Open30
  9
$DIMASO
 70
     1
  9
$DIMSHO
 70
     1
  9
$DIMPOST
  1

  9
$DIMAPOST
  1

  9
$DIMALT
 70
     0
  9
$DIMALTD
 70
     2
  9
$DIMALTF
 40
25.4
  9
$DIMLFAC
 40
1.0
  9
$DIMTOFL
 70
     0
  9
$DIMTVP
 40
0.0
  9
$DIMTIX
 70
     0
  9
$DIMSOXD
 70
     0
  9
$DIMSAH
 70
     0
  9
$DIMBLK1
  1

  9
$DIMBLK2
  1

  9
$DIMSTYLE
  2
1-1
  9
$DIMCLRD
 70
     0
  9
$DIMCLRE
 70
     0
  9
$DIMCLRT
 70
     0
  9
$DIMTFAC
 40
1.0
  9
$DIMGAP
 40
0.05
  9
$DIMJUST
 70
     0
  9
$DIMSD1
 70
     0
  9
$DIMSD2
 70
     0
  9
$DIMTOLJ
 70
     1
  9
$DIMTZIN
 70
     0
  9
$DIMALTZ
 70
     0
  9
$DIMALTTZ
 70
     0
  9
$DIMUPT
 70
     0
  9
$DIMDEC
 70
     4
  9
$DIMTDEC
 70
     4
  9
$DIMALTU
 70
     2
  9
$DIMALTTD
 70
     2
  9
$DIMTXSTY
  7
STANDARD
  9
$DIMAUNIT
 70
     0
  9
$DIMADEC
 70
     0
  9
$DIMALTRND
 40
0.0
  9
$DIMAZIN
 70
     0
  9
$DIMDSEP
 70
    46
  9
$DIMATFIT
 70
     3
  9
$DIMFRAC
 70
     0
  9
$DIMLDRBLK
  1
Open30
  9
$DIMLUNIT
 70
     2
  9
$DIMLWD
 70
    -2
  9
$DIMLWE
 70
    -2
  9
$DIMTMOVE
 70
     0
  9
$LUNITS
 70
     2
  9
$LUPREC
 70
     4
  9
$SKETCHINC
 40
0.1
  9
$FILLETRAD
 40
0.0
  9
$AUNITS
 70
     0
  9
$AUPREC
 70
     0
  9
$MENU
  1
.
  9
$ELEVATION
 40
0.0
  9
$PELEVATION
 40
0.0
  9
$THICKNESS
 40
0.0
  9
$LIMCHECK
 70
     0
  9
$CHAMFERA
 40
0.0
  9
$CHAMFERB
 40
0.0
  9
$CHAMFERC
 40
0.0
  9
$CHAMFERD
 40
0.0
  9
$SKPOLY
 70
     0
  9
$TDCREATE
 40
2455167.389804063
  9
$TDUCREATE
 40
2455167.014804063
  9
$TDUPDATE
 40
2455236.625934664
  9
$TDUUPDATE
 40
2455236.250934664
  9
$TDINDWG
 40
0.0642444329
  9
$TDUSRTIMER
 40
0.0642384606
  9
$USRTIMER
 70
     1
  9
$ANGBASE
 50
0.0
  9
$ANGDIR
 70
     0
  9
$PDMODE
 70
     0
  9
$PDSIZE
 40
0.0
  9
$PLINEWID
 40
0.0
  9
$SPLFRAME
 70
     0
  9
$SPLINETYPE
 70
     6
  9
$SPLINESEGS
 70
     8
  9
$HANDSEED
  5
7E0
  9
$SURFTAB1
 70
     6
  9
$SURFTAB2
 70
     6
  9
$SURFTYPE
 70
     6
  9
$SURFU
 70
     6
  9
$SURFV
 70
     6
  9
$UCSBASE
  2

  9
$UCSNAME
  2

  9
$UCSORG
 10
0.0
 20
0.0
 30
0.0
  9
$UCSXDIR
 10
1.0
 20
0.0
 30
0.0
  9
$UCSYDIR
 10
0.0
 20
1.0
 30
0.0
  9
$UCSORTHOREF
  2

  9
$UCSORTHOVIEW
 70
     0
  9
$UCSORGTOP
 10
0.0
 20
0.0
 30
0.0
  9
$UCSORGBOTTOM
 10
0.0
 20
0.0
 30
0.0
  9
$UCSORGLEFT
 10
0.0
 20
0.0
 30
0.0
  9
$UCSORGRIGHT
 10
0.0
 20
0.0
 30
0.0
  9
$UCSORGFRONT
 10
0.0
 20
0.0
 30
0.0
  9
$UCSORGBACK
 10
0.0
 20
0.0
 30
0.0
  9
$PUCSBASE
  2

  9
$PUCSNAME
  2

  9
$PUCSORG
 10
0.0
 20
0.0
 30
0.0
  9
$PUCSXDIR
 10
1.0
 20
0.0
 30
0.0
  9
$PUCSYDIR
 10
0.0
 20
1.0
 30
0.0
  9
$PUCSORTHOREF
  2

  9
$PUCSORTHOVIEW
 70
     0
  9
$PUCSORGTOP
 10
0.0
 20
0.0
 30
0.0
  9
$PUCSORGBOTTOM
 10
0.0
 20
0.0
 30
0.0
  9
$PUCSORGLEFT
 10
0.0
 20
0.0
 30
0.0
  9
$PUCSORGRIGHT
 10
0.0
 20
0.0
 30
0.0
  9
$PUCSORGFRONT
 10
0.0
 20
0.0
 30
0.0
  9
$PUCSORGBACK
 10
0.0
 20
0.0
 30
0.0
  9
$USERI1
 70
     0
  9
$USERI2
 70
     0
  9
$USERI3
 70
     0
  9
$USERI4
 70
     0
  9
$USERI5
 70
     0
  9
$USERR1
 40
0.0
  9
$USERR2
 40
0.0
  9
$USERR3
 40
0.0
  9
$USERR4
 40
0.0
  9
$USERR5
 40
0.0
  9
$WORLDVIEW
 70
     1
  9
$SHADEDGE
 70
     3
  9
$SHADEDIF
 70
    70
  9
$TILEMODE
 70
     1
  9
$MAXACTVP
 70
    64
  9
$PINSBASE
 10
0.0
 20
0.0
 30
0.0
  9
$PLIMCHECK
 70
     0
  9
$PEXTMIN
 10
1.000000000000000E+20
 20
1.000000000000000E+20
 30
1.000000000000000E+20
  9
$PEXTMAX
 10
-1.000000000000000E+20
 20
-1.000000000000000E+20
 30
-1.000000000000000E+20
  9
$PLIMMIN
 10
0.0
 20
0.0
  9
$PLIMMAX
 10
12.0
 20
9.0
  9
$UNITMODE
 70
     0
  9
$VISRETAIN
 70
     1
  9
$PLINEGEN
 70
     0
  9
$PSLTSCALE
 70
     1
  9
$TREEDEPTH
 70
  3020
  9
$CMLSTYLE
  2
Standard
  9
$CMLJUST
 70
     0
  9
$CMLSCALE
 40
1.0
  9
$PROXYGRAPHICS
 70
     1
  9
$MEASUREMENT
 70
     0
  9
$CELWEIGHT
370
    -1
  9
$ENDCAPS
280
     0
  9
$JOINSTYLE
280
     0
  9
$LWDISPLAY
290
     0
  9
$INSUNITS
 70
     0
  9
$HYPERLINKBASE
  1

  9
$STYLESHEET
  1

  9
$XEDIT
290
     1
  9
$CEPSNTYPE
380
     0
  9
$PSTYLEMODE
290
     1
  9
$FINGERPRINTGUID
  2
{7E64D2BE-8CF2-44F9-A022-BE54D72EB66D}
  9
$VERSIONGUID
  2
{A06FC3B2-6BBE-4462-A262-002D07B5795A}
  9
$EXTNAMES
290
     1
  9
$PSVPSCALE
 40
0.0
  9
$OLESTARTUP
290
     0
  0
ENDSEC
  0
SECTION
  2
CLASSES
  0
CLASS
  1
ACDBDICTIONARYWDFLT
  2
AcDbDictionaryWithDefault
  3
ObjectDBX Classes
 90
        0
280
     0
281
     0
  0
CLASS
  1
DICTIONARYVAR
  2
AcDbDictionaryVar
  3
ObjectDBX Classes
 90
        0
280
     0
281
     0
  0
CLASS
  1
ACDBPLACEHOLDER
  2
AcDbPlaceHolder
  3
ObjectDBX Classes
 90
        0
280
     0
281
     0
  0
CLASS
  1
LAYOUT
  2
AcDbLayout
  3
ObjectDBX Classes
 90
        0
280
     0
281
     0
  0
ENDSEC
  0
SECTION
  2
TABLES
  0
TABLE
  2
VPORT
  5
8
330
0
100
AcDbSymbolTable
 70
     2
  0
VPORT
  5
7D8
330
8
100
AcDbSymbolTableRecord
100
AcDbViewportTableRecord
  2
*Active
 70
     0
 10
0.0
 20
0.0
 11
1.0
 21
1.0
 12
148.4977353837017
 22
104.9983987561528
 13
0.0
 23
0.0
 14
1.0
 24
1.0
 15
0.0
 25
0.0
 16
0.0
 26
0.0
 36
1.0
 17
0.0
 27
0.0
 37
0.0
 40
234.7570213043049
 41
1.276315789473684
 42
50.0
 43
0.0
 44
0.0
 50
0.0
 51
0.0
 71
     0
 72
   100
 73
     1
 74
     1
 75
     0
 76
     0
 77
     0
 78
     0
281
     0
 65
     1
110
0.0
120
0.0
130
0.0
111
1.0
121
0.0
131
0.0
112
0.0
122
1.0
132
0.0
 79
     0
146
0.0
  0
ENDTAB
  0
TABLE
  2
LTYPE
  5
5
330
0
100
AcDbSymbolTable
 70
     3
  0
LTYPE
  5
13
330
5
100
AcDbSymbolTableRecord
100
AcDbLinetypeTableRecord
  2
ByBlock
 70
     0
  3

 72
    65
 73
     0
 40
0.0
  0
LTYPE
  5
14
330
5
100
AcDbSymbolTableRecord
100
AcDbLinetypeTableRecord
  2
ByLayer
 70
     0
  3

 72
    65
 73
     0
 40
0.0
  0
LTYPE
  5
15
330
5
100
AcDbSymbolTableRecord
100
AcDbLinetypeTableRecord
  2
CONTINUOUS
 70
     0
  3
実線
 72
    65
 73
     0
 40
0.0
  0
LTYPE
  5
47
330
5
100
AcDbSymbolTableRecord
100
AcDbLinetypeTableRecord
  2
AI9-LTYPE2
 70
     0
  3
----        --------        ----
 72
    65
 73
     2
 40
0.4687720000000001
 49
0.234386
 74
     0
 49
-0.234386
 74
     0
  0
LTYPE
  5
794
330
5
100
AcDbSymbolTableRecord
100
AcDbLinetypeTableRecord
  2
CENTER2
 70
     0
  3
----------  --  ----------  --  
 72
    65
 73
     4
 40
20.0
 49
12.5
 74
     0
 49
-2.5
 74
     0
 49
2.5
 74
     0
 49
-2.5
 74
     0
  0
ENDTAB
  0
TABLE
  2
LAYER
  5
2
330
0
100
AcDbSymbolTable
 70
     7
  0
LAYER
  5
10
330
2
100
AcDbSymbolTableRecord
100
AcDbLayerTableRecord
  2
0
 70
     0
 62
     2
  6
CONTINUOUS
370
    -3
390
F
  0
LAYER
  5
3B2
330
2
100
AcDbSymbolTableRecord
100
AcDbLayerTableRecord
  2
Defpoints
 70
     0
 62
   113
  6
CONTINUOUS
290
     0
370
    -3
390
F
  0
LAYER
  5
3B3
330
2
100
AcDbSymbolTableRecord
100
AcDbLayerTableRecord
  2
Dim
 70
     0
 62
     4
  6
CONTINUOUS
370
    -3
390
F
  0
LAYER
  5
487
330
2
100
AcDbSymbolTableRecord
100
AcDbLayerTableRecord
  2
Hach
 70
     0
 62
     6
  6
CONTINUOUS
370
    -3
390
F
  0
LAYER
  5
795
330
2
100
AcDbSymbolTableRecord
100
AcDbLayerTableRecord
  2
waku
 70
     0
 62
     7
  6
CONTINUOUS
370
    -3
390
F
  0
LAYER
  5
796
330
2
100
AcDbSymbolTableRecord
100
AcDbLayerTableRecord
  2
moji
 70
     0
 62
     3
  6
CONTINUOUS
370
    -3
390
F
  0
LAYER
  5
797
330
2
100
AcDbSymbolTableRecord
100
AcDbLayerTableRecord
  2
hyou
 70
     0
 62
     4
  6
CONTINUOUS
370
    -3
390
F
  0
ENDTAB
  0
TABLE
  2
STYLE
  5
3
330
0
100
AcDbSymbolTable
 70
     1
  0
STYLE
  5
11
330
3
100
AcDbSymbolTableRecord
100
AcDbTextStyleTableRecord
  2
STANDARD
 70
     0
 40
0.0
 41
1.0
 50
0.0
 71
     0
 42
0.2
  3
txt
  4
bigfont.shx
  0
ENDTAB
  0
TABLE
  2
VIEW
  5
6
330
0
100
AcDbSymbolTable
 70
     0
  0
ENDTAB
  0
TABLE
  2
UCS
  5
7
330
0
100
AcDbSymbolTable
 70
     0
  0
ENDTAB
  0
TABLE
  2
APPID
  5
9
330
0
100
AcDbSymbolTable
 70
     1
  0
APPID
  5
12
330
9
100
AcDbSymbolTableRecord
100
AcDbRegAppTableRecord
  2
ACAD
 70
     0
  0
ENDTAB
  0
TABLE
  2
DIMSTYLE
  5
A
330
0
100
AcDbSymbolTable
 70
     2
100
AcDbDimStyleTable
 71
     1
340
3B4
  0
DIMSTYLE
105
39E
330
A
100
AcDbSymbolTableRecord
100
AcDbDimStyleTableRecord
  2
Standard
 70
     0
340
11
  0
DIMSTYLE
105
3B4
102
{ACAD_REACTORS
330
3D0
330
3DD
330
3EA
330
3F7
330
404
330
413
330
421
330
470
102
}
330
A
100
AcDbSymbolTableRecord
100
AcDbDimStyleTableRecord
  2
1-1
 70
     0
 40
20.0
 44
0.1
 73
     0
 74
     0
 77
     1
140
0.3
147
0.05
340
11
341
3A0
342
3A0
  0
ENDTAB
  0
TABLE
  2
BLOCK_RECORD
  5
1
330
0
100
AcDbSymbolTable
 70
     8
  0
BLOCK_RECORD
  5
20
330
1
100
AcDbSymbolTableRecord
100
AcDbBlockTableRecord
  2
*Model_Space
340
23
  0
BLOCK_RECORD
  5
1C
330
1
100
AcDbSymbolTableRecord
100
AcDbBlockTableRecord
  2
*Paper_Space
340
1F
  0
BLOCK_RECORD
  5
3A0
330
1
100
AcDbSymbolTableRecord
100
AcDbBlockTableRecord
  2
_Open30
340
0
102
{BLKREFS
331
73E
331
73F
331
747
331
748
331
750
331
751
331
759
331
75A
331
762
331
763
331
76B
331
76C
331
774
331
775
331
7CC
331
7CE
331
7D0
331
7D2
331
7D4
331
7D6
102
}
  0
BLOCK_RECORD
  5
3D1
330
1
100
AcDbSymbolTableRecord
100
AcDbBlockTableRecord
  2
*D1
340
0
  0
BLOCK_RECORD
  5
3DE
330
1
100
AcDbSymbolTableRecord
100
AcDbBlockTableRecord
  2
*D2
340
0
  0
BLOCK_RECORD
  5
3EB
330
1
100
AcDbSymbolTableRecord
100
AcDbBlockTableRecord
  2
*D3
340
0
  0
BLOCK_RECORD
  5
3F8
330
1
100
AcDbSymbolTableRecord
100
AcDbBlockTableRecord
  2
*D4
340
0
  0
BLOCK_RECORD
  5
405
330
1
100
AcDbSymbolTableRecord
100
AcDbBlockTableRecord
  2
*D5
340
0
  0
BLOCK_RECORD
  5
414
330
1
100
AcDbSymbolTableRecord
100
AcDbBlockTableRecord
  2
*D6
340
0
  0
BLOCK_RECORD
  5
422
330
1
100
AcDbSymbolTableRecord
100
AcDbBlockTableRecord
  2
*D7
340
0
  0
ENDTAB
  0
ENDSEC
  0
SECTION
  2
BLOCKS
  0
BLOCK
  5
21
330
20
100
AcDbEntity
  8
0
100
AcDbBlockBegin
  2
*Model_Space
 70
     0
 10
0.0
 20
0.0
 30
0.0
  3
*Model_Space
  1

  0
ENDBLK
  5
22
330
20
100
AcDbEntity
  8
0
100
AcDbBlockEnd
  0
BLOCK
  5
1D
330
1C
100
AcDbEntity
 67
     1
  8
0
100
AcDbBlockBegin
  2
*Paper_Space
 70
     0
 10
0.0
 20
0.0
 30
0.0
  3
*Paper_Space
  1

  0
ENDBLK
  5
1E
330
1C
100
AcDbEntity
 67
     1
  8
0
100
AcDbBlockEnd
  0
BLOCK
  5
3A1
330
3A0
100
AcDbEntity
  8
0
100
AcDbBlockBegin
  2
_Open30
 70
     0
 10
0.0
 20
0.0
 30
0.0
  3
_Open30
  1

  0
LINE
  5
3A2
330
3A0
100
AcDbEntity
  8
0
  6
ByBlock
 62
     0
370
    -2
100
AcDbLine
 10
-1.0
 20
0.26794919
 30
0.0
 11
0.0
 21
0.0
 31
0.0
  0
LINE
  5
3A3
330
3A0
100
AcDbEntity
  8
0
  6
ByBlock
 62
     0
370
    -2
100
AcDbLine
 10
0.0
 20
0.0
 30
0.0
 11
-1.0
 21
-0.26794919
 31
0.0
  0
LINE
  5
3A4
330
3A0
100
AcDbEntity
  8
0
  6
ByBlock
 62
     0
370
    -2
100
AcDbLine
 10
0.0
 20
0.0
 30
0.0
 11
-1.0
 21
0.0
 31
0.0
  0
ENDBLK
  5
3A5
330
3A0
100
AcDbEntity
  8
0
100
AcDbBlockEnd
  0
BLOCK
  5
3DB
330
3D1
100
AcDbEntity
  8
0
100
AcDbBlockBegin
  2
*D1
 70
     1
 10
0.0
 20
0.0
 30
0.0
  3
*D1
  1

  0
LINE
  5
771
330
3D1
100
AcDbEntity
  8
Dim
 62
     0
370
    -2
100
AcDbLine
 10
33.60104899999999
 20
132.7077819999999
 30
0.0
 11
33.60104899999999
 21
184.691692
 31
0.0
  0
LINE
  5
772
330
3D1
100
AcDbEntity
  8
Dim
 62
     0
370
    -2
100
AcDbLine
 10
117.5445899999999
 20
132.7077819999999
 30
0.0
 11
117.5445899999999
 21
184.691692
 31
0.0
  0
LINE
  5
773
330
3D1
100
AcDbEntity
  8
Dim
 62
     0
370
    -2
100
AcDbLine
 10
37.20104899999999
 20
182.691692
 30
0.0
 11
113.9445899999999
 21
182.691692
 31
0.0
  0
INSERT
  5
774
330
3D1
100
AcDbEntity
  8
Dim
 62
     0
370
    -2
100
AcDbBlockReference
  2
_Open30
 10
33.60104899999999
 20
182.691692
 30
0.0
 41
3.599999999999998
 42
3.599999999999998
 43
3.599999999999998
 50
180.0
  0
INSERT
  5
775
330
3D1
100
AcDbEntity
  8
Dim
 62
     0
370
    -2
100
AcDbBlockReference
  2
_Open30
 10
117.5445899999999
 20
182.691692
 30
0.0
 41
3.599999999999998
 42
3.599999999999998
 43
3.599999999999998
  0
MTEXT
  5
776
330
3D1
100
AcDbEntity
  8
Dim
 62
     0
100
AcDbMText
 10
75.57281949999995
 20
186.691692
 30
0.0
 40
6.0
 41
0.0
 71
     5
 72
     1
  1
\A1;Ｇ
 73
     1
 44
1.0
1001
ACAD
1000
MTEXTBEGIN
1070
    73
1070
     1
1070
    44
1040
1.0
1070
    74
1070
     0
1000
MTEXTEND
  0
POINT
  5
777
330
3D1
100
AcDbEntity
  8
Defpoints
 62
     0
100
AcDbPoint
 10
33.60104899999999
 20
131.4577819999999
 30
0.0
  0
POINT
  5
778
330
3D1
100
AcDbEntity
  8
Defpoints
 62
     0
100
AcDbPoint
 10
117.5445899999999
 20
131.4577819999999
 30
0.0
  0
POINT
  5
779
330
3D1
100
AcDbEntity
  8
Defpoints
 62
     0
100
AcDbPoint
 10
117.5445899999999
 20
182.691692
 30
0.0
  0
ENDBLK
  5
3DC
330
3D1
100
AcDbEntity
  8
0
100
AcDbBlockEnd
  0
BLOCK
  5
3E8
330
3DE
100
AcDbEntity
  8
0
100
AcDbBlockBegin
  2
*D2
 70
     1
 10
0.0
 20
0.0
 30
0.0
  3
*D2
  1

  0
LINE
  5
768
330
3DE
100
AcDbEntity
  8
Dim
 62
     0
370
    -2
100
AcDbLine
 10
71.810139
 20
173.241967
 30
0.0
 11
18.705713
 21
173.241967
 31
0.0
  0
LINE
  5
769
330
3DE
100
AcDbEntity
  8
Dim
 62
     0
370
    -2
100
AcDbLine
 10
68.58587499999998
 20
70.0608400000001
 30
0.0
 11
18.70571299999997
 21
70.0608400000001
 31
0.0
  0
LINE
  5
76A
330
3DE
100
AcDbEntity
  8
Dim
 62
     0
370
    -2
100
AcDbLine
 10
20.70571300000001
 20
169.6419670000001
 30
0.0
 11
20.70571299999998
 21
73.66084000000011
 31
0.0
  0
INSERT
  5
76B
330
3DE
100
AcDbEntity
  8
Dim
 62
     0
370
    -2
100
AcDbBlockReference
  2
_Open30
 10
20.70571300000001
 20
173.241967
 30
0.0
 41
3.599999999999998
 42
3.599999999999998
 43
3.599999999999998
 50
90.0
  0
INSERT
  5
76C
330
3DE
100
AcDbEntity
  8
Dim
 62
     0
370
    -2
100
AcDbBlockReference
  2
_Open30
 10
20.70571299999998
 20
70.0608400000001
 30
0.0
 41
3.599999999999998
 42
3.599999999999998
 43
3.599999999999998
 50
270.0
  0
MTEXT
  5
76D
330
3DE
100
AcDbEntity
  8
Dim
 62
     0
100
AcDbMText
 10
16.70571299999997
 20
121.6514035000001
 30
0.0
 40
6.0
 41
0.0
 71
     5
 72
     1
  1
\A1;Ｆ
 11
0.0000000000000001
 21
1.0
 31
0.0
 73
     1
 44
1.0
1001
ACAD
1000
MTEXTBEGIN
1070
    73
1070
     1
1070
    44
1040
1.0
1070
    74
1070
     0
1000
MTEXTEND
  0
POINT
  5
76E
330
3DE
100
AcDbEntity
  8
Defpoints
 62
     0
100
AcDbPoint
 10
73.060139
 20
173.241967
 30
0.0
  0
POINT
  5
76F
330
3DE
100
AcDbEntity
  8
Defpoints
 62
     0
100
AcDbPoint
 10
69.83587499999998
 20
70.0608400000001
 30
0.0
  0
POINT
  5
770
330
3DE
100
AcDbEntity
  8
Defpoints
 62
     0
100
AcDbPoint
 10
20.70571299999998
 20
70.0608400000001
 30
0.0
  0
ENDBLK
  5
3E9
330
3DE
100
AcDbEntity
  8
0
100
AcDbBlockEnd
  0
BLOCK
  5
3F5
330
3EB
100
AcDbEntity
  8
0
100
AcDbBlockBegin
  2
*D3
 70
     1
 10
0.0
 20
0.0
 30
0.0
  3
*D3
  1

  0
LINE
  5
75F
330
3EB
100
AcDbEntity
  8
Dim
 62
     0
370
    -2
100
AcDbLine
 10
187.431161
 20
167.3086510000002
 30
0.0
 11
146.5644019999999
 21
167.3086510000002
 31
0.0
  0
LINE
  5
760
330
3EB
100
AcDbEntity
  8
Dim
 62
     0
370
    -2
100
AcDbLine
 10
155.0086789999995
 20
85.69675099999972
 30
0.0
 11
146.5644019999999
 21
85.69675099999972
 31
0.0
  0
LINE
  5
761
330
3EB
100
AcDbEntity
  8
Dim
 62
     0
370
    -2
100
AcDbLine
 10
148.5644019999999
 20
163.7086510000002
 30
0.0
 11
148.5644019999999
 21
89.29675099999972
 31
0.0
  0
INSERT
  5
762
330
3EB
100
AcDbEntity
  8
Dim
 62
     0
370
    -2
100
AcDbBlockReference
  2
_Open30
 10
148.5644019999999
 20
167.3086510000002
 30
0.0
 41
3.599999999999998
 42
3.599999999999998
 43
3.599999999999998
 50
90.0
  0
INSERT
  5
763
330
3EB
100
AcDbEntity
  8
Dim
 62
     0
370
    -2
100
AcDbBlockReference
  2
_Open30
 10
148.5644019999999
 20
85.69675099999972
 30
0.0
 41
3.599999999999998
 42
3.599999999999998
 43
3.599999999999998
 50
270.0
  0
MTEXT
  5
764
330
3EB
100
AcDbEntity
  8
Dim
 62
     0
100
AcDbMText
 10
144.5644019999999
 20
126.502701
 30
0.0
 40
6.0
 41
0.0
 71
     5
 72
     1
  1
\A1;Ａ
 11
0.0000000000000001
 21
1.0
 31
0.0
 73
     1
 44
1.0
1001
ACAD
1000
MTEXTBEGIN
1070
    73
1070
     1
1070
    44
1040
1.0
1070
    74
1070
     0
1000
MTEXTEND
  0
POINT
  5
765
330
3EB
100
AcDbEntity
  8
Defpoints
 62
     0
100
AcDbPoint
 10
188.681161
 20
167.3086510000002
 30
0.0
  0
POINT
  5
766
330
3EB
100
AcDbEntity
  8
Defpoints
 62
     0
100
AcDbPoint
 10
156.2586789999995
 20
85.69675099999972
 30
0.0
  0
POINT
  5
767
330
3EB
100
AcDbEntity
  8
Defpoints
 62
     0
100
AcDbPoint
 10
148.5644019999999
 20
85.69675099999972
 30
0.0
  0
ENDBLK
  5
3F6
330
3EB
100
AcDbEntity
  8
0
100
AcDbBlockEnd
  0
BLOCK
  5
402
330
3F8
100
AcDbEntity
  8
0
100
AcDbBlockBegin
  2
*D4
 70
     1
 10
0.0
 20
0.0
 30
0.0
  3
*D4
  1

  0
LINE
  5
756
330
3F8
100
AcDbEntity
  8
Dim
 62
     0
370
    -2
100
AcDbLine
 10
156.96699
 20
101.2294280000001
 30
0.0
 11
156.96699
 21
184.691692
 31
0.0
  0
LINE
  5
757
330
3F8
100
AcDbEntity
  8
Dim
 62
     0
370
    -2
100
AcDbLine
 10
204.1847800000001
 20
161.8920470000001
 30
0.0
 11
204.1847800000001
 21
184.691692
 31
0.0
  0
LINE
  5
758
330
3F8
100
AcDbEntity
  8
Dim
 62
     0
370
    -2
100
AcDbLine
 10
160.56699
 20
182.691692
 30
0.0
 11
200.5847800000001
 21
182.691692
 31
0.0
  0
INSERT
  5
759
330
3F8
100
AcDbEntity
  8
Dim
 62
     0
370
    -2
100
AcDbBlockReference
  2
_Open30
 10
156.96699
 20
182.691692
 30
0.0
 41
3.599999999999998
 42
3.599999999999998
 43
3.599999999999998
 50
180.0
  0
INSERT
  5
75A
330
3F8
100
AcDbEntity
  8
Dim
 62
     0
370
    -2
100
AcDbBlockReference
  2
_Open30
 10
204.1847800000001
 20
182.691692
 30
0.0
 41
3.599999999999998
 42
3.599999999999998
 43
3.599999999999998
  0
MTEXT
  5
75B
330
3F8
100
AcDbEntity
  8
Dim
 62
     0
100
AcDbMText
 10
180.575885
 20
186.691692
 30
0.0
 40
6.0
 41
0.0
 71
     5
 72
     1
  1
\A1;Ｃ
 73
     1
 44
1.0
1001
ACAD
1000
MTEXTBEGIN
1070
    73
1070
     1
1070
    44
1040
1.0
1070
    74
1070
     0
1000
MTEXTEND
  0
POINT
  5
75C
330
3F8
100
AcDbEntity
  8
Defpoints
 62
     0
100
AcDbPoint
 10
156.96699
 20
99.97942800000013
 30
0.0
  0
POINT
  5
75D
330
3F8
100
AcDbEntity
  8
Defpoints
 62
     0
100
AcDbPoint
 10
204.1847800000001
 20
160.6420470000001
 30
0.0
  0
POINT
  5
75E
330
3F8
100
AcDbEntity
  8
Defpoints
 62
     0
100
AcDbPoint
 10
204.1847800000001
 20
182.691692
 30
0.0
  0
ENDBLK
  5
403
330
3F8
100
AcDbEntity
  8
0
100
AcDbBlockEnd
  0
BLOCK
  5
411
330
405
100
AcDbEntity
  8
0
100
AcDbBlockBegin
  2
*D5
 70
     1
 10
0.0
 20
0.0
 30
0.0
  3
*D5
  1

  0
LINE
  5
74D
330
405
100
AcDbEntity
  8
Dim
 62
     0
370
    -2
100
AcDbLine
 10
204.1847800000001
 20
161.8920470000001
 30
0.0
 11
204.1847800000001
 21
184.691692
 31
0.0
  0
LINE
  5
74E
330
405
100
AcDbEntity
  8
Dim
 62
     0
370
    -2
100
AcDbLine
 10
236.2462159999998
 20
136.2638100000002
 30
0.0
 11
236.2462159999998
 21
184.691692
 31
0.0
  0
LINE
  5
74F
330
405
100
AcDbEntity
  8
Dim
 62
     0
370
    -2
100
AcDbLine
 10
207.78478
 20
182.691692
 30
0.0
 11
232.6462159999998
 21
182.691692
 31
0.0
  0
INSERT
  5
750
330
405
100
AcDbEntity
  8
Dim
 62
     0
370
    -2
100
AcDbBlockReference
  2
_Open30
 10
204.1847800000001
 20
182.691692
 30
0.0
 41
3.599999999999998
 42
3.599999999999998
 43
3.599999999999998
 50
180.0
  0
INSERT
  5
751
330
405
100
AcDbEntity
  8
Dim
 62
     0
370
    -2
100
AcDbBlockReference
  2
_Open30
 10
236.2462159999998
 20
182.691692
 30
0.0
 41
3.599999999999998
 42
3.599999999999998
 43
3.599999999999998
  0
MTEXT
  5
752
330
405
100
AcDbEntity
  8
Dim
 62
     0
100
AcDbMText
 10
220.2154979999999
 20
186.691692
 30
0.0
 40
6.0
 41
0.0
 71
     5
 72
     1
  1
\A1;Ｄ
 73
     1
 44
1.0
1001
ACAD
1000
MTEXTBEGIN
1070
    73
1070
     1
1070
    44
1040
1.0
1070
    74
1070
     0
1000
MTEXTEND
  0
POINT
  5
753
330
405
100
AcDbEntity
  8
Defpoints
 62
     0
100
AcDbPoint
 10
204.1847800000001
 20
160.6420470000001
 30
0.0
  0
POINT
  5
754
330
405
100
AcDbEntity
  8
Defpoints
 62
     0
100
AcDbPoint
 10
236.2462159999998
 20
135.0138100000002
 30
0.0
  0
POINT
  5
755
330
405
100
AcDbEntity
  8
Defpoints
 62
     0
100
AcDbPoint
 10
236.2462159999998
 20
182.691692
 30
0.0
  0
ENDBLK
  5
412
330
405
100
AcDbEntity
  8
0
100
AcDbBlockEnd
  0
BLOCK
  5
41F
330
414
100
AcDbEntity
  8
0
100
AcDbBlockBegin
  2
*D6
 70
     1
 10
0.0
 20
0.0
 30
0.0
  3
*D6
  1

  0
LINE
  5
744
330
414
100
AcDbEntity
  8
Dim
 62
     0
370
    -2
100
AcDbLine
 10
204.1847800000001
 20
161.8920470000001
 30
0.0
 11
204.1847800000001
 21
177.3460896364645
 31
0.0
  0
LINE
  5
745
330
414
100
AcDbEntity
  8
Dim
 62
     0
370
    -2
100
AcDbLine
 10
231.582935
 20
159.231572
 30
0.0
 11
231.582935
 21
177.3460896364645
 31
0.0
  0
LINE
  5
746
330
414
100
AcDbEntity
  8
Dim
 62
     0
370
    -2
100
AcDbLine
 10
207.78478
 20
175.3460896364645
 30
0.0
 11
227.9829349999999
 21
175.3460896364645
 31
0.0
  0
INSERT
  5
747
330
414
100
AcDbEntity
  8
Dim
 62
     0
370
    -2
100
AcDbBlockReference
  2
_Open30
 10
204.1847800000001
 20
175.3460896364645
 30
0.0
 41
3.599999999999998
 42
3.599999999999998
 43
3.599999999999998
 50
180.0
  0
INSERT
  5
748
330
414
100
AcDbEntity
  8
Dim
 62
     0
370
    -2
100
AcDbBlockReference
  2
_Open30
 10
231.582935
 20
175.3460896364645
 30
0.0
 41
3.599999999999998
 42
3.599999999999998
 43
3.599999999999998
  0
MTEXT
  5
749
330
414
100
AcDbEntity
  8
Dim
 62
     0
100
AcDbMText
 10
217.8838575
 20
179.3460896364645
 30
0.0
 40
6.0
 41
0.0
 71
     5
 72
     1
  1
\A1;Ｅ
 73
     1
 44
1.0
1001
ACAD
1000
MTEXTBEGIN
1070
    73
1070
     1
1070
    44
1040
1.0
1070
    74
1070
     0
1000
MTEXTEND
  0
POINT
  5
74A
330
414
100
AcDbEntity
  8
Defpoints
 62
     0
100
AcDbPoint
 10
204.1847800000001
 20
160.6420470000001
 30
0.0
  0
POINT
  5
74B
330
414
100
AcDbEntity
  8
Defpoints
 62
     0
100
AcDbPoint
 10
231.582935
 20
157.981572
 30
0.0
  0
POINT
  5
74C
330
414
100
AcDbEntity
  8
Defpoints
 62
     0
100
AcDbPoint
 10
231.582935
 20
175.3460896364645
 30
0.0
  0
ENDBLK
  5
420
330
414
100
AcDbEntity
  8
0
100
AcDbBlockEnd
  0
BLOCK
  5
42C
330
422
100
AcDbEntity
  8
0
100
AcDbBlockBegin
  2
*D7
 70
     1
 10
0.0
 20
0.0
 30
0.0
  3
*D7
  1

  0
LINE
  5
73B
330
422
100
AcDbEntity
  8
Dim
 62
     0
370
    -2
100
AcDbLine
 10
232.3995419999999
 20
159.438847
 30
0.0
 11
248.2244173831258
 21
159.438847
 31
0.0
  0
LINE
  5
73C
330
422
100
AcDbEntity
  8
Dim
 62
     0
370
    -2
100
AcDbLine
 10
232.3995420000001
 20
102.8934620000003
 30
0.0
 11
248.2244173831258
 21
102.8934620000003
 31
0.0
  0
LINE
  5
73D
330
422
100
AcDbEntity
  8
Dim
 62
     0
370
    -2
100
AcDbLine
 10
246.2244173831258
 20
155.838847
 30
0.0
 11
246.2244173831258
 21
106.4934620000003
 31
0.0
  0
INSERT
  5
73E
330
422
100
AcDbEntity
  8
Dim
 62
     0
370
    -2
100
AcDbBlockReference
  2
_Open30
 10
246.2244173831258
 20
159.438847
 30
0.0
 41
3.599999999999998
 42
3.599999999999998
 43
3.599999999999998
 50
90.0
  0
INSERT
  5
73F
330
422
100
AcDbEntity
  8
Dim
 62
     0
370
    -2
100
AcDbBlockReference
  2
_Open30
 10
246.2244173831258
 20
102.8934620000003
 30
0.0
 41
3.599999999999998
 42
3.599999999999998
 43
3.599999999999998
 50
270.0
  0
MTEXT
  5
740
330
422
100
AcDbEntity
  8
Dim
 62
     0
100
AcDbMText
 10
242.2244173831258
 20
131.1661545000002
 30
0.0
 40
6.0
 41
0.0
 71
     5
 72
     1
  1
\A1;φ Ｂ
 11
0.0000000000000001
 21
1.0
 31
0.0
 73
     1
 44
1.0
1001
ACAD
1000
MTEXTBEGIN
1070
    73
1070
     1
1070
    44
1040
1.0
1070
    74
1070
     0
1000
MTEXTEND
  0
POINT
  5
741
330
422
100
AcDbEntity
  8
Defpoints
 62
     0
100
AcDbPoint
 10
231.1495419999999
 20
159.438847
 30
0.0
  0
POINT
  5
742
330
422
100
AcDbEntity
  8
Defpoints
 62
     0
100
AcDbPoint
 10
231.149542
 20
102.8934620000003
 30
0.0
  0
POINT
  5
743
330
422
100
AcDbEntity
  8
Defpoints
 62
     0
100
AcDbPoint
 10
246.2244173831258
 20
102.8934620000003
 30
0.0
  0
ENDBLK
  5
42D
330
422
100
AcDbEntity
  8
0
100
AcDbBlockEnd
  0
ENDSEC
  0
SECTION
  2
ENTITIES
  0
LINE
  5
1FD
330
20
100
AcDbEntity
  8
hyou
  6
Continuous
100
AcDbLine
 10
124.0470349999999
 20
33.02399700000009
 30
0.0
 11
2.429135999999981
 21
33.02399700000009
 31
0.0
  0
LINE
  5
1FE
330
20
100
AcDbEntity
  8
hyou
  6
Continuous
100
AcDbLine
 10
2.429135999999981
 20
41.71562900000021
 30
0.0
 11
124.0470349999999
 21
41.71562900000009
 31
0.0
  0
LINE
  5
1FF
330
20
100
AcDbEntity
  8
hyou
  6
Continuous
100
AcDbLine
 10
141.3331459999998
 20
50.4093270000001
 30
0.0
 11
2.429135999999981
 21
50.4093270000001
 31
0.0
  0
LINE
  5
203
330
20
100
AcDbEntity
  8
hyou
  6
Continuous
100
AcDbLine
 10
43.45763899999997
 20
24.33236500000004
 30
0.0
 11
43.45763899999997
 21
59.10130300000012
 31
0.0
  0
LINE
  5
204
330
20
100
AcDbEntity
  8
hyou
  6
Continuous
100
AcDbLine
 10
112.8304929999999
 20
24.33236500000004
 30
0.0
 11
112.8304929999999
 21
59.10130300000012
 31
0.0
  0
LINE
  5
205
330
20
100
AcDbEntity
  8
hyou
  6
Continuous
100
AcDbLine
 10
66.99160299999997
 20
24.33236500000004
 30
0.0
 11
66.99160299999997
 21
59.10130300000012
 31
0.0
  0
LINE
  5
206
330
20
100
AcDbEntity
  8
hyou
  6
Continuous
100
AcDbLine
 10
89.82242299999994
 20
24.33236500000004
 30
0.0
 11
89.82242299999994
 21
59.10130300000012
 31
0.0
  0
LINE
  5
207
330
20
100
AcDbEntity
  8
hyou
  6
Continuous
100
AcDbLine
 10
55.38524799999994
 20
24.33236500000004
 30
0.0
 11
55.38524799999994
 21
59.10130300000012
 31
0.0
  0
LINE
  5
208
330
20
100
AcDbEntity
  8
hyou
  6
Continuous
100
AcDbLine
 10
78.48599199999995
 20
24.33236500000004
 30
0.0
 11
78.48599199999995
 21
59.10130300000012
 31
0.0
  0
LINE
  5
209
330
20
100
AcDbEntity
  8
hyou
  6
Continuous
100
AcDbLine
 10
101.0556729999999
 20
24.33236500000004
 30
0.0
 11
101.0556729999999
 21
59.10130300000012
 31
0.0
  0
LINE
  5
20A
330
20
100
AcDbEntity
  8
hyou
  6
Continuous
100
AcDbLine
 10
141.4285749999995
 20
50.4093270000001
 30
0.0
 11
141.4285749999995
 21
59.10130300000012
 31
0.0
  0
LINE
  5
20B
330
20
100
AcDbEntity
  8
hyou
  6
Continuous
100
AcDbLine
 10
43.45763899999997
 20
50.4093270000001
 30
0.0
 11
2.429135999999981
 21
59.10130300000012
 31
0.0
  0
LINE
  5
20D
330
20
100
AcDbEntity
  8
hyou
  6
Continuous
100
AcDbLine
 10
215.3424109999999
 20
52.85810000000004
 30
0.0
 11
215.3424109999999
 21
82.37567900000001
 31
0.0
  0
LINE
  5
20E
330
20
100
AcDbEntity
  8
hyou
  6
Continuous
100
AcDbLine
 10
236.4215719999999
 20
52.85810000000009
 30
0.0
 11
236.4215719999998
 21
82.37567900000001
 31
0.0
  0
LINE
  5
20F
330
20
100
AcDbEntity
  8
hyou
  6
Continuous
100
AcDbLine
 10
263.938239
 20
52.85810000000009
 30
0.0
 11
263.9382390000001
 21
82.37567900000001
 31
0.0
  0
LINE
  5
210
330
20
100
AcDbEntity
  8
hyou
  6
Continuous
100
AcDbLine
 10
275.3818119999999
 20
76.4831870000001
 30
0.0
 11
208.6606479999999
 21
76.4831870000001
 31
0.0
  0
LINE
  5
211
330
20
100
AcDbEntity
  8
hyou
  6
Continuous
100
AcDbLine
 10
275.3818119999999
 20
70.54453200000003
 30
0.0
 11
208.6606479999999
 21
70.54453200000003
 31
0.0
  0
LINE
  5
212
330
20
100
AcDbEntity
  8
hyou
  6
Continuous
100
AcDbLine
 10
275.3818119999999
 20
64.5473090000001
 30
0.0
 11
208.6606479999999
 21
64.54730900000004
 31
0.0
  0
LINE
  5
213
330
20
100
AcDbEntity
  8
hyou
  6
Continuous
100
AcDbLine
 10
275.3818119999999
 20
58.5500870000001
 30
0.0
 11
208.6606479999999
 21
58.5500870000001
 31
0.0
  0
LINE
  5
214
330
20
100
AcDbEntity
  8
0
100
AcDbLine
 10
119.2495679999999
 20
85.69675099999972
 30
0.0
 11
31.89503800000001
 21
85.69675099999972
 31
0.0
  0
LINE
  5
215
330
20
100
AcDbEntity
  8
0
100
AcDbLine
 10
33.60104899999999
 20
131.1663269999999
 30
0.0
 11
33.60104899999999
 21
85.69675099999972
 31
0.0
  0
LINE
  5
216
330
20
100
AcDbEntity
  8
0
100
AcDbLine
 10
34.18361499999999
 20
131.1663269999999
 30
0.0
 11
34.18361499999999
 21
85.69675099999972
 31
0.0
  0
LINE
  5
217
330
20
100
AcDbEntity
  8
0
100
AcDbLine
 10
111.7147999999999
 20
131.1663269999999
 30
0.0
 11
111.7147999999999
 21
85.69675099999972
 31
0.0
  0
LINE
  5
218
330
20
100
AcDbEntity
  8
0
100
AcDbLine
 10
39.430151
 20
131.1663269999999
 30
0.0
 11
39.430151
 21
85.69675099999972
 31
0.0
  0
LINE
  5
219
330
20
100
AcDbEntity
  8
0
100
AcDbLine
 10
117.5445899999999
 20
131.1663269999999
 30
0.0
 11
117.5445899999999
 21
85.69675099999972
 31
0.0
  0
LINE
  5
21A
330
20
100
AcDbEntity
  8
0
100
AcDbLine
 10
116.9609909999999
 20
131.1663269999999
 30
0.0
 11
116.9609909999999
 21
85.69675099999972
 31
0.0
  0
LINE
  5
21B
330
20
100
AcDbEntity
  8
0
  6
CENTER2
100
AcDbLine
 10
25.25806199999999
 20
131.1663269999999
 30
0.0
 11
241.1513439999999
 21
131.1663269999999
 31
0.0
  0
LINE
  5
223
330
20
100
AcDbEntity
  8
0
100
AcDbLine
 10
118.1271559999999
 20
85.69675099999972
 30
0.0
 11
118.1271559999999
 21
80.20664599999973
 31
0.0
  0
LINE
  5
224
330
20
100
AcDbEntity
  8
0
100
AcDbLine
 10
33.01779500000001
 20
85.69675099999972
 30
0.0
 11
33.01779500000001
 21
80.20664599999973
 31
0.0
  0
LINE
  5
225
330
20
100
AcDbEntity
  8
0
100
AcDbLine
 10
120.196969
 20
84.53161900000003
 30
0.0
 11
120.196969
 21
78.97674700000002
 31
0.0
  0
LINE
  5
226
330
20
100
AcDbEntity
  8
0
100
AcDbLine
 10
120.4153889999999
 20
84.53161900000003
 30
0.0
 11
120.4153889999999
 21
79.19930100000001
 31
0.0
  0
LINE
  5
227
330
20
100
AcDbEntity
  8
0
100
AcDbLine
 10
30.947981
 20
84.53161900000003
 30
0.0
 11
30.947981
 21
78.97674700000002
 31
0.0
  0
LINE
  5
228
330
20
100
AcDbEntity
  8
0
100
AcDbLine
 10
30.72921800000001
 20
84.53161900000003
 30
0.0
 11
30.72921800000001
 21
79.19930100000001
 31
0.0
  0
LINE
  5
229
330
20
100
AcDbEntity
  8
0
  6
CENTER2
100
AcDbLine
 10
75.57230299999997
 20
182.2488250000001
 30
0.0
 11
75.57230299999997
 21
59.10130300000012
 31
0.0
  0
LINE
  5
22B
330
20
100
AcDbEntity
  8
0
  6
CENTER2
100
AcDbLine
 10
114.0464399999999
 20
124.3023180000001
 30
0.0
 11
114.0464399999999
 21
128.7037720000001
 31
0.0
  0
LINE
  5
22C
330
20
100
AcDbEntity
  8
0
  6
CENTER2
100
AcDbLine
 10
116.1748199999999
 20
126.5030450000001
 30
0.0
 11
111.9180599999999
 21
126.5030450000001
 31
0.0
  0
LINE
  5
22D
330
20
100
AcDbEntity
  8
0
  6
CENTER2
100
AcDbLine
 10
34.97013
 20
126.5030450000001
 30
0.0
 11
39.22654599999999
 21
126.5030450000001
 31
0.0
  0
LINE
  5
22E
330
20
100
AcDbEntity
  8
0
  6
CENTER2
100
AcDbLine
 10
37.09816600000001
 20
124.3023180000001
 30
0.0
 11
37.09816600000001
 21
128.7037720000001
 31
0.0
  0
LINE
  5
22F
330
20
100
AcDbEntity
  8
0
100
AcDbLine
 10
75.57230299999997
 20
177.8671800000002
 30
0.0
 11
75.57230299999997
 21
174.952457
 31
0.0
  0
CIRCLE
  5
230
330
20
100
AcDbEntity
  8
0
100
AcDbCircle
 10
114.0464399999999
 20
126.5030450000001
 30
0.0
 40
1.224042
  0
CIRCLE
  5
231
330
20
100
AcDbEntity
  8
0
100
AcDbCircle
 10
37.098338
 20
126.5030450000001
 30
0.0
 40
1.224215
  0
LINE
  5
232
330
20
100
AcDbEntity
  8
0
100
AcDbLine
 10
231.582935
 20
157.981572
 30
0.0
 11
231.582935
 21
143.5610910000001
 31
0.0
  0
LINE
  5
233
330
20
100
AcDbEntity
  8
0
100
AcDbLine
 10
229.834205
 20
102.8934620000002
 30
0.0
 11
206.2249659999999
 21
102.8934620000002
 31
0.0
  0
LINE
  5
234
330
20
100
AcDbEntity
  8
0
100
AcDbLine
 10
201.5616839999998
 20
127.6688660000001
 30
0.0
 11
201.5616839999998
 21
134.3020530000002
 31
0.0
  0
LINE
  5
235
330
20
100
AcDbEntity
  8
0
100
AcDbLine
 10
200.6866299999999
 20
94.14963700000004
 30
0.0
 11
200.6866299999999
 21
85.98820600000001
 31
0.0
  0
LINE
  5
236
330
20
100
AcDbEntity
  8
0
100
AcDbLine
 10
229.7039792671409
 20
159.438847
 30
0.0
 11
206.2249659999999
 21
159.438847
 31
0.0
  0
LINE
  5
237
330
20
100
AcDbEntity
  8
0
100
AcDbLine
 10
200.3951750000001
 20
168.1830160000002
 30
0.0
 11
200.3951750000001
 21
171.80519
 31
0.0
  0
LINE
  5
238
330
20
100
AcDbEntity
  8
0
100
AcDbLine
 10
231.1495419999999
 20
102.8934620000002
 30
0.0
 11
243.6455929999999
 21
102.8934620000002
 31
0.0
  0
LINE
  5
23F
330
20
100
AcDbEntity
  8
0
100
AcDbLine
 10
199.5214989999999
 20
167.3086510000002
 30
0.0
 11
193.485692
 21
167.3086510000002
 31
0.0
  0
LINE
  5
240
330
20
100
AcDbEntity
  8
0
100
AcDbLine
 10
202.4360499999999
 20
163.519735
 30
0.0
 11
202.43605
 21
159.1478049389344
 31
0.0
  0
LINE
  5
241
330
20
100
AcDbEntity
  8
0
100
AcDbLine
 10
202.1439049999999
 20
171.7690160000001
 30
0.0
 11
201.2702289999997
 21
171.7690160000001
 31
0.0
  0
LINE
  5
242
330
20
100
AcDbEntity
  8
0
100
AcDbLine
 10
204.1847800000001
 20
101.690951
 30
0.0
 11
204.18478
 21
74.28008557678584
 31
0.0
  0
LINE
  5
243
330
20
100
AcDbEntity
  8
0
100
AcDbLine
 10
203.310415
 20
85.69675099999972
 30
0.0
 11
156.96699
 21
85.69675099999972
 31
0.0
  0
LINE
  5
244
330
20
100
AcDbEntity
  8
0
100
AcDbLine
 10
201.8531390000001
 20
95.31614599999992
 30
0.0
 11
203.0189599999999
 21
95.31614599999986
 31
0.0
  0
LINE
  5
245
330
20
100
AcDbEntity
  8
0
100
AcDbLine
 10
156.96699
 20
99.68797200000004
 30
0.0
 11
156.96699
 21
85.69675099999972
 31
0.0
  0
LINE
  5
24D
330
20
100
AcDbEntity
  8
0
100
AcDbLine
 10
203.9287584226699
 20
73.66191708676004
 30
0.0
 11
200.2249869999999
 21
69.9574870000001
 31
0.0
  0
LINE
  5
24E
330
20
100
AcDbEntity
  8
0
100
AcDbLine
 10
199.606937
 20
70.57622700000002
 30
0.0
 11
200.2249869999999
 21
69.9574870000001
 31
0.0
  0
LINE
  5
24F
330
20
100
AcDbEntity
  8
0
100
AcDbLine
 10
202.4360499999999
 20
164.3941
 30
0.0
 11
203.0189599999999
 21
164.3941
 31
0.0
  0
LINE
  5
250
330
20
100
AcDbEntity
  8
0
100
AcDbLine
 10
204.1847800000001
 20
173.138097
 30
0.0
 11
204.1847800000001
 21
160.6420470000001
 31
0.0
  0
LINE
  5
251
330
20
100
AcDbEntity
  8
0
100
AcDbLine
 10
201.1372489999999
 20
172.669392
 30
0.0
 11
204.1847800000001
 21
173.138097
 31
0.0
  0
LINE
  5
258
330
20
100
AcDbEntity
  8
0
100
AcDbLine
 10
157.8406669999999
 20
99.68797200000004
 30
0.0
 11
157.8406669999999
 21
85.69675099999972
 31
0.0
  0
LINE
  5
259
330
20
100
AcDbEntity
  8
0
100
AcDbLine
 10
199.5214989999999
 20
166.434286
 30
0.0
 11
193.485692
 21
166.434286
 31
0.0
  0
LINE
  5
25A
330
20
100
AcDbEntity
  8
0
100
AcDbLine
 10
201.2702289999997
 20
171.80519
 30
0.0
 11
204.1847800000001
 21
172.253397
 31
0.0
  0
LINE
  5
25B
330
20
100
AcDbEntity
  8
0
100
AcDbLine
 10
201.2702289999997
 20
168.1830160000002
 30
0.0
 11
201.2702289999997
 21
171.80519
 31
0.0
  0
LINE
  5
25C
330
20
100
AcDbEntity
  8
0
100
AcDbLine
 10
202.1439049999999
 20
168.1830160000002
 30
0.0
 11
202.1439049999999
 21
171.7690160000001
 31
0.0
  0
LINE
  5
25D
330
20
100
AcDbEntity
  8
0
100
AcDbLine
 10
203.8933249999999
 20
163.519735
 30
0.0
 11
202.4360499999999
 21
163.519735
 31
0.0
  0
LINE
  5
25E
330
20
100
AcDbEntity
  8
0
100
AcDbLine
 10
203.0189599999999
 20
164.3941
 30
0.0
 11
203.0189599999999
 21
166.434286
 31
0.0
  0
LINE
  5
25F
330
20
100
AcDbEntity
  8
0
100
AcDbLine
 10
203.8933249999999
 20
164.3941
 30
0.0
 11
203.8933249999999
 21
166.434286
 31
0.0
  0
LINE
  5
260
330
20
100
AcDbEntity
  8
0
100
AcDbLine
 10
203.8933249999999
 20
161.770832
 30
0.0
 11
203.8933249999999
 21
163.519735
 31
0.0
  0
LINE
  5
262
330
20
100
AcDbEntity
  8
0
100
AcDbLine
 10
230.70857
 20
157.690117
 30
0.0
 11
230.70857
 21
145.0817560000001
 31
0.0
  0
LINE
  5
263
330
20
100
AcDbEntity
  8
0
100
AcDbLine
 10
229.834205
 20
103.7681709999999
 30
0.0
 11
206.2249659999999
 21
103.7681709999999
 31
0.0
  0
LINE
  5
264
330
20
100
AcDbEntity
  8
0
100
AcDbLine
 10
202.4360499999999
 20
97.93855300000004
 30
0.0
 11
203.0189599999999
 21
97.93855300000004
 31
0.0
  0
LINE
  5
265
330
20
100
AcDbEntity
  8
0
100
AcDbLine
 10
203.8933249999999
 20
98.81360700000001
 30
0.0
 11
202.4360499999999
 21
98.81360700000001
 31
0.0
  0
LINE
  5
266
330
20
100
AcDbEntity
  8
0
100
AcDbLine
 10
203.0189599999999
 20
97.93855300000004
 30
0.0
 11
203.0189599999999
 21
95.31614599999986
 31
0.0
  0
LINE
  5
267
330
20
100
AcDbEntity
  8
0
100
AcDbLine
 10
203.8933249999999
 20
100.5616490000001
 30
0.0
 11
203.8933249999999
 21
98.81360700000001
 31
0.0
  0
LINE
  5
268
330
20
100
AcDbEntity
  8
0
100
AcDbLine
 10
201.5616839999998
 20
94.14963700000004
 30
0.0
 11
201.5616839999998
 21
86.57180500000004
 31
0.0
  0
LINE
  5
269
330
20
100
AcDbEntity
  8
0
100
AcDbLine
 10
201.8062005325995
 20
94.44109200000021
 30
0.0
 11
202.790204999996
 21
94.44109200000026
 31
0.0
  0
LINE
  5
26A
330
20
100
AcDbEntity
  8
0
100
AcDbLine
 10
203.8933249999999
 20
97.93855300000004
 30
0.0
 11
203.8933249999999
 21
95.49115700000005
 31
0.0
  0
LINE
  5
26B
330
20
100
AcDbEntity
  8
0
100
AcDbLine
 10
203.8933249999999
 20
86.57180500000004
 30
0.0
 11
201.5616839999998
 21
86.57180500000004
 31
0.0
  0
LINE
  5
26C
330
20
100
AcDbEntity
  8
0
100
AcDbLine
 10
203.310415
 20
85.69675099999972
 30
0.0
 11
203.3104150000001
 21
74.28039300000015
 31
0.0
  0
LINE
  5
26D
330
20
100
AcDbEntity
  8
0
100
AcDbLine
 10
203.3104150000001
 20
74.28039300000015
 30
0.0
 11
199.606937
 21
70.57622700000002
 31
0.0
  0
LINE
  5
26E
330
20
100
AcDbEntity
  8
0
100
AcDbLine
 10
199.606937
 20
84.53161900000003
 30
0.0
 11
199.606937
 21
70.57622700000002
 31
0.0
  0
LINE
  5
26F
330
20
100
AcDbEntity
  8
0
100
AcDbLine
 10
198.0993629999999
 20
154.448626
 30
0.0
 11
197.4806239999999
 21
155.0670209999999
 31
0.0
  0
LINE
  5
270
330
20
100
AcDbEntity
  8
0
100
AcDbLine
 10
202.1799995928817
 20
158.5296076153381
 30
0.0
 11
198.0993629999999
 21
154.448626
 31
0.0
  0
LINE
  5
271
330
20
100
AcDbEntity
  8
0
100
AcDbLine
 10
201.5616839999998
 20
151.2781050000001
 30
0.0
 11
197.4806239999999
 21
147.1970450000002
 31
0.0
  0
LINE
  5
272
330
20
100
AcDbEntity
  8
0
100
AcDbLine
 10
197.4806239999999
 20
147.1970450000002
 30
0.0
 11
198.0993629999999
 21
146.5789950000001
 31
0.0
  0
LINE
  5
273
330
20
100
AcDbEntity
  8
0
100
AcDbLine
 10
202.1799995171355
 20
150.6599755395204
 30
0.0
 11
198.0993629999999
 21
146.5789950000001
 31
0.0
  0
LINE
  5
274
330
20
100
AcDbEntity
  8
0
100
AcDbLine
 10
201.5616839999998
 20
159.147392
 30
0.0
 11
197.4806239999999
 21
155.0670209999999
 31
0.0
  0
LINE
  5
275
330
20
100
AcDbEntity
  8
0
100
AcDbLine
 10
201.5616839999998
 20
153.318291
 30
0.0
 11
202.4360499999999
 21
153.318291
 31
0.0
  0
LINE
  5
276
330
20
100
AcDbEntity
  8
0
100
AcDbLine
 10
201.5616839999998
 20
143.408129
 30
0.0
 11
197.4806239999999
 21
139.327758
 31
0.0
  0
LINE
  5
277
330
20
100
AcDbEntity
  8
0
100
AcDbLine
 10
197.4806239999999
 20
139.327758
 30
0.0
 11
198.0993629999999
 21
138.7093630000002
 31
0.0
  0
LINE
  5
278
330
20
100
AcDbEntity
  8
0
100
AcDbLine
 10
202.1799995928817
 20
142.7903446153381
 30
0.0
 11
198.0993629999999
 21
138.7093630000002
 31
0.0
  0
LINE
  5
279
330
20
100
AcDbEntity
  8
0
100
AcDbLine
 10
201.5616839999998
 20
145.4483150000001
 30
0.0
 11
202.4360499999999
 21
145.4483150000001
 31
0.0
  0
LINE
  5
27A
330
20
100
AcDbEntity
  8
0
100
AcDbLine
 10
201.5616839999998
 20
135.5388420000001
 30
0.0
 11
197.4806239999999
 21
131.4577819999999
 31
0.0
  0
LINE
  5
27B
330
20
100
AcDbEntity
  8
0
100
AcDbLine
 10
197.4806239999999
 20
131.4577819999999
 30
0.0
 11
198.0993629999999
 21
130.839732
 31
0.0
  0
LINE
  5
27C
330
20
100
AcDbEntity
  8
0
100
AcDbLine
 10
202.1799734587913
 20
134.9203424587915
 30
0.0
 11
198.0993629999999
 21
130.839732
 31
0.0
  0
LINE
  5
27D
330
20
100
AcDbEntity
  8
0
100
AcDbLine
 10
201.5616839999998
 20
137.5786830000001
 30
0.0
 11
202.4360499999999
 21
137.5786830000001
 31
0.0
  0
LINE
  5
27E
330
20
100
AcDbEntity
  8
0
100
AcDbLine
 10
201.5616839999998
 20
127.6688660000001
 30
0.0
 11
197.4806239999999
 21
123.58815
 31
0.0
  0
LINE
  5
27F
330
20
100
AcDbEntity
  8
0
100
AcDbLine
 10
197.4806239999999
 20
123.58815
 30
0.0
 11
198.0993629999999
 21
122.9697550000001
 31
0.0
  0
LINE
  5
280
330
20
100
AcDbEntity
  8
0
100
AcDbLine
 10
202.1799995928817
 20
127.0507366153381
 30
0.0
 11
198.0993629999999
 21
122.9697550000001
 31
0.0
  0
LINE
  5
281
330
20
100
AcDbEntity
  8
0
100
AcDbLine
 10
201.5616839999998
 20
129.709051
 30
0.0
 11
202.4360499999999
 21
129.709051
 31
0.0
  0
LINE
  5
282
330
20
100
AcDbEntity
  8
0
100
AcDbLine
 10
201.5616839999998
 20
119.79889
 30
0.0
 11
197.4806239999999
 21
115.718519
 31
0.0
  0
LINE
  5
283
330
20
100
AcDbEntity
  8
0
100
AcDbLine
 10
197.4806239999999
 20
115.718519
 30
0.0
 11
198.0993629999999
 21
115.1004680000001
 31
0.0
  0
LINE
  5
284
330
20
100
AcDbEntity
  8
0
100
AcDbLine
 10
202.1799734587913
 20
119.1810784587916
 30
0.0
 11
198.0993629999999
 21
115.1004680000001
 31
0.0
  0
LINE
  5
285
330
20
100
AcDbEntity
  8
0
100
AcDbLine
 10
201.5616839999998
 20
121.83942
 30
0.0
 11
202.4360499999999
 21
121.83942
 31
0.0
  0
LINE
  5
286
330
20
100
AcDbEntity
  8
0
100
AcDbLine
 10
201.5616839999998
 20
111.9292580000001
 30
0.0
 11
197.4806239999999
 21
107.8485420000002
 31
0.0
  0
LINE
  5
287
330
20
100
AcDbEntity
  8
0
100
AcDbLine
 10
197.4806239999999
 20
107.8485420000002
 30
0.0
 11
198.0993629999999
 21
107.230492
 31
0.0
  0
LINE
  5
288
330
20
100
AcDbEntity
  8
0
100
AcDbLine
 10
202.1799995928817
 20
111.3114736153382
 30
0.0
 11
198.0993629999999
 21
107.230492
 31
0.0
  0
LINE
  5
289
330
20
100
AcDbEntity
  8
0
100
AcDbLine
 10
201.5616839999998
 20
113.969788
 30
0.0
 11
202.4360499999999
 21
113.969788
 31
0.0
  0
LINE
  5
28A
330
20
100
AcDbEntity
  8
0
100
AcDbLine
 10
201.5616839999998
 20
159.147392
 30
0.0
 11
201.5616839999998
 21
163.519735
 31
0.0
  0
LINE
  5
28B
330
20
100
AcDbEntity
  8
0
100
AcDbLine
 10
201.5616839999998
 20
151.2781050000001
 30
0.0
 11
201.5616839999998
 21
157.9112920000002
 31
0.0
  0
LINE
  5
28C
330
20
100
AcDbEntity
  8
0
100
AcDbLine
 10
201.5616839999998
 20
143.408129
 30
0.0
 11
201.5616839999998
 21
150.041316
 31
0.0
  0
LINE
  5
28D
330
20
100
AcDbEntity
  8
0
100
AcDbLine
 10
201.5616839999998
 20
135.5388420000001
 30
0.0
 11
201.5616839999998
 21
142.1713400000001
 31
0.0
  0
LINE
  5
28E
330
20
100
AcDbEntity
  8
0
100
AcDbLine
 10
201.5616839999998
 20
126.432076
 30
0.0
 11
201.5616839999998
 21
119.79889
 31
0.0
  0
LINE
  5
28F
330
20
100
AcDbEntity
  8
0
100
AcDbLine
 10
201.5616839999998
 20
118.5624449999999
 30
0.0
 11
201.5616839999998
 21
111.9292580000001
 31
0.0
  0
LINE
  5
290
330
20
100
AcDbEntity
  8
0
100
AcDbLine
 10
201.5616839999998
 20
110.6928130000002
 30
0.0
 11
201.5616839999998
 21
98.81360700000001
 31
0.0
  0
LINE
  5
291
330
20
100
AcDbEntity
  8
0
100
AcDbLine
 10
201.5616839999998
 20
100.5616490000001
 30
0.0
 11
202.4360499999999
 21
100.5616490000001
 31
0.0
  0
LINE
  5
292
330
20
100
AcDbEntity
  8
0
100
AcDbLine
 10
201.5616839999998
 20
102.6018340000002
 30
0.0
 11
202.4360499999999
 21
102.6018340000002
 31
0.0
  0
LINE
  5
293
330
20
100
AcDbEntity
  8
0
100
AcDbLine
 10
201.5616839999998
 20
106.1001560000002
 30
0.0
 11
202.4360499999999
 21
106.1001560000002
 31
0.0
  0
LINE
  5
294
330
20
100
AcDbEntity
  8
0
100
AcDbLine
 10
230.70857
 20
156.524297
 30
0.0
 11
231.582935
 21
156.524297
 31
0.0
  0
LINE
  5
295
330
20
100
AcDbEntity
  8
0
100
AcDbLine
 10
230.70857
 20
105.808701
 30
0.0
 11
231.582935
 21
105.808701
 31
0.0
  0
LINE
  5
296
330
20
100
AcDbEntity
  8
0
100
AcDbLine
 10
205.351289
 20
157.3986619999999
 30
0.0
 11
205.351289
 21
155.0914810000001
 31
0.0
  0
LINE
  5
297
330
20
100
AcDbEntity
  8
0
100
AcDbLine
 10
219.9240430000001
 20
158.5644820000002
 30
0.0
 11
219.9240430000001
 21
154.86066
 31
0.0
  0
LINE
  5
298
330
20
100
AcDbEntity
  8
0
100
AcDbLine
 10
211.334042
 20
157.690117
 30
0.0
 11
211.670973
 21
157.3531860000001
 31
0.0
  0
LINE
  5
299
330
20
100
AcDbEntity
  8
0
100
AcDbLine
 10
216.5664529999999
 20
156.2352530000002
 30
0.0
 11
218.0209729999999
 21
157.690117
 31
0.0
  0
LINE
  5
29A
330
20
100
AcDbEntity
  8
0
100
AcDbLine
 10
229.834205
 20
158.5644820000001
 30
0.0
 11
206.516421
 21
158.5644820000002
 31
0.0
  0
LINE
  5
29B
330
20
100
AcDbEntity
  8
0
100
AcDbLine
 10
206.2249659999999
 20
157.690117
 30
0.0
 11
211.334042
 21
157.690117
 31
0.0
  0
LINE
  5
29C
330
20
100
AcDbEntity
  8
0
100
AcDbLine
 10
206.3710379999999
 20
157.1072070000001
 30
0.0
 11
210.159954
 21
157.1072070000001
 31
0.0
  0
LINE
  5
29D
330
20
100
AcDbEntity
  8
0
100
AcDbLine
 10
206.2249659999999
 20
156.057831
 30
0.0
 11
205.351289
 21
156.057831
 31
0.0
  0
LINE
  5
29E
330
20
100
AcDbEntity
  8
0
100
AcDbLine
 10
215.622497
 20
156.5280860000001
 30
0.0
 11
217.4028164587917
 21
158.3084054587916
 31
0.0
  0
LINE
  5
29F
330
20
100
AcDbEntity
  8
0
100
AcDbLine
 10
211.9529759433907
 20
158.3083160001874
 30
0.0
 11
213.141339
 21
157.119609
 31
0.0
  0
LINE
  5
2A0
330
20
100
AcDbEntity
  8
0
100
AcDbLine
 10
205.351289
 20
104.9339920000001
 30
0.0
 11
205.351289
 21
107.241517
 31
0.0
  0
LINE
  5
2A1
330
20
100
AcDbEntity
  8
0
100
AcDbLine
 10
219.9240430000001
 20
103.7681709999999
 30
0.0
 11
219.9240430000001
 21
107.4723380000001
 31
0.0
  0
LINE
  5
2A2
330
20
100
AcDbEntity
  8
0
100
AcDbLine
 10
211.334042
 20
104.6425370000002
 30
0.0
 11
211.670973
 21
104.9801560000002
 31
0.0
  0
LINE
  5
2A3
330
20
100
AcDbEntity
  8
0
100
AcDbLine
 10
216.5664529999999
 20
106.0974
 30
0.0
 11
218.0209729999999
 21
104.6425370000002
 31
0.0
  0
LINE
  5
2A4
330
20
100
AcDbEntity
  8
0
100
AcDbLine
 10
219.9240430000001
 20
103.7681709999999
 30
0.0
 11
206.516421
 21
103.7681709999999
 31
0.0
  0
LINE
  5
2A5
330
20
100
AcDbEntity
  8
0
100
AcDbLine
 10
206.2249659999999
 20
104.6425370000002
 30
0.0
 11
211.334042
 21
104.6425370000002
 31
0.0
  0
LINE
  5
2A6
330
20
100
AcDbEntity
  8
0
100
AcDbLine
 10
206.3710379999999
 20
105.2254469999999
 30
0.0
 11
210.13446
 21
105.2254469999999
 31
0.0
  0
LINE
  5
2A7
330
20
100
AcDbEntity
  8
0
100
AcDbLine
 10
206.2249659999999
 20
106.2748229999999
 30
0.0
 11
205.351289
 21
106.2748229999999
 31
0.0
  0
LINE
  5
2A8
330
20
100
AcDbEntity
  8
0
100
AcDbLine
 10
215.622497
 20
105.805256
 30
0.0
 11
217.402922
 21
104.023797
 31
0.0
  0
LINE
  5
2A9
330
20
100
AcDbEntity
  8
0
100
AcDbLine
 10
211.9527809999999
 20
104.023797
 30
0.0
 11
213.141339
 21
105.2137330000001
 31
0.0
  0
LINE
  5
2AA
330
20
100
AcDbEntity
  8
0
100
AcDbLine
 10
206.2249659999999
 20
104.6425370000002
 30
0.0
 11
206.2249659999999
 21
107.0534140000002
 31
0.0
  0
LINE
  5
2AB
330
20
100
AcDbEntity
  8
0
100
AcDbLine
 10
206.2249659999999
 20
157.690117
 30
0.0
 11
206.2249659999999
 21
155.2792390000001
 31
0.0
  0
LINE
  5
2AC
330
20
100
AcDbEntity
  8
0
100
AcDbLine
 10
216.784872
 20
157.690117
 30
0.0
 11
212.5708309999999
 21
157.690117
 31
0.0
  0
LINE
  5
2AD
330
20
100
AcDbEntity
  8
0
100
AcDbLine
 10
218.0251069999999
 20
104.6425370000002
 30
0.0
 11
219.9240430000001
 21
104.6425370000002
 31
0.0
  0
LINE
  5
2AE
330
20
100
AcDbEntity
  8
0
100
AcDbLine
 10
212.5708309999999
 20
104.6425370000002
 30
0.0
 11
216.784872
 21
104.6425370000002
 31
0.0
  0
LINE
  5
2AF
330
20
100
AcDbEntity
  8
0
100
AcDbLine
 10
206.3710379999999
 20
157.1072070000001
 30
0.0
 11
206.3710379999999
 21
155.306111
 31
0.0
  0
LINE
  5
2B0
330
20
100
AcDbEntity
  8
0
100
AcDbLine
 10
204.213719
 20
107.557432
 30
0.0
 11
204.213719
 21
154.7755660000001
 31
0.0
  0
LINE
  5
2B1
330
20
100
AcDbEntity
  8
0
100
AcDbLine
 10
214.706791
 20
107.557432
 30
0.0
 11
214.706791
 21
154.7755660000001
 31
0.0
  0
LINE
  5
2B2
330
20
100
AcDbEntity
  8
0
100
AcDbLine
 10
206.3710379999999
 20
105.2254469999999
 30
0.0
 11
206.3710379999999
 21
107.0268870000001
 31
0.0
  0
LINE
  5
2B3
330
20
100
AcDbEntity
  8
0
100
AcDbLine
 10
218.0209729999999
 20
157.690117
 30
0.0
 11
219.9240430000001
 21
157.690117
 31
0.0
  0
LINE
  5
2B4
330
20
100
AcDbEntity
  8
0
100
AcDbLine
 10
225.170924
 20
134.9555870000001
 30
0.0
 11
225.170924
 21
127.3774110000001
 31
0.0
  0
LINE
  5
2B5
330
20
100
AcDbEntity
  8
0
100
AcDbLine
 10
225.170924
 20
134.9555870000001
 30
0.0
 11
236.2462170000001
 21
134.9555870000001
 31
0.0
  0
LINE
  5
2B6
330
20
100
AcDbEntity
  8
0
100
AcDbLine
 10
225.170924
 20
127.3774110000001
 30
0.0
 11
236.2462170000001
 21
127.3774110000001
 31
0.0
  0
LINE
  5
2B7
330
20
100
AcDbEntity
  8
0
100
AcDbLine
 10
236.2462170000001
 20
134.9555870000001
 30
0.0
 11
236.2462170000001
 21
127.3774110000001
 31
0.0
  0
LINE
  5
2B8
330
20
100
AcDbEntity
  8
0
100
AcDbLine
 10
231.582935
 20
118.7719070000002
 30
0.0
 11
231.582935
 21
104.6425370000002
 31
0.0
  0
LINE
  5
2B9
330
20
100
AcDbEntity
  8
0
100
AcDbLine
 10
230.70857
 20
117.2508970000001
 30
0.0
 11
230.70857
 21
104.6659365232692
 31
0.0
  0
LINE
  5
2BA
330
20
100
AcDbEntity
  8
0
100
AcDbLine
 10
220.1957036842305
 20
159.438847
 30
0.0
 11
226.9196539999999
 21
159.438847
 31
0.0
  0
LINE
  5
2BB
330
20
100
AcDbEntity
  8
0
100
AcDbLine
 10
211.763301
 20
160.8745910000001
 30
0.0
 11
212.8686150731996
 21
160.679535235472
 31
0.0
  0
LINE
  5
2BC
330
20
100
AcDbEntity
  8
0
100
AcDbLine
 10
211.763301
 20
160.8745910000001
 30
0.0
 11
211.9252209999999
 21
161.7928810000001
 31
0.0
  0
LINE
  5
2BD
330
20
100
AcDbEntity
  8
0
100
AcDbLine
 10
226.9196539999999
 20
160.138546
 30
0.0
 11
226.9196539999999
 21
159.438847
 31
0.0
  0
LINE
  5
2BE
330
20
100
AcDbEntity
  8
0
100
AcDbLine
 10
220.4456310000001
 20
160.138546
 30
0.0
 11
226.9196539999999
 21
160.138546
 31
0.0
  0
LINE
  5
2BF
330
20
100
AcDbEntity
  8
0
100
AcDbLine
 10
211.9252209999999
 20
161.7928810000001
 30
0.0
 11
212.8471279999999
 21
161.6304450000001
 31
0.0
  0
LINE
  5
2E4
330
20
100
AcDbEntity
  8
0
100
AcDbLine
 10
197.7183359999999
 20
107.464759
 30
0.0
 11
197.196059
 21
105.79561
 31
0.0
  0
LINE
  5
2E5
330
20
100
AcDbEntity
  8
0
100
AcDbLine
 10
197.7183359999999
 20
107.464759
 30
0.0
 11
196.431248
 21
106.2806790000002
 31
0.0
  0
LINE
  5
2E7
330
20
100
AcDbEntity
  8
0
100
AcDbLine
 10
168.3488969999999
 20
156.464007
 30
0.0
 11
166.9012679999999
 21
157.444482
 31
0.0
  0
LINE
  5
2EC
330
20
100
AcDbEntity
  8
0
100
AcDbLine
 10
203.0286059999999
 20
163.519735
 30
0.0
 11
203.0286059999999
 21
161.5292754399642
 31
0.0
  0
LINE
  5
2ED
330
20
100
AcDbEntity
  8
0
100
AcDbLine
 10
202.978308
 20
100.5967890000002
 30
0.0
 11
202.978308
 21
98.81360700000001
 31
0.0
  0
LINE
  5
2EE
330
20
100
AcDbEntity
  8
hyou
  6
Continuous
100
AcDbLine
 10
124.0470349999999
 20
24.33236500000004
 30
0.0
 11
124.0470349999999
 21
59.10130300000012
 31
0.0
  0
LINE
  5
2EF
330
20
100
AcDbEntity
  8
hyou
  6
Continuous
100
AcDbLine
 10
275.3818119999999
 20
52.85810000000009
 30
0.0
 11
208.6606479999999
 21
52.85810000000009
 31
0.0
  0
LINE
  5
2F1
330
20
100
AcDbEntity
  8
hyou
  6
Continuous
100
AcDbLine
 10
141.3331459999998
 20
50.4093270000001
 30
0.0
 11
183.6983396548832
 21
50.4093270000001
 31
0.0
  0
LINE
  5
2F2
330
20
100
AcDbEntity
  8
hyou
  6
Continuous
100
AcDbLine
 10
141.4285749999995
 20
33.02399700000009
 30
0.0
 11
183.6983396548832
 21
33.02399700000009
 31
0.0
  0
LINE
  5
2F6
330
20
100
AcDbEntity
  8
hyou
  6
Continuous
100
AcDbLine
 10
141.4285749999995
 20
54.75531500000002
 30
0.0
 11
183.6983396548832
 21
54.75531500000002
 31
0.0
  0
LINE
  5
2F7
330
20
100
AcDbEntity
  8
hyou
  6
Continuous
100
AcDbLine
 10
141.4285749999995
 20
50.4093270000001
 30
0.0
 11
141.4285749999995
 21
24.33236500000004
 31
0.0
  0
LINE
  5
2F8
330
20
100
AcDbEntity
  8
hyou
  6
Continuous
100
AcDbLine
 10
156.1341926632076
 20
54.75531500000002
 30
0.0
 11
156.1341926632076
 21
24.33236500000004
 31
0.0
  0
ARC
  5
2F9
330
20
100
AcDbEntity
  8
0
100
AcDbCircle
 10
75.57247542816837
 20
131.166326732263
 30
0.0
 40
36.14232442816839
100
AcDbArc
 50
0.000000424438884
 51
179.9999995755611
  0
ARC
  5
2FA
330
20
100
AcDbEntity
  8
0
100
AcDbCircle
 10
75.57230298025034
 20
131.1666713099814
 30
0.0
 40
41.38868802118177
100
AcDbArc
 50
359.9995233598908
 51
180.0004770961465
  0
ARC
  5
2FB
330
20
100
AcDbEntity
  8
0
100
AcDbCircle
 10
75.57332739126026
 20
131.1658191646134
 30
0.0
 40
41.97227808052642
100
AcDbArc
 50
0.3985576650968702
 51
179.9993072105948
  0
ARC
  5
2FC
330
20
100
AcDbEntity
  8
0
100
AcDbCircle
 10
201.2749079360481
 20
171.7961909739823
 30
0.0
 40
0.8839853584027428
100
AcDbArc
 50
98.95889413948463
 51
185.6222162051581
  0
ARC
  5
2FD
330
20
100
AcDbEntity
  8
0
100
AcDbCircle
 10
199.5215441046912
 20
168.1829712984356
 30
0.0
 40
1.748685299017378
100
AcDbArc
 50
269.9985221420592
 51
359.7641689754766
  0
ARC
  5
2FE
330
20
100
AcDbEntity
  8
0
100
AcDbCircle
 10
199.5209787957032
 20
168.1828470850118
 30
0.0
 40
0.8741962397895568
100
AcDbArc
 50
270.034094761665
 51
0.011096759936871
  0
ARC
  5
2FF
330
20
100
AcDbEntity
  8
0
100
AcDbCircle
 10
203.0182665369082
 20
168.1829429203547
 30
0.0
 40
0.874361052148329
100
AcDbArc
 50
179.9951853012345
 51
259.5876024936118
  0
ARC
  5
300
330
20
100
AcDbEntity
  8
0
100
AcDbCircle
 10
203.0189144730595
 20
168.1829711267052
 30
0.0
 40
1.748685201075987
100
AcDbArc
 50
179.9985167826498
 51
270.0014832173557
  0
ARC
  5
301
330
20
100
AcDbEntity
  8
0
100
AcDbCircle
 10
202.9809836135795
 20
166.4186367593556
 30
0.0
 40
0.9124755653982759
100
AcDbArc
 50
0.9826840391045175
 51
97.58846378368223
  0
ARC
  5
302
330
20
100
AcDbEntity
  8
0
100
AcDbCircle
 10
193.4850086500272
 20
135.2475160099608
 30
0.0
 40
32.06092122797545
100
AcDbArc
 50
91.29795474843069
 51
165.6477179085564
  0
ARC
  5
303
330
20
100
AcDbEntity
  8
0
100
AcDbCircle
 10
331.8647108650796
 20
99.84093605616873
 30
0.0
 40
174.8984784963456
100
AcDbArc
 50
165.6459977331254
 51
177.8778143144605
  0
ARC
  5
304
330
20
100
AcDbEntity
  8
0
100
AcDbCircle
 10
193.4860934583466
 20
135.2457962180576
 30
0.0
 40
31.18848971074769
100
AcDbArc
 50
90.00073840768562
 51
154.2104771536019
  0
ARC
  5
305
330
20
100
AcDbEntity
  8
0
100
AcDbCircle
 10
193.3764672467624
 20
135.2862779670981
 30
0.0
 40
31.07217223504386
100
AcDbArc
 50
154.1897418680716
 51
165.9046704820057
  0
ARC
  5
306
330
20
100
AcDbEntity
  8
0
100
AcDbCircle
 10
332.0623102829554
 20
99.81276231876282
 30
0.0
 40
174.2226611464734
100
AcDbArc
 50
165.6973251942945
 51
177.6900059236975
  0
ARC
  5
307
330
20
100
AcDbEntity
  8
0
100
AcDbCircle
 10
206.5164916163643
 20
104.9333736812618
 30
0.0
 40
1.165202394792643
100
AcDbArc
 50
179.969615405651
 51
269.9965118317992
  0
ARC
  5
308
330
20
100
AcDbEntity
  8
0
100
AcDbCircle
 10
206.2708025746141
 20
100.4828751793333
 30
0.0
 40
3.294464582053126
100
AcDbArc
 50
85.72435815749054
 51
178.0184693895717
  0
ARC
  5
309
330
20
100
AcDbEntity
  8
0
100
AcDbCircle
 10
206.2242524867663
 20
100.562541089929
 30
0.0
 40
2.330921019277159
100
AcDbArc
 50
89.98246131155299
 51
179.3978580791288
  0
ARC
  5
30A
330
20
100
AcDbEntity
  8
0
100
AcDbCircle
 10
202.4365052284517
 20
98.81337410259957
 30
0.0
 40
0.8748212594530121
100
AcDbArc
 50
179.9847465546603
 51
269.9701579680865
  0
ARC
  5
30B
330
20
100
AcDbEntity
  8
0
100
AcDbCircle
 10
203.0185037697143
 20
97.93878640015172
 30
0.0
 40
0.874821261420805
100
AcDbArc
 50
359.9847136273676
 51
89.9295360938032
  0
ARC
  5
30C
330
20
100
AcDbEntity
  8
0
100
AcDbCircle
 10
202.8411416199896
 20
95.49204209839343
 30
0.0
 40
1.052183752283323
100
AcDbArc
 50
267.2252047452691
 51
359.9518027072075
  0
ARC
  5
30D
330
20
100
AcDbEntity
  8
0
100
AcDbCircle
 10
201.8621016431259
 20
94.1459151608428
 30
0.0
 40
1.175477535251302
100
AcDbArc
 50
84.58505978433619
 51
179.8185877435856
  0
ARC
  5
30E
330
20
100
AcDbEntity
  8
0
100
AcDbCircle
 10
200.9787770453843
 20
85.98889851665726
 30
0.0
 40
0.2921478661675076
100
AcDbArc
 50
180.1358158776966
 51
269.9113730007206
  0
ARC
  5
30F
330
20
100
AcDbEntity
  8
0
100
AcDbCircle
 10
203.8930749661421
 20
86.28009995777224
 30
0.0
 40
0.2917051493855509
100
AcDbArc
 50
359.9490072463296
 51
89.95088915442345
  0
ARC
  5
310
330
20
100
AcDbEntity
  8
0
100
AcDbCircle
 10
218.0212955192585
 20
104.6439228518748
 30
0.0
 40
0.8757516228021874
100
AcDbArc
 50
225.08106877155
 51
269.9788695174572
  0
ARC
  5
311
330
20
100
AcDbEntity
  8
0
100
AcDbCircle
 10
211.3337450490962
 20
104.6455281126279
 30
0.0
 40
0.8773568743224478
100
AcDbArc
 50
270.0194058671865
 51
314.875543803854
  0
ARC
  5
312
330
20
100
AcDbEntity
  8
0
100
AcDbCircle
 10
229.8336905280343
 20
104.643342314258
 30
0.0
 40
0.8751711768270546
100
AcDbArc
 50
270.0336793359086
 51
1.479363924609408
  0
ARC
  5
313
330
20
100
AcDbEntity
  8
0
100
AcDbCircle
 10
229.8341766944936
 20
104.6422203143347
 30
0.0
 40
1.748758769858345
100
AcDbArc
 50
270.0009263119099
 51
0.0103601609195513
  0
ARC
  5
314
330
20
100
AcDbEntity
  8
0
100
AcDbCircle
 10
206.5164916615934
 20
157.3992796373801
 30
0.0
 40
1.16520244000975
100
AcDbArc
 50
90.02088231695763
 51
180.0303834865931
  0
ARC
  5
315
330
20
100
AcDbEntity
  8
0
100
AcDbCircle
 10
206.5164210345715
 20
162.0984303434441
 30
0.0
 40
3.533948361187316
100
AcDbArc
 50
189.2680528888527
 51
269.9942595385139
  0
ARC
  5
316
330
20
100
AcDbEntity
  8
0
100
AcDbCircle
 10
206.2334883612277
 20
161.7740248642745
 30
0.0
 40
2.340165539361533
100
AcDbArc
 50
180.0781729758701
 51
273.7414554922152
  0
ARC
  5
317
330
20
100
AcDbEntity
  8
0
100
AcDbCircle
 10
202.4356548378992
 20
163.5199119061054
 30
0.0
 40
0.8739705050798825
100
AcDbArc
 50
89.02548791648346
 51
180.0115881111921
  0
ARC
  5
318
330
20
100
AcDbEntity
  8
0
100
AcDbCircle
 10
203.0189823577527
 20
164.394077787202
 30
0.0
 40
0.8743426425294181
100
AcDbArc
 50
269.9985179423791
 51
0.0014556073517401
  0
ARC
  5
319
330
20
100
AcDbEntity
  8
0
100
AcDbCircle
 10
215.6333457940867
 20
155.7257300705906
 30
0.0
 40
6.529063332031544
100
AcDbArc
 50
42.60816372387604
 51
115.2609010399046
  0
ARC
  5
31A
330
20
100
AcDbEntity
  8
0
100
AcDbCircle
 10
215.6179748915572
 20
155.6993034175156
 30
0.0
 40
5.625173325040059
100
AcDbArc
 50
45.22512082825421
 51
117.0787289722782
  0
ARC
  5
31B
330
20
100
AcDbEntity
  8
0
100
AcDbCircle
 10
210.6832583248587
 20
157.169513307963
 30
0.0
 40
0.2925969158169969
100
AcDbArc
 50
88.85203602695524
 51
153.6369841401733
  0
ARC
  5
31C
330
20
100
AcDbEntity
  8
0
100
AcDbCircle
 10
210.1467362407579
 20
157.3986477644258
 30
0.0
 40
0.2917406665989562
100
AcDbArc
 50
272.5966963742643
 51
340.1204219727958
  0
ARC
  5
31D
330
20
100
AcDbEntity
  8
0
100
AcDbCircle
 10
209.4602549023972
 20
138.0948919555404
 30
0.0
 40
17.48630966077898
100
AcDbArc
 50
72.54018866329579
 51
107.4598117395939
  0
ARC
  5
31E
330
20
100
AcDbEntity
  8
0
100
AcDbCircle
 10
209.4602547717012
 20
124.238106746279
 30
0.0
 40
17.48631051190411
100
AcDbArc
 50
252.5401890915301
 51
287.4598109084701
  0
ARC
  5
31F
330
20
100
AcDbEntity
  8
0
100
AcDbCircle
 10
210.1474205114597
 20
104.9347872337999
 30
0.0
 40
0.2909485771484551
100
AcDbArc
 50
19.84444315651127
 51
92.55312612554421
  0
ARC
  5
320
330
20
100
AcDbEntity
  8
0
100
AcDbCircle
 10
210.6854679497641
 20
105.1658755190591
 30
0.0
 40
0.295640746269822
100
AcDbArc
 50
206.5880423499421
 51
270.7078570541606
  0
ARC
  5
321
330
20
100
AcDbEntity
  8
0
100
AcDbCircle
 10
208.2645824988648
 20
131.1663209403043
 30
0.0
 40
26.40760013435019
100
AcDbArc
 50
275.2678657937714
 51
351.7508451496058
  0
ARC
  5
322
330
20
100
AcDbEntity
  8
0
100
AcDbCircle
 10
208.2652834521995
 20
131.1666103177927
 30
0.0
 40
26.40691598852584
100
AcDbArc
 50
8.249516055569126
 51
84.73352466761653
  0
ARC
  5
323
330
20
100
AcDbEntity
  8
0
100
AcDbCircle
 10
229.8055698564519
 20
157.6298690681452
 30
0.0
 40
1.811828304717099
100
AcDbArc
 50
11.19302514680498
 51
93.21430363958572
  0
ARC
  5
324
330
20
100
AcDbEntity
  8
0
100
AcDbCircle
 10
229.8338969576492
 20
157.6898089576492
 30
0.0
 40
0.8746730965941104
100
AcDbArc
 50
0.0201784267149741
 51
89.97982157328134
  0
ARC
  5
325
330
20
100
AcDbEntity
  8
0
100
AcDbCircle
 10
119.031326264007
 20
84.53110737378825
 30
0.0
 40
1.165643301127488
100
AcDbArc
 50
0.0251664566390364
 51
90.00870630590254
  0
ARC
  5
326
330
20
100
AcDbEntity
  8
0
100
AcDbCircle
 10
32.11318387023363
 20
84.53154795279884
 30
0.0
 40
1.165202872399645
100
AcDbArc
 50
89.96962513714484
 51
179.996506441175
  0
ARC
  5
327
330
20
100
AcDbEntity
  8
0
100
AcDbCircle
 10
34.18329991757061
 20
80.20652581330145
 30
0.0
 40
1.165505275815063
100
AcDbArc
 50
179.9940673455448
 51
256.215582614162
  0
ARC
  5
328
330
20
100
AcDbEntity
  8
0
100
AcDbCircle
 10
36.56209559614955
 20
79.45515430785923
 30
0.0
 40
5.634461173784706
100
AcDbArc
 50
184.8706944475115
 51
210.7681465260114
  0
ARC
  5
329
330
20
100
AcDbEntity
  8
0
100
AcDbCircle
 10
34.05290200189707
 20
77.96491708514245
 30
0.0
 40
2.716098783106844
100
AcDbArc
 50
210.8343466451592
 51
247.5981160672361
  0
ARC
  5
32A
330
20
100
AcDbEntity
  8
0
100
AcDbCircle
 10
36.54691949826453
 20
79.45140140694174
 30
0.0
 40
5.823161413721742
100
AcDbArc
 50
182.481268947019
 51
210.8190660444812
  0
ARC
  5
32B
330
20
100
AcDbEntity
  8
0
100
AcDbCircle
 10
34.04831427258658
 20
77.96006137085477
 30
0.0
 40
2.913329398248158
100
AcDbArc
 50
210.8064790205139
 51
256.0456335312481
  0
ARC
  5
32C
330
20
100
AcDbEntity
  8
0
100
AcDbCircle
 10
114.5906042718349
 20
79.45225709995142
 30
0.0
 40
5.830274772081227
100
AcDbArc
 50
329.212840087872
 51
357.5133474163014
  0
ARC
  5
32D
330
20
100
AcDbEntity
  8
0
100
AcDbCircle
 10
117.0954010857406
 20
77.96237232736911
 30
0.0
 40
2.915870133943023
100
AcDbArc
 50
283.9669742860796
 51
329.1704176581873
  0
ARC
  5
32E
330
20
100
AcDbEntity
  8
0
100
AcDbCircle
 10
114.5958428980356
 20
79.45236332836742
 30
0.0
 40
5.621283588882246
100
AcDbArc
 50
329.1849832568797
 51
355.1464102989423
  0
ARC
  5
32F
330
20
100
AcDbEntity
  8
0
100
AcDbCircle
 10
206.6003105697217
 20
595.532992003083
 30
0.0
 40
548.2821019482586
100
AcDbArc
 50
251.542964948245
 51
251.5871374059164
  0
ARC
  5
330
330
20
100
AcDbEntity
  8
0
100
AcDbCircle
 10
117.0922445142902
 20
77.96325439546183
 30
0.0
 40
2.714486995268955
100
AcDbArc
 50
292.411438070975
 51
329.1862153612486
  0
ARC
  5
331
330
20
100
AcDbEntity
  8
0
100
AcDbCircle
 10
-55.58967048850553
 20
596.3826137645217
 30
0.0
 40
549.1305604185229
100
AcDbArc
 50
288.3981241238337
 51
288.4422624335479
  0
ARC
  5
332
330
20
100
AcDbEntity
  8
0
100
AcDbCircle
 10
75.57230311154519
 20
245.0658509725873
 30
0.0
 40
174.9014855650351
100
AcDbArc
 50
256.0536747889894
 51
283.9463252110105
  0
ARC
  5
333
330
20
100
AcDbEntity
  8
0
100
AcDbCircle
 10
75.57247536631948
 20
244.829029213775
 30
0.0
 40
174.8711972806152
100
AcDbArc
 50
256.0264938530826
 51
283.9735061469174
  0
ARC
  5
334
330
20
100
AcDbEntity
  8
0
100
AcDbCircle
 10
116.9613428598021
 20
80.20685187556074
 30
0.0
 40
1.165813242924174
100
AcDbArc
 50
283.7788543756452
 51
359.9899062294982
  0
ARC
  5
335
330
20
100
AcDbEntity
  8
0
100
AcDbCircle
 10
75.57230311154519
 20
248.9135992548279
 30
0.0
 40
174.8753962279182
100
AcDbArc
 50
256.2158310341271
 51
283.7841689658769
  0
ARC
  5
336
330
20
100
AcDbEntity
  8
0
100
AcDbCircle
 10
331.8311401246427
 20
99.84103158656951
 30
0.0
 40
173.9905404479623
100
AcDbArc
 50
177.6962392308879
 51
180.0504031393487
  0
ARC
  5
337
330
20
100
AcDbEntity
  8
0
100
AcDbCircle
 10
330.4628953953852
 20
99.88436355922925
 30
0.0
 40
173.4960165496861
100
AcDbArc
 50
177.8750031461224
 51
180.0648568774237
  0
ARC
  5
338
330
20
100
AcDbEntity
  8
0
100
AcDbCircle
 10
119.2521834814262
 20
84.53354731765179
 30
0.0
 40
1.16320662281929
100
AcDbArc
 50
359.9050354224321
 51
90.12883022711269
  0
ARC
  5
339
330
20
100
AcDbEntity
  8
0
100
AcDbCircle
 10
31.89370514774315
 20
84.53226443616491
 30
0.0
 40
1.164487326614956
100
AcDbArc
 50
89.93442021741163
 51
180.0317571254259
  0
ARC
  5
33A
330
20
100
AcDbEntity
  8
0
100
AcDbCircle
 10
193.485692
 20
136.0007064117211
 30
0.0
 40
31.30794458827904
100
AcDbArc
 50
90.0
 51
91.33042786464027
  0
TEXT
  5
33B
330
20
100
AcDbEntity
  8
moji
100
AcDbText
 10
218.6935085593624
 20
77.41252933127481
 30
0.0
 40
3.5
  1
部 品
100
AcDbText
  0
TEXT
  5
33C
330
20
100
AcDbEntity
  8
moji
100
AcDbText
 10
243.8207676995054
 20
77.34471201969333
 30
0.0
 40
3.5
  1
材 質
100
AcDbText
  0
TEXT
  5
33D
330
20
100
AcDbEntity
  8
moji
100
AcDbText
 10
266.1968926813999
 20
77.25022007736126
 30
0.0
 40
3.5
  1
備考
100
AcDbText
  0
TEXT
  5
33E
330
20
100
AcDbEntity
  8
moji
100
AcDbText
 10
217.8335925791052
 20
70.93408911054604
 30
0.0
 40
3.5
  1
フード
100
AcDbText
  0
TEXT
  5
33F
330
20
100
AcDbEntity
  8
moji
100
AcDbText
 10
217.3847395154524
 20
65.24108849298554
 30
0.0
 40
3.5
  1
ルーバー
100
AcDbText
  0
TEXT
  5
340
330
20
100
AcDbEntity
  8
moji
100
AcDbText
 10
218.2844143039059
 20
59.71928119450989
 30
0.0
 40
3.5
  1
本  体
100
AcDbText
  0
TEXT
  5
341
330
20
100
AcDbEntity
  8
moji
100
AcDbText
 10
235.0133727593197
 20
16.17038652668353
 30
0.0
 40
4.0
  1
深型屋外フード
100
AcDbText
  0
TEXT
  5
342
330
20
100
AcDbEntity
  8
moji
100
AcDbText
 10
234.6207797672203
 20
12.06059074380602
 30
0.0
 40
3.5
  1
(防火ﾀﾞﾝﾊﾟｰ付き)
100
AcDbText
  0
TEXT
  5
343
330
20
100
AcDbEntity
  8
moji
100
AcDbText
 10
227.765922996603
 20
2.505820088716319
 30
0.0
 40
5.0
  1
マックス株式会社
100
AcDbText
  0
TEXT
  5
344
330
20
100
AcDbEntity
  8
moji
100
AcDbText
 10
108.1099855854017
 20
9.504651974504614
 30
0.0
 40
3.0
  1
改 訂
100
AcDbText
  0
TEXT
  5
345
330
20
100
AcDbEntity
  8
moji
100
AcDbText
 10
73.38945493679445
 20
17.87458738426875
 30
0.0
 40
3.0
  1
作　成　日
100
AcDbText
  0
TEXT
  5
346
330
20
100
AcDbEntity
  8
moji
100
AcDbText
 10
39.14707769332418
 20
17.61760720041411
 30
0.0
 40
3.0
  1
製　図
100
AcDbText
  0
TEXT
  5
347
330
20
100
AcDbEntity
  8
moji
100
AcDbText
 10
9.450071972375237
 20
17.70166997524353
 30
0.0
 40
3.0
  1
検　図
100
AcDbText
  0
TEXT
  5
348
330
20
100
AcDbEntity
  8
moji
100
AcDbText
 10
34.06698065822661
 20
54.45212999618576
 30
0.0
 40
3.0
  1
寸法
100
AcDbText
  0
TEXT
  5
349
330
20
100
AcDbEntity
  8
moji
100
AcDbText
 10
4.64661308984283
 20
51.51024401737223
 30
0.0
 40
3.0
  1
品番
100
AcDbText
  0
TEXT
  5
34A
330
20
100
AcDbEntity
  8
moji
100
AcDbText
 10
3.616450924268522
 20
44.12384550446043
 30
0.0
 40
4.0
  1
VC100UVP-FD
 41
0.6999999999999999
100
AcDbText
  0
TEXT
  5
34B
330
20
100
AcDbEntity
  8
moji
100
AcDbText
 10
3.383117590935192
 20
35.27133269407324
 30
0.0
 40
4.0
  1
VC150UVP-FD
 41
0.6999999999999999
100
AcDbText
  0
TEXT
  5
34C
330
20
100
AcDbEntity
  8
moji
100
AcDbText
 10
4.822010808193393
 20
26.20905399553794
 30
0.0
 40
4.0
  1
VC150UVP-FD/120
 41
0.65
100
AcDbText
  0
TEXT
  5
34D
330
20
100
AcDbEntity
  8
moji
100
AcDbText
 10
47.97501572224702
 20
51.47153985580924
 30
0.0
 40
5.0
  1
A
100
AcDbText
  0
TEXT
  5
34E
330
20
100
AcDbEntity
  8
moji
100
AcDbText
 10
59.55170313417365
 20
51.7092540047016
 30
0.0
 40
5.0
  1
B
100
AcDbText
  0
TEXT
  5
34F
330
20
100
AcDbEntity
  8
moji
100
AcDbText
 10
71.21325055886678
 20
51.70051126538073
 30
0.0
 40
5.0
  1
C
100
AcDbText
  0
TEXT
  5
350
330
20
100
AcDbEntity
  8
moji
100
AcDbText
 10
82.13589839288994
 20
51.68545677992202
 30
0.0
 40
5.0
  1
D
100
AcDbText
  0
TEXT
  5
351
330
20
100
AcDbEntity
  8
moji
100
AcDbText
 10
94.1146277460035
 20
51.76892869647213
 30
0.0
 40
5.0
  1
E
100
AcDbText
  0
TEXT
  5
352
330
20
100
AcDbEntity
  8
moji
100
AcDbText
 10
105.8722677960459
 20
51.59901917038753
 30
0.0
 40
5.0
  1
F
100
AcDbText
  0
TEXT
  5
353
330
20
100
AcDbEntity
  8
moji
100
AcDbText
 10
116.8794193479763
 20
51.51239647188922
 30
0.0
 40
5.0
  1
G
100
AcDbText
  0
TEXT
  5
354
330
20
100
AcDbEntity
  8
moji
100
AcDbText
 10
128.8539257580376
 20
51.92869988749886
 30
0.0
 40
5.0
  1
H穴
100
AcDbText
  0
TEXT
  5
355
330
20
100
AcDbEntity
  8
moji
100
AcDbText
 10
156.2015028915084
 20
55.62674005021012
 30
0.0
 40
2.5
  1
温度ﾋｭｰｽﾞ
100
AcDbText
  0
TEXT
  5
356
330
20
100
AcDbEntity
  8
moji
100
AcDbText
 10
143.3309064251275
 20
51.50618094800501
 30
0.0
 40
2.5
  1
作動温度
100
AcDbText
  0
TEXT
  5
357
330
20
100
AcDbEntity
  8
moji
100
AcDbText
 10
162.7960050013889
 20
51.47501650325901
 30
0.0
 40
2.5
  1
※証明番号
100
AcDbText
  0
TEXT
  5
358
330
20
100
AcDbEntity
  8
moji
100
AcDbText
 10
185.1919841886268
 20
34.44941441363352
 30
0.0
 40
2.0
  1
※特定防火設備
100
AcDbText
  0
TEXT
  5
359
330
20
100
AcDbEntity
  8
moji
100
AcDbText
 10
198.6290056759661
 20
31.26241856013653
 30
0.0
 40
2.0
  1
対応品
100
AcDbText
  0
TEXT
  5
35A
330
20
100
AcDbEntity
  8
moji
100
AcDbText
 10
185.0690571248057
 20
26.55588035097682
 30
0.0
 40
2.0
  1
(財)建材試験ｾﾝﾀｰ
100
AcDbText
  0
CIRCLE
  5
35B
330
20
100
AcDbEntity
  8
moji
  6
Continuous
100
AcDbCircle
 10
212.1289674319017
 20
73.41397456735726
 30
0.0
 40
1.81988869946296
  0
CIRCLE
  5
35C
330
20
100
AcDbEntity
  8
moji
  6
Continuous
100
AcDbCircle
 10
212.2448996935796
 20
67.4583395655129
 30
0.0
 40
1.81988869946296
  0
CIRCLE
  5
35D
330
20
100
AcDbEntity
  8
moji
  6
Continuous
100
AcDbCircle
 10
212.1868157793161
 20
55.49373172328476
 30
0.0
 40
1.81988869946296
  0
CIRCLE
  5
35E
330
20
100
AcDbEntity
  8
moji
  6
Continuous
100
AcDbCircle
 10
212.185398353955
 20
61.46174276470325
 30
0.0
 40
1.81988869946296
  0
TEXT
  5
35F
330
20
100
AcDbEntity
  8
moji
100
AcDbText
 10
217.3582397329834
 20
53.99411557642483
 30
0.0
 40
3.5
  1
ﾀﾞﾝﾊﾟｰﾕﾆｯﾄ
100
AcDbText
  0
TEXT
  5
360
330
20
100
AcDbEntity
  8
moji
100
AcDbText
 10
238.2123576500872
 20
72.03097916738819
 30
0.0
 40
3.0
  1
SUS304  0.5t
 41
0.5999999999999999
100
AcDbText
  0
TEXT
  5
361
330
20
100
AcDbEntity
  8
moji
100
AcDbText
 10
209.9564158486391
 20
47.1216850937867
 30
0.0
 40
3.5
  1
表面処理　　　ｱｸﾘﾙ焼付け塗装
100
AcDbText
  0
TEXT
  5
362
330
20
100
AcDbEntity
  8
moji
100
AcDbText
 10
238.2123576500872
 20
65.78687577540383
 30
0.0
 40
3.0
  1
SUS304  0.5t
 41
0.5999999999999999
100
AcDbText
  0
TEXT
  5
363
330
20
100
AcDbEntity
  8
moji
100
AcDbText
 10
238.2123576500872
 20
59.74903612598164
 30
0.0
 40
3.0
  1
SUS304  0.5t
 41
0.5999999999999999
100
AcDbText
  0
TEXT
  5
364
330
20
100
AcDbEntity
  8
moji
100
AcDbText
 10
238.3623576500872
 20
53.82958539267441
 30
0.0
 40
3.0
  1
SUS304  1.5t
 41
0.5999999999999999
100
AcDbText
  0
TEXT
  5
365
330
20
100
AcDbEntity
  8
moji
100
AcDbText
 10
81.38385824734653
 20
26.63910866898524
 30
0.0
 40
3.5
  1
79
100
AcDbText
  0
CIRCLE
  5
36F
330
20
100
AcDbEntity
  8
Dim
100
AcDbCircle
 10
147.5931873374167
 20
180.6024897331698
 30
0.0
 40
2.729833049194442
  0
TEXT
  5
370
330
20
100
AcDbEntity
  8
Dim
100
AcDbText
 10
147.1861536508747
 20
178.9393617643134
 30
0.0
 40
3.1875
  1
1
100
AcDbText
  0
CIRCLE
  5
371
330
20
100
AcDbEntity
  8
Dim
100
AcDbCircle
 10
179.0828484362561
 20
77.54007355166973
 30
0.0
 40
2.729833049194442
  0
TEXT
  5
372
330
20
100
AcDbEntity
  8
Dim
100
AcDbText
 10
177.9345403405371
 20
75.96205538922811
 30
0.0
 40
3.1875
  1
2
100
AcDbText
  0
CIRCLE
  5
373
330
20
100
AcDbEntity
  8
Dim
100
AcDbCircle
 10
218.4897749668452
 20
89.98614863844386
 30
0.0
 40
2.729833049194442
  0
CIRCLE
  5
374
330
20
100
AcDbEntity
  8
Dim
100
AcDbCircle
 10
226.3659627998236
 20
168.8689895667008
 30
0.0
 40
2.729833049194442
  0
TEXT
  5
375
330
20
100
AcDbEntity
  8
Dim
100
AcDbText
 10
225.2176547041044
 20
167.2819116355169
 30
0.0
 40
3.1875
  1
4
100
AcDbText
  0
LINE
  5
379
330
20
100
AcDbEntity
  8
waku
100
AcDbLine
 10
225.9019729999999
 20
0.0
 30
0.0
 11
225.9019729999999
 21
22.38140700000002
 31
0.0
  0
LINE
  5
37C
330
20
100
AcDbEntity
  8
waku
100
AcDbLine
 10
225.9064519999999
 20
11.11250000000001
 30
0.0
 11
277.0626749999999
 21
11.11250000000001
 31
0.0
  0
ARC
  5
37D
330
20
100
AcDbEntity
  8
0
100
AcDbCircle
 10
200.7724333343685
 20
84.53125449896489
 30
0.0
 40
1.165496219606217
100
AcDbArc
 50
90.01793696021071
 51
179.982063039799
  0
TEXT
  5
37F
330
20
100
AcDbEntity
  8
moji
100
AcDbText
 10
102.6071356073503
 20
44.39526639518911
 30
0.0
 40
3.5
  1
179
100
AcDbText
  0
TEXT
  5
380
330
20
100
AcDbEntity
  8
moji
100
AcDbText
 10
69.79911670921538
 20
26.87313328816353
 30
0.0
 40
3.5
  1
124
100
AcDbText
  0
TEXT
  5
381
330
20
100
AcDbEntity
  8
moji
100
AcDbText
 10
70.92957690966867
 20
44.28222037514385
 30
0.0
 40
3.5
  1
81
100
AcDbText
  0
TEXT
  5
382
330
20
100
AcDbEntity
  8
moji
100
AcDbText
 10
81.55590279392933
 20
35.46463081160835
 30
0.0
 40
3.5
  1
79
100
AcDbText
  0
TEXT
  5
383
330
20
100
AcDbEntity
  8
moji
100
AcDbText
 10
69.79911670921538
 20
35.57767683165363
 30
0.0
 40
3.5
  1
124
100
AcDbText
  0
TEXT
  5
384
330
20
100
AcDbEntity
  8
moji
100
AcDbText
 10
93.53878091873395
 20
26.76008726811824
 30
0.0
 40
3.5
  1
56
100
AcDbText
  0
TEXT
  5
385
330
20
100
AcDbEntity
  8
moji
100
AcDbText
 10
93.42573489868865
 20
35.46463081160835
 30
0.0
 40
3.5
  1
56
100
AcDbText
  0
TEXT
  5
386
330
20
100
AcDbEntity
  8
moji
100
AcDbText
 10
93.53878091873395
 20
44.50831241523439
 30
0.0
 40
3.5
  1
47
100
AcDbText
  0
TEXT
  5
387
330
20
100
AcDbEntity
  8
moji
100
AcDbText
 10
46.17249851974221
 20
35.46463081160835
 30
0.0
 40
3.5
  1
185
100
AcDbText
  0
TEXT
  5
388
330
20
100
AcDbEntity
  8
moji
100
AcDbText
 10
46.39859055983284
 20
26.64704124807284
 30
0.0
 40
3.5
  1
185
100
AcDbText
  0
TEXT
  5
389
330
20
100
AcDbEntity
  8
moji
100
AcDbText
 10
46.28554453978752
 20
44.28222037514385
 30
0.0
 40
3.5
  1
140
100
AcDbText
  0
TEXT
  5
38A
330
20
100
AcDbEntity
  8
moji
100
AcDbText
 10
58.04233062450146
 20
35.46463081160835
 30
0.0
 40
3.5
  1
145
100
AcDbText
  0
TEXT
  5
38B
330
20
100
AcDbEntity
  8
moji
100
AcDbText
 10
58.26842266459212
 20
26.87313328816353
 30
0.0
 40
3.5
  1
145
100
AcDbText
  0
TEXT
  5
38C
330
20
100
AcDbEntity
  8
moji
100
AcDbText
 10
59.39888286504539
 20
44.39526639518911
 30
0.0
 40
3.5
  1
97
100
AcDbText
  0
TEXT
  5
38D
330
20
100
AcDbEntity
  8
moji
100
AcDbText
 10
82.00808687411067
 20
44.39526639518911
 30
0.0
 40
3.5
  1
55
100
AcDbText
  0
TEXT
  5
38E
330
20
100
AcDbEntity
  8
moji
100
AcDbText
 10
145.1589300374847
 20
40.19552689067942
 30
0.0
 40
4.0
  1
72℃
 41
0.8
100
AcDbText
  0
TEXT
  5
38F
330
20
100
AcDbEntity
  8
moji
100
AcDbText
 10
143.7987055743225
 20
26.9068518812696
 30
0.0
 40
4.0
  1
120℃
 41
0.8
100
AcDbText
  0
TEXT
  5
390
330
20
100
AcDbEntity
  8
moji
100
AcDbText
 10
161.130673701772
 20
40.80885035265223
 30
0.0
 40
3.0
  1
第03EG004号
 41
0.6999999999999999
100
AcDbText
  0
TEXT
  5
391
330
20
100
AcDbEntity
  8
moji
100
AcDbText
 10
161.3351148557629
 20
27.41795476624695
 30
0.0
 40
3.0
  1
第03EG005号
 41
0.6999999999999999
100
AcDbText
  0
TEXT
  5
392
330
20
100
AcDbEntity
  8
moji
100
AcDbText
 10
126.5517733696983
 20
35.90226265687011
 30
0.0
 40
3.2
  1
2-φ4.2
 41
0.8000000000000001
100
AcDbText
  0
TEXT
  5
393
330
20
100
AcDbEntity
  8
moji
100
AcDbText
 10
70.6985411660775
 20
6.900824669301016
 30
0.0
 40
3.0
  1
2007年8月28日
100
AcDbText
  0
TEXT
  5
394
330
20
100
AcDbEntity
  8
Dim
100
AcDbText
 10
217.8643527614799
 20
88.4904970166538
 30
0.0
 40
3.1875
  1
3
100
AcDbText
  0
TEXT
  5
395
330
20
100
AcDbEntity
  8
moji
100
AcDbText
 10
211.658218066658
 20
72.51300131296331
 30
0.0
 40
2.125
  1
1
100
AcDbText
  0
TEXT
  5
396
330
20
100
AcDbEntity
  8
moji
100
AcDbText
 10
211.658218066658
 20
66.43891203718024
 30
0.0
 40
2.125
  1
2
100
AcDbText
  0
TEXT
  5
397
330
20
100
AcDbEntity
  8
moji
100
AcDbText
 10
211.5921953571386
 20
60.56289088995524
 30
0.0
 40
2.125
  1
3
100
AcDbText
  0
TEXT
  5
398
330
20
100
AcDbEntity
  8
moji
100
AcDbText
 10
211.5602722887996
 20
54.42961956215393
 30
0.0
 40
2.125
  1
4
100
AcDbText
  0
TEXT
  5
399
330
20
100
AcDbEntity
  8
moji
100
AcDbText
 10
114.7984370496281
 20
44.41843511340602
 30
0.0
 40
3.5
  1
147
100
AcDbText
  0
TEXT
  5
39A
330
20
100
AcDbEntity
  8
moji
100
AcDbText
 10
114.9900496160657
 20
26.79007900115522
 30
0.0
 40
3.5
  1
200
100
AcDbText
  0
TEXT
  5
39B
330
20
100
AcDbEntity
  8
moji
100
AcDbText
 10
114.9900496160657
 20
35.41264449084311
 30
0.0
 40
3.5
  1
200
100
AcDbText
  0
TEXT
  5
39C
330
20
100
AcDbEntity
  8
moji
100
AcDbText
 10
102.9224897835014
 20
35.60425705728062
 30
0.0
 40
3.5
  1
234
100
AcDbText
  0
TEXT
  5
39D
330
20
100
AcDbEntity
  8
moji
100
AcDbText
 10
102.9224897835014
 20
26.79007900115522
 30
0.0
 40
3.5
  1
234
100
AcDbText
  0
DIMENSION
  5
3D0
330
20
100
AcDbEntity
  8
Dim
100
AcDbDimension
  2
*D1
 10
117.5445899999999
 20
182.691692
 30
0.0
 11
75.57281949999995
 21
186.691692
 31
0.0
 70
    32
  1
Ｇ
 71
     5
 42
83.94354099999995
  3
1-1
100
AcDbAlignedDimension
 13
33.60104899999999
 23
131.4577819999999
 33
0.0
 14
117.5445899999999
 24
131.4577819999999
 34
0.0
100
AcDbRotatedDimension
  0
DIMENSION
  5
3DD
330
20
100
AcDbEntity
  8
Dim
100
AcDbDimension
  2
*D2
 10
20.70571299999998
 20
70.0608400000001
 30
0.0
 11
16.70571299999997
 21
121.6514035000001
 31
0.0
 70
    32
  1
Ｆ
 71
     5
 42
103.181127
  3
1-1
100
AcDbAlignedDimension
 13
73.060139
 23
173.241967
 33
0.0
 14
69.83587499999998
 24
70.0608400000001
 34
0.0
 50
90.0
100
AcDbRotatedDimension
  0
DIMENSION
  5
3EA
330
20
100
AcDbEntity
  8
Dim
100
AcDbDimension
  2
*D3
 10
148.5644019999999
 20
85.69675099999972
 30
0.0
 11
144.5644019999999
 21
126.502701
 31
0.0
 70
    32
  1
Ａ
 71
     5
 42
81.61190000000045
  3
1-1
100
AcDbAlignedDimension
 13
188.681161
 23
167.3086510000002
 33
0.0
 14
156.2586789999995
 24
85.69675099999972
 34
0.0
 50
90.0
100
AcDbRotatedDimension
  0
DIMENSION
  5
3F7
330
20
100
AcDbEntity
  8
Dim
100
AcDbDimension
  2
*D4
 10
204.1847800000001
 20
182.691692
 30
0.0
 11
180.575885
 21
186.691692
 31
0.0
 70
    32
  1
Ｃ
 71
     5
 42
47.21779
  3
1-1
100
AcDbAlignedDimension
 13
156.96699
 23
99.97942800000013
 33
0.0
 14
204.1847800000001
 24
160.6420470000001
 34
0.0
100
AcDbRotatedDimension
  0
DIMENSION
  5
404
330
20
100
AcDbEntity
  8
Dim
100
AcDbDimension
  2
*D5
 10
236.2462159999998
 20
182.691692
 30
0.0
 11
220.2154979999999
 21
186.691692
 31
0.0
 70
    32
  1
Ｄ
 71
     5
 42
32.06143599999979
  3
1-1
100
AcDbAlignedDimension
 13
204.1847800000001
 23
160.6420470000001
 33
0.0
 14
236.2462159999998
 24
135.0138100000002
 34
0.0
100
AcDbRotatedDimension
1001
ACAD
1000
DSTYLE
1002
{
1070
   279
1070
     1
1002
}
  0
DIMENSION
  5
413
330
20
100
AcDbEntity
  8
Dim
100
AcDbDimension
  2
*D6
 10
231.582935
 20
175.3460896364645
 30
0.0
 11
217.8838575
 21
179.3460896364645
 31
0.0
 70
    32
  1
Ｅ
 71
     5
 42
27.39815499999989
  3
1-1
100
AcDbAlignedDimension
 13
204.1847800000001
 23
160.6420470000001
 33
0.0
 14
231.582935
 24
157.981572
 34
0.0
100
AcDbRotatedDimension
  0
DIMENSION
  5
421
330
20
100
AcDbEntity
  8
Dim
100
AcDbDimension
  2
*D7
 10
246.2244173831258
 20
102.8934620000003
 30
0.0
 11
242.2244173831258
 21
131.1661545000002
 31
0.0
 70
    32
  1
φ Ｂ
 71
     5
 42
56.54538499999972
  3
1-1
100
AcDbAlignedDimension
 13
231.1495419999999
 23
159.438847
 33
0.0
 14
231.149542
 24
102.8934620000003
 34
0.0
 50
90.0
100
AcDbRotatedDimension
  0
MTEXT
  5
46E
330
20
100
AcDbEntity
  8
Dim
100
AcDbMText
 10
123.9695310260732
 20
119.532817
 30
0.0
 40
6.0
 41
0.0
 71
     7
 72
     1
  1
Ｈ穴
 73
     1
 44
1.0
1001
ACAD
1000
MTEXTBEGIN
1070
    73
1070
     1
1070
    44
1040
1.0
1070
    74
1070
     0
1000
MTEXTEND
  0
MTEXT
  5
474
330
20
100
AcDbEntity
  8
Dim
100
AcDbMText
 10
237.7886110783364
 20
92.18892200000002
 30
0.0
 40
3.0
 41
0.0
 71
     7
 72
     1
  1
温度ヒューズ\P72\U+2103（120\U+2103）
 73
     1
 44
1.0
1001
ACAD
1000
MTEXTBEGIN
1070
    73
1070
     1
1070
    44
1040
1.0
1070
    74
1070
     0
1000
MTEXTEND
  0
ARC
  5
6C8
330
20
100
AcDbEntity
  8
0
100
AcDbCircle
 10
201.56175
 20
159.1478049389344
 30
0.0
 40
0.8743
100
AcDbArc
 50
315.0024221092031
 51
0.0
  0
LINE
  5
6C9
330
20
100
AcDbEntity
  8
0
100
AcDbLine
 10
202.4360499999999
 20
153.318291
 30
0.0
 11
202.4360499999999
 21
151.2781729388693
 31
0.0
  0
ARC
  5
6CA
330
20
100
AcDbEntity
  8
0
100
AcDbCircle
 10
201.5617499999999
 20
151.2781729388693
 30
0.0
 40
0.8743
100
AcDbArc
 50
315.002415088892
 51
0.0
  0
LINE
  5
6CB
330
20
100
AcDbEntity
  8
0
100
AcDbLine
 10
202.4360499999999
 20
145.4483150000001
 30
0.0
 11
202.4360499999999
 21
143.4085419389344
 31
0.0
  0
ARC
  5
6CC
330
20
100
AcDbEntity
  8
0
100
AcDbCircle
 10
201.5617499999999
 20
143.4085419389344
 30
0.0
 40
0.8743
100
AcDbArc
 50
315.0024221092019
 51
0.0
  0
LINE
  5
6CD
330
20
100
AcDbEntity
  8
0
100
AcDbLine
 10
202.4360499999999
 20
137.553189
 30
0.0
 11
202.4360499999999
 21
135.538565917583
 31
0.0
  0
ARC
  5
6CE
330
20
100
AcDbEntity
  8
0
100
AcDbCircle
 10
201.5617499999999
 20
135.538565917583
 30
0.0
 40
0.8743
100
AcDbArc
 50
315.0000000000006
 51
0.0
  0
LINE
  5
6CF
330
20
100
AcDbEntity
  8
0
100
AcDbLine
 10
202.4360499999999
 20
129.709051
 30
0.0
 11
202.43605
 21
127.6689339389343
 31
0.0
  0
ARC
  5
6D0
330
20
100
AcDbEntity
  8
0
100
AcDbCircle
 10
201.56175
 20
127.6689339389343
 30
0.0
 40
0.8743
100
AcDbArc
 50
315.0024221092024
 51
0.0
  0
LINE
  5
6D1
330
20
100
AcDbEntity
  8
0
100
AcDbLine
 10
202.4360499999999
 20
121.83942
 30
0.0
 11
202.4360499999999
 21
119.799301917583
 31
0.0
  0
ARC
  5
6D2
330
20
100
AcDbEntity
  8
0
100
AcDbCircle
 10
201.5617499999999
 20
119.799301917583
 30
0.0
 40
0.8743
100
AcDbArc
 50
315.0000000000006
 51
0.0
  0
LINE
  5
6D3
330
20
100
AcDbEntity
  8
0
100
AcDbLine
 10
202.4360499999999
 20
113.969788
 30
0.0
 11
202.4360499999999
 21
111.9296709389344
 31
0.0
  0
ARC
  5
6D4
330
20
100
AcDbEntity
  8
0
100
AcDbCircle
 10
201.5617499999999
 20
111.9296709389344
 30
0.0
 40
0.8743
100
AcDbArc
 50
315.0024221092028
 51
0.0
  0
LINE
  5
6D5
330
20
100
AcDbEntity
  8
0
100
AcDbLine
 10
202.4360499999999
 20
106.1001560000002
 30
0.0
 11
202.4360499999999
 21
102.6018340000002
 31
0.0
  0
LINE
  5
6D6
330
20
100
AcDbEntity
  8
0
100
AcDbLine
 10
202.4360499999999
 20
163.519735
 30
0.0
 11
202.4360499999999
 21
98.81360700000001
 31
0.0
  0
ARC
  5
6D7
330
20
100
AcDbEntity
  8
0
100
AcDbCircle
 10
201.8621016431259
 20
94.1459151608428
 30
0.0
 40
0.3004235352515823
100
AcDbArc
 50
100.7237751002508
 51
179.8185877435856
  0
ARC
  5
6D9
330
20
100
AcDbEntity
  8
0
100
AcDbCircle
 10
203.31048
 20
74.28008557678584
 30
0.0
 40
0.8743
100
AcDbArc
 50
315.0050941746544
 51
360.0
  0
ARC
  5
6DA
330
20
100
AcDbEntity
  8
0
100
AcDbCircle
 10
211.3346630389381
 20
157.6901820000002
 30
0.0
 40
0.8743
100
AcDbArc
 50
44.99170974569454
 51
90.0
  0
ARC
  5
6DB
330
20
100
AcDbEntity
  8
0
100
AcDbCircle
 10
218.0210399175831
 20
157.6901820000002
 30
0.0
 40
0.8743
100
AcDbArc
 50
90.0
 51
134.9999999999968
  0
ARC
  5
6DC
330
20
100
AcDbEntity
  8
0
100
AcDbCircle
 10
220.1957036842306
 20
160.313147
 30
0.0
 40
0.8743
100
AcDbArc
 50
225.2251208282538
 51
269.9999999999982
  0
ARC
  5
6DE
330
20
100
AcDbEntity
  8
0
100
AcDbCircle
 10
212.9207507614649
 20
160.9749702875716
 30
0.0
 40
0.3
100
AcDbArc
 50
259.9920031141423
 51
297.0787289722752
  0
LWPOLYLINE
  5
6F0
102
{ACAD_REACTORS
330
711
102
}
330
20
100
AcDbEntity
  8
Defpoints
100
AcDbPolyline
 90
       22
 70
     1
 43
0.0
 10
204.1847800000001
 20
173.138097
 10
204.1847800000001
 20
172.253397
 10
201.2702289999997
 20
171.80519
 10
201.2702289999997
 20
168.1830160000002
 42
-0.4309039640914183
 10
199.419524
 20
166.434286
 10
193.485692
 20
166.434286
 42
0.2877430249966423
 10
165.404029
 20
148.814862
 42
0.0509727089593523
 10
163.2398199999999
 20
142.853469
 42
0.0245468574578678
 10
159.6672756101378
 20
124.9819434162261
 42
0.0277931652541251
 10
157.9812259999999
 20
106.8349949999999
 42
0.0084846105156428
 10
157.8405996766804
 20
99.84103158656951
 10
157.8406669999999
 20
85.69675099999972
 10
156.96699
 20
85.69675099999972
 10
156.96699
 20
99.68797200000004
 42
-0.0089892985327532
 10
157.0861900000002
 20
106.3175420000002
 42
-0.053965114158021
 10
162.4261255903013
 20
143.2004056149439
 42
-0.3357234052326132
 10
192.7587759999999
 20
167.3002109999999
 10
199.5214989999999
 20
167.3086510000002
 42
0.4137135959441065
 10
200.3951750190972
 20
168.183016394965
 10
200.3951750000001
 20
171.80519
 42
-0.3704277029709838
 10
201.1372485868053
 20
172.6693919917534
 10
204.1847800000001
 20
173.138097
  0
LWPOLYLINE
  5
6F1
102
{ACAD_REACTORS
330
713
102
}
330
20
100
AcDbEntity
  8
Defpoints
100
AcDbPolyline
 90
       19
 70
     1
 43
0.0
 10
201.2702289999997
 20
171.7690160000001
 10
202.1439049999999
 20
171.7690160000001
 10
202.1439049999999
 20
168.1830160000002
 42
0.3619103220227125
 10
202.8602415470864
 20
167.3229805071611
 42
-0.4485636877413551
 10
203.8933249756944
 20
166.4342859262152
 10
203.8933249999999
 20
164.3941
 42
-0.4142061283778576
 10
203.0189823577527
 20
163.5197351446725
 10
202.4360499999999
 20
163.519735
 10
202.43605
 20
159.1478049389344
 42
-0.198901380805185
 10
202.1799995928817
 20
158.5296076153381
 10
198.0993629999999
 20
154.448626
 10
197.4806239999999
 20
155.0670209999999
 10
201.5616839999998
 20
159.147392
 10
201.5616839999998
 20
163.519735
 42
-0.4141543947096761
 10
202.4356548378992
 20
164.3938824111853
 10
203.0189599999999
 20
164.3938824111853
 10
203.0189599999999
 20
166.434286
 42
-0.4142212176880718
 10
201.2702292719835
 20
168.1829711267052
 10
201.2702292719835
 20
171.7690160000001
  0
LWPOLYLINE
  5
6FA
102
{ACAD_REACTORS
330
715
102
}
330
20
100
AcDbEntity
  8
Defpoints
100
AcDbPolyline
 90
        8
 70
     1
 43
0.0
 10
201.5616839999998
 20
153.318291
 10
202.4360499999999
 20
153.318291
 10
202.4360499999999
 20
151.2781729388693
 42
-0.1989014126489035
 10
202.1799995171355
 20
150.6599755395204
 10
198.0993629999999
 20
146.5789950000001
 10
197.4809684999998
 20
147.1973895000002
 10
201.5616839999998
 20
151.2781050000001
 10
201.5616839999998
 20
153.318291
  0
LWPOLYLINE
  5
6FB
102
{ACAD_REACTORS
330
717
102
}
330
20
100
AcDbEntity
  8
Defpoints
100
AcDbPolyline
 90
        8
 70
     1
 43
0.0
 10
201.5616839999998
 20
145.4483150000001
 10
202.4360499999999
 20
145.4483150000001
 10
202.4360499999999
 20
143.4085419389344
 42
-0.1989013808051818
 10
202.1799995928817
 20
142.7903446153381
 10
198.0993629999999
 20
138.7093630000002
 10
197.4808482392625
 20
139.3279822014048
 10
201.5616839999998
 20
143.408129
 10
201.5616839999998
 20
145.4483150000001
  0
LWPOLYLINE
  5
6FC
102
{ACAD_REACTORS
330
719
102
}
330
20
100
AcDbEntity
  8
Defpoints
100
AcDbPolyline
 90
        8
 70
     1
 43
0.0
 10
201.5616839999998
 20
137.5786830000001
 10
202.4360499999999
 20
137.5786830000001
 10
202.4360499999999
 20
135.538565917583
 42
-0.1989123673796537
 10
202.1799734587913
 20
134.9203424587915
 10
198.0993629999999
 20
130.839732
 10
197.4809685
 20
131.4581265
 10
201.5616839999998
 20
135.5388420000001
 10
201.5616839999998
 20
137.5786830000001
  0
LWPOLYLINE
  5
6FD
102
{ACAD_REACTORS
330
71B
102
}
330
20
100
AcDbEntity
  8
Defpoints
100
AcDbPolyline
 90
        8
 70
     1
 43
0.0
 10
201.5616839999998
 20
129.709051
 10
202.4360499999999
 20
129.709051
 10
202.43605
 20
127.6689339389343
 42
-0.1989013808052035
 10
202.1799995928817
 20
127.0507366153381
 10
198.1003254743427
 20
122.9687930607636
 10
197.4808223876386
 20
123.5883483709162
 10
201.5616839999998
 20
127.6688660000001
 10
201.5616839999998
 20
129.709051
  0
LWPOLYLINE
  5
6FE
330
20
100
AcDbEntity
  8
Defpoints
100
AcDbPolyline
 90
        8
 70
     1
 43
0.0
 10
201.5616839999998
 20
121.83942
 10
202.4360499999999
 20
121.83942
 10
202.4360499999999
 20
119.799301917583
 42
-0.1989123673796611
 10
202.1799734587913
 20
119.1810784587916
 10
198.0993629999999
 20
115.1004680000001
 10
197.4810202392601
 20
115.7189151723637
 10
201.5616839999998
 20
119.79889
 10
201.5616839999998
 20
121.83942
  0
LWPOLYLINE
  5
6FF
330
20
100
AcDbEntity
  8
Defpoints
100
AcDbPolyline
 90
        8
 70
     1
 43
0.0
 10
201.5616839999998
 20
113.969788
 10
202.4360499999999
 20
113.969788
 10
202.4360499999999
 20
111.9296709389344
 42
-0.1989013808051892
 10
202.1799995928817
 20
111.3114736153382
 10
198.0993629999999
 20
107.230492
 10
197.4809945795169
 20
107.8489125482804
 10
201.5616839999998
 20
111.9292580000001
 10
201.5616839999998
 20
113.969788
  0
LWPOLYLINE
  5
700
102
{ACAD_REACTORS
330
71F
102
}
330
20
100
AcDbEntity
  8
Defpoints
100
AcDbPolyline
 90
        4
 70
     1
 43
0.0
 10
201.5616839999998
 20
106.1001560000002
 10
202.4360499999999
 20
106.1001560000002
 10
202.4360499999999
 20
102.6018340000002
 10
201.5616839999998
 20
102.6018340000002
  0
LWPOLYLINE
  5
701
102
{ACAD_REACTORS
330
721
102
}
330
20
100
AcDbEntity
  8
Defpoints
100
AcDbPolyline
 90
       27
 70
     1
 43
0.0
 10
201.5616839999998
 20
100.5616490000001
 10
202.4360499999999
 20
100.5616490000001
 10
202.4360499999999
 20
98.81360700000001
 10
203.0195796483966
 20
98.81360700000001
 42
-0.414651981565778
 10
203.8933249999999
 20
97.93855299999998
 10
203.8933249999999
 20
95.49115700000005
 42
-0.4144599660410574
 10
202.8411416199896
 20
94.43985834611012
 10
201.8062005325995
 20
94.44109200000021
 42
0.3595037829179075
 10
201.5616796137585
 20
94.14686637262159
 10
201.5616839999998
 20
86.57180500000004
 10
203.8933249999999
 20
86.57180500000004
 42
-0.4144646368997801
 10
204.1847801155276
 20
86.28009995777224
 10
204.18478
 20
74.28008557678584
 42
-0.1988892554903311
 10
203.9287584226699
 20
73.66191708676004
 10
200.2249869999999
 20
69.9574870000001
 10
199.606937
 20
70.57622700000002
 10
203.3104150000001
 20
74.28039300000015
 10
203.310415
 20
85.69675099999972
 10
200.9783251416207
 20
85.69675099999964
 42
-0.4139723557061459
 10
200.6866299999999
 20
85.98820600000001
 10
200.6866299999999
 20
94.14963700000004
 42
-0.4151412372983751
 10
201.8621016431259
 20
95.32139269609414
 10
203.0189599999999
 20
95.31614599999986
 10
203.0189599999999
 20
97.93855300000004
 10
202.4360499999999
 20
97.93855300000004
 42
-0.4143659698113467
 10
201.5616839689986
 20
98.81337410259957
 10
201.5616839999998
 20
100.5616490000001
  0
LWPOLYLINE
  5
703
102
{ACAD_REACTORS
330
72B
102
}
330
20
100
AcDbEntity
  8
Defpoints
100
AcDbPolyline
 90
       11
 70
     1
 43
0.0
 10
211.763301
 20
160.8745910000001
 10
211.9252209999999
 20
161.7928810000001
 10
212.8471279999999
 20
161.6304450000001
 42
-0.3280714075146741
 10
220.4387405572917
 20
160.1457808806426
 10
226.9196539999999
 20
160.138546
 10
226.9196539999999
 20
159.438847
 10
220.1957036842305
 20
159.438847
 42
-0.1978914267954741
 10
219.5799140527823
 20
159.6924992578782
 42
0.3242136525441326
 10
213.0573150769098
 20
160.7078557283527
 42
-0.16324881552336
 10
212.8686150731996
 20
160.679535235472
 10
211.763301
 20
160.8745910000001
  0
LWPOLYLINE
  5
704
102
{ACAD_REACTORS
330
72D
102
}
330
20
100
AcDbEntity
  8
Defpoints
100
AcDbPolyline
 90
       13
 70
     1
 43
0.0
 10
203.0286059999999
 20
163.519735
 10
203.8933249999999
 20
163.519735
 10
203.8933249999999
 20
161.770832
 42
0.4146132352808129
 10
206.2334883612277
 20
159.433859324913
 10
229.7039792671409
 20
159.438847
 42
-0.3739905068696393
 10
231.5829349999998
 20
157.981572
 10
231.582935
 20
156.524297
 10
230.70857
 20
156.524297
 10
230.70857
 20
157.690117
 42
0.4142135623730474
 10
229.834205
 20
158.5644820000001
 10
206.516421
 20
158.5644820000002
 42
-0.3675912647481613
 10
203.0286059999999
 20
161.5292754399642
 10
203.0286059999999
 20
163.519735
  0
LWPOLYLINE
  5
705
102
{ACAD_REACTORS
330
72F
102
}
330
20
100
AcDbEntity
  8
Defpoints
100
AcDbPolyline
 90
       11
 70
     1
 43
0.0
 10
205.351289
 20
156.057831
 10
205.3512893854166
 20
157.3986617400174
 42
-0.4139513500206142
 10
206.5160669858783
 20
158.5644820000001
 10
211.3346630389381
 20
158.5644820000001
 42
-0.1989499719364955
 10
211.9529759433907
 20
158.3083160001874
 10
213.141339
 20
157.119609
 10
211.670973
 20
157.3531860000001
 10
211.334042
 20
157.690117
 10
206.2249659999999
 20
157.690117
 10
206.2249659999999
 20
156.057831
 10
205.351289
 20
156.057831
  0
LWPOLYLINE
  5
706
102
{ACAD_REACTORS
330
731
102
}
330
20
100
AcDbEntity
  8
Defpoints
100
AcDbPolyline
 90
        8
 70
     1
 43
0.0
 10
219.9240430000001
 20
158.5644820000002
 10
219.9240430000001
 20
157.690117
 10
218.0209729999999
 20
157.690117
 10
216.5664529999999
 20
156.2352530000002
 10
215.622497
 20
156.5280860000001
 10
217.4028164587917
 20
158.3084054587916
 42
-0.1989123673796705
 10
218.0210399175831
 20
158.5644820000001
 10
219.9240430000001
 20
158.5644820000001
  0
LWPOLYLINE
  5
708
102
{ACAD_REACTORS
330
7BC
102
}
330
20
100
AcDbEntity
  8
Defpoints
100
AcDbPolyline
 90
       11
 70
     1
 43
0.0
 10
206.2249659999999
 20
106.2748229999999
 10
205.351289
 20
106.2748229999999
 10
205.3512892215717
 20
104.9333736812618
 42
0.4141956343854298
 10
206.5164206788193
 20
103.7681712886285
 10
211.3340422065971
 20
103.7681712886285
 42
0.1984359063887371
 10
211.9527809999999
 20
104.023797
 10
213.141339
 20
105.2137330000001
 10
211.6700398741428
 20
104.9792209687363
 10
211.334042
 20
104.6425370000002
 10
206.2249659999999
 20
104.6425370000002
 10
206.2249659999999
 20
106.2748229999999
  0
LWPOLYLINE
  5
709
102
{ACAD_REACTORS
330
7BE
102
}
330
20
100
AcDbEntity
  8
Defpoints
100
AcDbPolyline
 90
        8
 70
     1
 43
0.0
 10
216.5664529999999
 20
106.0974
 10
215.6230900192734
 20
105.8046626363246
 10
217.402922
 20
104.023797
 42
0.1993355619859512
 10
218.0209725451387
 20
103.7681712886285
 10
219.9240430000001
 20
103.7681709999999
 10
219.9240430000001
 20
104.6425370000002
 10
218.0251069999999
 20
104.6425370000002
 10
216.5664529999999
 20
106.0974
  0
HATCH
  5
711
330
20
100
AcDbEntity
  8
Hach
100
AcDbHatch
 10
0.0
 20
0.0
 30
0.0
210
0.0
220
0.0
230
1.0
  2
ANSI31
 70
     0
 71
     1
 91
        1
 92
        1
 93
       21
 72
     1
 10
204.1847800000001
 20
173.138097
 11
204.1847800000001
 21
172.253397
 72
     1
 10
204.1847800000001
 20
172.253397
 11
201.2702289999997
 21
171.80519
 72
     1
 10
201.2702289999997
 20
171.80519
 11
201.2702289999997
 21
168.1830160000002
 72
     2
 10
199.5186895569428
 20
168.1830160000002
 40
1.751539443056969
 50
360.0
 51
453.2456064191775
 73
     0
 72
     1
 10
199.419524
 20
166.434286
 11
193.485692
 21
166.434286
 72
     2
 10
193.4856920000003
 20
135.2464361889799
 40
31.18784981102007
 50
90.00000000000055
 51
154.2112148810939
 73
     1
 72
     2
 10
193.4841179972869
 20
135.2471967115687
 40
31.18610170371502
 50
154.2112148810938
 51
165.8831974689821
 73
     1
 72
     2
 10
343.3582698113448
 20
97.55468330630913
 40
185.7273161055338
 50
165.8831974689821
 51
171.5077932843087
 73
     1
 72
     2
 10
321.9302739767999
 20
100.7541390985976
 40
164.0617784281051
 50
171.5077932843087
 51
177.8758781983847
 73
     1
 72
     2
 10
363.9739936006535
 20
99.19474120183293
 40
206.1344070791611
 50
177.8758781983848
 51
179.8203610325059
 73
     1
 72
     1
 10
157.8405996766804
 20
99.84103158656951
 11
157.8406669999999
 21
85.69675099999972
 72
     1
 10
157.8406669999999
 20
85.69675099999972
 11
156.96699
 21
85.69675099999972
 72
     1
 10
156.96699
 20
85.69675099999972
 11
156.96699
 21
99.68797200000004
 72
     2
 10
341.3856436277078
 20
99.68797200000024
 40
184.4186536277076
 50
179.9999999999999
 51
182.0601399764564
 73
     0
 72
     2
 10
330.1229432454801
 20
100.0931108059124
 40
173.1486688294976
 50
182.0601399764564
 51
194.4160479759578
 73
     0
 72
     2
 10
193.515909698131
 20
135.2086231361547
 40
32.10051811201406
 50
194.4160479759576
 51
268.6484769965846
 73
     0
 72
     1
 10
192.7587759999999
 20
167.3002109999999
 11
199.5214989999999
 21
167.3086510000002
 72
     2
 10
199.5204072748485
 20
168.1834181552622
 40
0.8747678365081007
 50
270.0715061267551
 51
359.9736853948514
 73
     1
 72
     1
 10
200.3951750190972
 20
168.183016394965
 11
200.3951750000001
 21
171.80519
 72
     2
 10
201.269426762823
 20
171.8051900046093
 40
0.8742517628229791
 50
179.9999996979211
 51
261.3041014632745
 73
     0
 72
     1
 10
201.1372485868053
 20
172.6693919917534
 11
204.1847800000001
 21
173.138097
 97
        1
330
6F0
 75
     0
 76
     1
 52
0.0
 41
3.0
 77
     0
 78
     1
 53
45.0
 43
-24.09526518634925
 44
-158.4486406929721
 45
-0.2651650429449553
 46
0.2651650429449553
 79
     0
 98
        1
 10
-24.09526518634925
 20
-158.4486406929721
  0
HATCH
  5
713
330
20
100
AcDbEntity
  8
Hach
100
AcDbHatch
 10
0.0
 20
0.0
 30
0.0
210
0.0
220
0.0
230
1.0
  2
ANSI31
 70
     0
 71
     1
 91
        1
 92
        1
 93
       19
 72
     1
 10
201.2702289999997
 20
171.7690160000001
 11
202.1439049999999
 21
171.7690160000001
 72
     1
 10
202.1439049999999
 20
171.7690160000001
 11
202.1439049999999
 21
168.1830160000002
 72
     2
 10
203.0183536810914
 20
168.1830160000002
 40
0.8744486810914223
 50
180.0
 51
259.5828520508279
 73
     1
 72
     2
 10
202.9811421779932
 20
166.4187111515631
 40
0.9123157512765882
 50
262.3847274564632
 51
359.0218165096855
 73
     0
 72
     1
 10
203.8933249756944
 20
166.4342859262152
 11
203.8933249999999
 21
164.3941
 72
     2
 10
203.0189601548073
 20
164.3940999895833
 40
0.874364845192616
 50
359.9999993174117
 51
449.9985450752369
 73
     0
 72
     1
 10
203.0189823577527
 20
163.5197351446725
 11
202.4360499999999
 21
163.519735
 72
     1
 10
202.4360499999999
 20
163.519735
 11
202.43605
 21
159.1478049389344
 72
     2
 10
201.56175
 20
159.1478049389344
 40
0.8742999999999483
 50
360.0
 51
404.9975778907993
 73
     0
 72
     1
 10
202.1799995928817
 20
158.5296076153381
 11
198.0993629999999
 21
154.448626
 72
     1
 10
198.0993629999999
 20
154.448626
 11
197.4806239999999
 21
155.0670209999999
 72
     1
 10
197.4806239999999
 20
155.0670209999999
 11
201.5616839999998
 21
159.147392
 72
     1
 10
201.5616839999998
 20
159.147392
 11
201.5616839999998
 21
163.519735
 72
     2
 10
202.4358314290222
 20
163.519735
 40
0.8741474290223152
 50
180.0
 51
269.9884253779379
 73
     0
 72
     1
 10
202.4356548378992
 20
164.3938824111853
 11
203.0189599999999
 21
164.3938824111853
 72
     1
 10
203.0189599999999
 20
164.3938824111853
 11
203.0189599999999
 21
166.434286
 72
     2
 10
203.018914347118
 20
168.1829710745385
 40
1.74868507513444
 50
89.99850418037144
 51
180.0000017092447
 73
     0
 72
     1
 10
201.2702292719835
 20
168.1829711267052
 11
201.2702292719835
 21
171.7690160000001
 72
     1
 10
201.2702292719835
 20
171.7690160000001
 11
201.2702289999997
 21
171.7690160000001
 97
        1
330
6F1
 75
     0
 76
     1
 52
0.0
 41
3.0
 77
     0
 78
     1
 53
45.0
 43
-24.09526518634925
 44
-158.4486406929721
 45
-0.2651650429449553
 46
0.2651650429449553
 79
     0
 98
        1
 10
-24.09526518634925
 20
-158.4486406929721
  0
HATCH
  5
715
330
20
100
AcDbEntity
  8
Hach
100
AcDbHatch
 10
0.0
 20
0.0
 30
0.0
210
0.0
220
0.0
230
1.0
  2
ANSI31
 70
     0
 71
     1
 91
        1
 92
        1
 93
        7
 72
     1
 10
201.5616839999998
 20
153.318291
 11
202.4360499999999
 21
153.318291
 72
     1
 10
202.4360499999999
 20
153.318291
 11
202.4360499999999
 21
151.2781729388693
 72
     2
 10
201.5617499999999
 20
151.2781729388693
 40
0.8743000000000336
 50
360.0
 51
404.9975849111061
 73
     0
 72
     1
 10
202.1799995171355
 20
150.6599755395204
 11
198.0993629999999
 21
146.5789950000001
 72
     1
 10
198.0993629999999
 20
146.5789950000001
 11
197.4809684999998
 21
147.1973895000002
 72
     1
 10
197.4809684999998
 20
147.1973895000002
 11
201.5616839999998
 21
151.2781050000001
 72
     1
 10
201.5616839999998
 20
151.2781050000001
 11
201.5616839999998
 21
153.318291
 97
        1
330
6FA
 75
     0
 76
     1
 52
0.0
 41
3.0
 77
     0
 78
     1
 53
45.0
 43
-24.09526518634925
 44
-158.4486406929721
 45
-0.2651650429449553
 46
0.2651650429449553
 79
     0
 98
        1
 10
-24.09526518634925
 20
-158.4486406929721
  0
HATCH
  5
717
330
20
100
AcDbEntity
  8
Hach
100
AcDbHatch
 10
0.0
 20
0.0
 30
0.0
210
0.0
220
0.0
230
1.0
  2
ANSI31
 70
     0
 71
     1
 91
        1
 92
        1
 93
        7
 72
     1
 10
201.5616839999998
 20
145.4483150000001
 11
202.4360499999999
 21
145.4483150000001
 72
     1
 10
202.4360499999999
 20
145.4483150000001
 11
202.4360499999999
 21
143.4085419389344
 72
     2
 10
201.56175
 20
143.4085419389344
 40
0.8742999999999483
 50
360.0
 51
404.9975778907993
 73
     0
 72
     1
 10
202.1799995928817
 20
142.7903446153381
 11
198.0993629999999
 21
138.7093630000002
 72
     1
 10
198.0993629999999
 20
138.7093630000002
 11
197.4808482392625
 21
139.3279822014048
 72
     1
 10
197.4808482392625
 20
139.3279822014048
 11
201.5616839999998
 21
143.408129
 72
     1
 10
201.5616839999998
 20
143.408129
 11
201.5616839999998
 21
145.4483150000001
 97
        1
330
6FB
 75
     0
 76
     1
 52
0.0
 41
3.0
 77
     0
 78
     1
 53
45.0
 43
-24.09526518634925
 44
-158.4486406929721
 45
-0.2651650429449553
 46
0.2651650429449553
 79
     0
 98
        1
 10
-24.09526518634925
 20
-158.4486406929721
  0
HATCH
  5
719
330
20
100
AcDbEntity
  8
Hach
100
AcDbHatch
 10
0.0
 20
0.0
 30
0.0
210
0.0
220
0.0
230
1.0
  2
ANSI31
 70
     0
 71
     1
 91
        1
 92
        1
 93
        7
 72
     1
 10
201.5616839999998
 20
137.5786830000001
 11
202.4360499999999
 21
137.5786830000001
 72
     1
 10
202.4360499999999
 20
137.5786830000001
 11
202.4360499999999
 21
135.538565917583
 72
     2
 10
201.5617499999999
 20
135.538565917583
 40
0.8743000000000336
 50
0.0000000000018829
 51
45.00000000000131
 73
     0
 72
     1
 10
202.1799734587913
 20
134.9203424587915
 11
198.0993629999999
 21
130.839732
 72
     1
 10
198.0993629999999
 20
130.839732
 11
197.4809685
 21
131.4581265
 72
     1
 10
197.4809685
 20
131.4581265
 11
201.5616839999998
 21
135.5388420000001
 72
     1
 10
201.5616839999998
 20
135.5388420000001
 11
201.5616839999998
 21
137.5786830000001
 97
        1
330
6FC
 75
     0
 76
     1
 52
0.0
 41
3.0
 77
     0
 78
     1
 53
45.0
 43
-24.09526518634925
 44
-158.4486406929721
 45
-0.2651650429449553
 46
0.2651650429449553
 79
     0
 98
        1
 10
-24.09526518634925
 20
-158.4486406929721
  0
HATCH
  5
71B
330
20
100
AcDbEntity
  8
Hach
100
AcDbHatch
 10
0.0
 20
0.0
 30
0.0
210
0.0
220
0.0
230
1.0
  2
ANSI31
 70
     0
 71
     1
 91
        1
 92
        1
 93
        7
 72
     1
 10
201.5616839999998
 20
129.709051
 11
202.4360499999999
 21
129.709051
 72
     1
 10
202.4360499999999
 20
129.709051
 11
202.43605
 21
127.6689339389343
 72
     2
 10
201.5617500000001
 20
127.6689339389343
 40
0.8742999999998628
 50
359.999999999998
 51
404.9975778908018
 73
     0
 72
     1
 10
202.1799995928817
 20
127.0507366153381
 11
198.1003254743427
 21
122.9687930607636
 72
     1
 10
198.1003254743427
 20
122.9687930607636
 11
197.4808223876386
 21
123.5883483709162
 72
     1
 10
197.4808223876386
 20
123.5883483709162
 11
201.5616839999998
 21
127.6688660000001
 72
     1
 10
201.5616839999998
 20
127.6688660000001
 11
201.5616839999998
 21
129.709051
 97
        1
330
6FD
 75
     0
 76
     1
 52
0.0
 41
3.0
 77
     0
 78
     1
 53
45.0
 43
-24.09526518634925
 44
-158.4486406929721
 45
-0.2651650429449553
 46
0.2651650429449553
 79
     0
 98
        1
 10
-24.09526518634925
 20
-158.4486406929721
  0
HATCH
  5
71F
330
20
100
AcDbEntity
  8
Hach
100
AcDbHatch
 10
0.0
 20
0.0
 30
0.0
210
0.0
220
0.0
230
1.0
  2
ANSI31
 70
     0
 71
     1
 91
        1
 92
        1
 93
        4
 72
     1
 10
201.5616839999998
 20
106.1001560000002
 11
202.4360499999999
 21
106.1001560000002
 72
     1
 10
202.4360499999999
 20
106.1001560000002
 11
202.4360499999999
 21
102.6018340000002
 72
     1
 10
202.4360499999999
 20
102.6018340000002
 11
201.5616839999998
 21
102.6018340000002
 72
     1
 10
201.5616839999998
 20
102.6018340000002
 11
201.5616839999998
 21
106.1001560000002
 97
        1
330
700
 75
     0
 76
     1
 52
0.0
 41
3.0
 77
     0
 78
     1
 53
45.0
 43
-24.09526518634925
 44
-158.4486406929721
 45
-0.2651650429449553
 46
0.2651650429449553
 79
     0
 98
        1
 10
-24.09526518634925
 20
-158.4486406929721
  0
HATCH
  5
721
330
20
100
AcDbEntity
  8
Hach
100
AcDbHatch
 10
0.0
 20
0.0
 30
0.0
210
0.0
220
0.0
230
1.0
  2
ANSI31
 70
     0
 71
     1
 91
        1
 92
        1
 93
       26
 72
     1
 10
201.5616839999998
 20
100.5616490000001
 11
202.4360499999999
 21
100.5616490000001
 72
     1
 10
202.4360499999999
 20
100.5616490000001
 11
202.4360499999999
 21
98.81360700000001
 72
     1
 10
202.4360499999999
 20
98.81360700000001
 11
203.0195796483966
 21
98.81360700000001
 72
     2
 10
203.0195796483966
 20
97.93986066985112
 40
0.8737463301488759
 50
270.0
 51
360.0857502788313
 73
     0
 72
     1
 10
203.8933249999999
 20
97.93855299999998
 11
203.8933249999999
 21
95.49115700000005
 72
     2
 10
202.84202597415
 20
95.49115699999999
 40
1.051299025849939
 50
359.9999999999984
 51
450.0481972927881
 73
     0
 72
     1
 10
202.8411416199896
 20
94.43985834611012
 11
201.8062005325995
 21
94.44109200000021
 72
     2
 10
201.8621016431259
 20
94.1459151608428
 40
0.3004235352515804
 50
100.7237751002401
 51
179.8185877435875
 73
     1
 72
     1
 10
201.5616796137585
 20
94.14686637262159
 11
201.5616839999998
 21
86.57180500000004
 72
     1
 10
201.5616839999998
 20
86.57180500000004
 11
203.8933249999999
 21
86.57180500000004
 72
     2
 10
203.8933249999999
 20
86.28034977740638
 40
0.2914552225936404
 50
270.0
 51
360.0491108455754
 73
     0
 72
     1
 10
204.1847801155276
 20
86.28009995777224
 11
204.18478
 21
74.28008557678584
 72
     2
 10
203.3104799796767
 20
74.28008558520298
 40
0.8743000203232893
 50
0.0000005516034966
 51
44.99490527374567
 73
     0
 72
     1
 10
203.9287584226699
 20
73.66191708676004
 11
200.2249869999999
 21
69.9574870000001
 72
     1
 10
200.2249869999999
 20
69.9574870000001
 11
199.606937
 21
70.57622700000002
 72
     1
 10
199.606937
 20
70.57622700000002
 11
203.3104150000001
 21
74.28039300000015
 72
     1
 10
203.3104150000001
 20
74.28039300000015
 11
203.310415
 21
85.69675099999972
 72
     1
 10
203.310415
 20
85.69675099999972
 11
200.9783251416207
 21
85.69675099999964
 72
     2
 10
200.9783251416207
 20
85.98844624055168
 40
0.2916952405520448
 50
90.0
 51
179.9528111216068
 73
     0
 72
     1
 10
200.6866299999999
 20
85.98820600000001
 11
200.6866299999999
 21
94.14963700000004
 72
     2
 10
201.8583915695927
 20
94.14963700000004
 40
1.171761569592774
 50
180.0
 51
270.1814122564081
 73
     0
 72
     1
 10
201.8621016431259
 20
95.32139269609414
 11
203.0189599999999
 21
95.31614599999986
 72
     1
 10
203.0189599999999
 20
95.31614599999986
 11
203.0189599999999
 21
97.93855300000004
 72
     1
 10
203.0189599999999
 20
97.93855300000004
 11
202.4360499999999
 21
97.93855300000004
 72
     2
 10
202.4360499999999
 20
98.81291914936277
 40
0.8743661493627142
 50
90.0
 51
180.0298123406771
 73
     0
 72
     1
 10
201.5616839689986
 20
98.81337410259957
 11
201.5616839999998
 21
100.5616490000001
 97
        1
330
701
 75
     0
 76
     1
 52
0.0
 41
3.0
 77
     0
 78
     1
 53
45.0
 43
-24.09526518634925
 44
-158.4486406929721
 45
-0.2651650429449553
 46
0.2651650429449553
 79
     0
 98
        1
 10
-24.09526518634925
 20
-158.4486406929721
  0
HATCH
  5
72B
330
20
100
AcDbEntity
  8
Hach
100
AcDbHatch
 10
0.0
 20
0.0
 30
0.0
210
0.0
220
0.0
230
1.0
  2
ANSI31
 70
     0
 71
     1
 91
        1
 92
        1
 93
       10
 72
     1
 10
211.763301
 20
160.8745910000001
 11
211.9252209999999
 21
161.7928810000001
 72
     1
 10
211.9252209999999
 20
161.7928810000001
 11
212.8471279999999
 21
161.6304450000001
 72
     2
 10
215.6333457940868
 20
155.7257300705906
 40
6.529063332031411
 50
244.7390989600926
 51
317.3918362761238
 73
     0
 72
     1
 10
220.4387405572917
 20
160.1457808806426
 11
226.9196539999999
 21
160.138546
 72
     1
 10
226.9196539999999
 20
160.138546
 11
226.9196539999999
 21
159.438847
 72
     1
 10
226.9196539999999
 20
159.438847
 11
220.1957036842305
 21
159.438847
 72
     2
 10
220.1957036842305
 20
160.3131470000001
 40
0.8743000000001186
 50
89.99999999999817
 51
134.7748791717345
 73
     0
 72
     2
 10
215.6179748915566
 20
155.6993034175133
 40
5.625173325041781
 50
45.22512082826581
 51
117.0787289722615
 73
     1
 72
     2
 10
212.9207507614636
 20
160.9749702875744
 40
0.3000000000024485
 50
62.9212710277399
 51
100.0079968855213
 73
     0
 72
     1
 10
212.8686150731996
 20
160.679535235472
 11
211.763301
 21
160.8745910000001
 97
        1
330
703
 75
     0
 76
     1
 52
90.0
 41
3.0
 77
     0
 78
     1
 53
135.0
 43
-24.09526518634925
 44
-158.4486406929721
 45
-0.2651650429449553
 46
-0.2651650429449553
 79
     0
 98
        1
 10
-24.09526518634925
 20
-158.4486406929721
  0
HATCH
  5
72D
330
20
100
AcDbEntity
  8
Hach
100
AcDbHatch
 10
0.0
 20
0.0
 30
0.0
210
0.0
220
0.0
230
1.0
  2
ANSI31
 70
     0
 71
     1
 91
        1
 92
        1
 93
       12
 72
     1
 10
203.0286059999999
 20
163.519735
 11
203.8933249999999
 21
163.519735
 72
     1
 10
203.8933249999999
 20
163.519735
 11
203.8933249999999
 21
161.770832
 72
     2
 10
206.2302998502509
 20
161.770832
 40
2.336974850250953
 50
180.0
 51
270.078172975871
 73
     1
 72
     1
 10
206.2334883612277
 20
159.433859324913
 11
229.7039792671409
 21
159.438847
 72
     2
 10
229.8055698564518
 20
157.6298690681452
 40
1.811828304717169
 50
266.7856963604234
 51
348.8069748531936
 73
     0
 72
     1
 10
231.5829349999998
 20
157.981572
 11
231.582935
 21
156.524297
 72
     1
 10
231.582935
 20
156.524297
 11
230.70857
 21
156.524297
 72
     1
 10
230.70857
 20
156.524297
 11
230.70857
 21
157.690117
 72
     2
 10
229.8342049999999
 20
157.690117
 40
0.8743650000001251
 50
0.0
 51
89.9999999999907
 73
     1
 72
     1
 10
229.834205
 20
158.5644820000001
 11
206.516421
 21
158.5644820000002
 72
     2
 10
206.516421
 20
162.0984303239235
 40
3.533948323923338
 50
90.0
 51
170.7319473332307
 73
     0
 72
     1
 10
203.0286059999999
 20
161.5292754399642
 11
203.0286059999999
 21
163.519735
 97
        1
330
704
 75
     0
 76
     1
 52
90.0
 41
3.0
 77
     0
 78
     1
 53
135.0
 43
-24.09526518634925
 44
-158.4486406929721
 45
-0.2651650429449553
 46
-0.2651650429449553
 79
     0
 98
        1
 10
-24.09526518634925
 20
-158.4486406929721
  0
HATCH
  5
72F
330
20
100
AcDbEntity
  8
Hach
100
AcDbHatch
 10
0.0
 20
0.0
 30
0.0
210
0.0
220
0.0
230
1.0
  2
ANSI31
 70
     0
 71
     1
 91
        1
 92
        1
 93
       10
 72
     1
 10
205.351289
 20
156.057831
 11
205.3512893854166
 21
157.3986617400174
 72
     2
 10
206.5171104474822
 20
157.3986614049067
 40
1.165821062065721
 50
180.0000164694466
 51
269.9487177270007
 73
     0
 72
     1
 10
206.5160669858783
 20
158.5644820000001
 11
211.3346630389381
 21
158.5644820000001
 72
     2
 10
211.3346630389381
 20
157.690182
 40
0.8743000000001471
 50
269.9999999999982
 51
315.0082902542945
 73
     0
 72
     1
 10
211.9529759433907
 20
158.3083160001874
 11
213.141339
 21
157.119609
 72
     1
 10
213.141339
 20
157.119609
 11
211.670973
 21
157.3531860000001
 72
     1
 10
211.670973
 20
157.3531860000001
 11
211.334042
 21
157.690117
 72
     1
 10
211.334042
 20
157.690117
 11
206.2249659999999
 21
157.690117
 72
     1
 10
206.2249659999999
 20
157.690117
 11
206.2249659999999
 21
156.057831
 72
     1
 10
206.2249659999999
 20
156.057831
 11
205.351289
 21
156.057831
 97
        1
330
705
 75
     0
 76
     1
 52
90.0
 41
3.0
 77
     0
 78
     1
 53
135.0
 43
-24.09526518634925
 44
-158.4486406929721
 45
-0.2651650429449553
 46
-0.2651650429449553
 79
     0
 98
        1
 10
-24.09526518634925
 20
-158.4486406929721
  0
HATCH
  5
731
330
20
100
AcDbEntity
  8
Hach
100
AcDbHatch
 10
0.0
 20
0.0
 30
0.0
210
0.0
220
0.0
230
1.0
  2
ANSI31
 70
     0
 71
     1
 91
        1
 92
        1
 93
        7
 72
     1
 10
219.9240430000001
 20
158.5644820000002
 11
219.9240430000001
 21
157.690117
 72
     1
 10
219.9240430000001
 20
157.690117
 11
218.0209729999999
 21
157.690117
 72
     1
 10
218.0209729999999
 20
157.690117
 11
216.5664529999999
 21
156.2352530000002
 72
     1
 10
216.5664529999999
 20
156.2352530000002
 11
215.622497
 21
156.5280860000001
 72
     1
 10
215.622497
 20
156.5280860000001
 11
217.4028164587917
 21
158.3084054587916
 72
     2
 10
218.021039917583
 20
157.6901820000003
 40
0.8742999999998687
 50
225.0000000000027
 51
270.0000000000056
 73
     0
 72
     1
 10
218.0210399175831
 20
158.5644820000001
 11
219.9240430000001
 21
158.5644820000001
 97
        1
330
706
 75
     0
 76
     1
 52
90.0
 41
3.0
 77
     0
 78
     1
 53
135.0
 43
-24.09526518634925
 44
-158.4486406929721
 45
-0.2651650429449553
 46
-0.2651650429449553
 79
     0
 98
        1
 10
-24.09526518634925
 20
-158.4486406929721
  0
LWPOLYLINE
  5
7A4
330
20
100
AcDbEntity
  8
waku
100
AcDbPolyline
 90
        4
 70
     1
 43
0.0
 10
-0.0000000000001137
 20
192.397042
 10
277.0581959999999
 20
192.397042
 10
277.0581959999999
 20
0.0
 10
-0.0000000000001137
 20
0.0
  0
LWPOLYLINE
  5
7A5
330
20
100
AcDbEntity
  8
waku
100
AcDbPolyline
 90
        4
 70
     1
 43
0.0
 10
0.0
 20
0.0
 10
277.0581959999997
 20
0.0
 10
277.0581959999997
 20
22.38140700000002
 10
0.0
 20
22.38140700000002
  0
LINE
  5
7AD
330
20
100
AcDbEntity
  8
waku
 62
     7
100
AcDbLine
 10
29.84141699999993
 20
22.38140800000004
 30
0.0
 11
29.84141699999993
 21
0.0000000000000391
 31
0.0
  0
LINE
  5
7AE
330
20
100
AcDbEntity
  8
waku
 62
     7
100
AcDbLine
 10
59.6833509999999
 20
22.38140800000004
 30
0.0
 11
59.6833509999999
 21
0.0000000000000391
 31
0.0
  0
LINE
  5
7AF
330
20
100
AcDbEntity
  8
waku
 62
     7
100
AcDbLine
 10
104.4458219999999
 20
22.38140800000004
 30
0.0
 11
104.4458219999999
 21
0.0000000000000391
 31
0.0
  0
LINE
  5
7B0
330
20
100
AcDbEntity
  8
waku
 62
     7
100
AcDbLine
 10
119.3668749999999
 20
22.38140800000004
 30
0.0
 11
119.3668749999999
 21
0.0000000000000391
 31
0.0
  0
LINE
  5
7B1
330
20
100
AcDbEntity
  8
waku
 62
     7
100
AcDbLine
 10
-0.0000000000000995
 20
16.41312400000003
 30
0.0
 11
104.4458219999999
 21
16.41312400000003
 31
0.0
  0
LINE
  5
7B2
330
20
100
AcDbEntity
  8
waku
  6
AI9-LTYPE2
 62
     7
100
AcDbLine
 10
225.9019739999999
 20
11.19104900000004
 30
0.0
 11
119.3668749999999
 21
11.19104900000004
 31
0.0
  0
LINE
  5
7B3
330
20
100
AcDbEntity
  8
waku
  6
AI9-LTYPE2
 62
     7
100
AcDbLine
 10
225.9019739999999
 20
16.48753800000003
 30
0.0
 11
119.3668749999999
 21
16.48753800000003
 31
0.0
  0
LINE
  5
7B4
330
20
100
AcDbEntity
  8
waku
  6
AI9-LTYPE2
 62
     7
100
AcDbLine
 10
225.9019739999999
 20
5.565208000000039
 30
0.0
 11
119.3668749999999
 21
5.565208000000039
 31
0.0
  0
LWPOLYLINE
  5
7B5
330
20
100
AcDbEntity
  8
hyou
100
AcDbPolyline
 90
        4
 70
     1
 43
0.0
 10
2.429135999999981
 20
59.10130300000012
 10
183.6983396548832
 20
59.10130300000012
 10
183.6983396548832
 20
24.33236500000004
 10
2.429135999999981
 20
24.33236500000004
  0
LWPOLYLINE
  5
7B9
330
20
100
AcDbEntity
  8
hyou
100
AcDbPolyline
 90
        4
 70
     1
 43
0.0
 10
208.7092239999999
 20
82.37567900000001
 10
275.3818119999999
 20
82.37567900000001
 10
275.3818119999999
 20
24.24038100000002
 10
208.7092239999999
 20
24.24038100000001
  0
HATCH
  5
7BC
330
20
100
AcDbEntity
  8
Hach
100
AcDbHatch
 10
0.0
 20
0.0
 30
0.0
210
0.0
220
0.0
230
1.0
  2
ANSI31
 70
     0
 71
     1
 91
        1
 92
        1
 93
       10
 72
     1
 10
206.2249659999999
 20
106.2748229999999
 11
205.351289
 21
106.2748229999999
 72
     1
 10
205.351289
 20
106.2748229999999
 11
205.3512892215717
 21
104.9333736812618
 72
     2
 10
206.5164918088364
 20
104.9333738737221
 40
1.165202587264717
 50
180.0000094637345
 51
269.9965023680663
 73
     1
 72
     1
 10
206.5164206788193
 20
103.7681712886285
 11
211.3340422065971
 21
103.7681712886285
 72
     2
 10
211.3340422065971
 20
104.6448088466644
 40
0.8766375580359522
 50
270.0000000000037
 51
314.8949496710449
 73
     1
 72
     1
 10
211.9527809999999
 20
104.023797
 11
213.141339
 21
105.2137330000001
 72
     1
 10
213.141339
 20
105.2137330000001
 11
211.6700398741428
 21
104.9792209687363
 72
     1
 10
211.6700398741428
 20
104.9792209687363
 11
211.334042
 21
104.6425370000002
 72
     1
 10
211.334042
 20
104.6425370000002
 11
206.2249659999999
 21
104.6425370000002
 72
     1
 10
206.2249659999999
 20
104.6425370000002
 11
206.2249659999999
 21
106.2748229999999
 97
        1
330
708
 75
     0
 76
     1
 52
0.0
 41
3.0
 77
     0
 78
     1
 53
45.0
 43
0.0
 44
0.0
 45
-0.2651650429449553
 46
0.2651650429449553
 79
     0
 98
        1
 10
0.0
 20
0.0
  0
HATCH
  5
7BE
330
20
100
AcDbEntity
  8
Hach
100
AcDbHatch
 10
0.0
 20
0.0
 30
0.0
210
0.0
220
0.0
230
1.0
  2
ANSI31
 70
     0
 71
     1
 91
        1
 92
        1
 93
        7
 72
     1
 10
216.5664529999999
 20
106.0974
 11
215.6230900192734
 21
105.8046626363246
 72
     1
 10
215.6230900192734
 20
105.8046626363246
 11
217.402922
 21
104.023797
 72
     2
 10
218.0198056729897
 20
104.6403226194405
 40
0.8721521114047423
 50
224.9833672757625
 51
270.0766573496068
 73
     1
 72
     1
 10
218.0209725451387
 20
103.7681712886285
 11
219.9240430000001
 21
103.7681709999999
 72
     1
 10
219.9240430000001
 20
103.7681709999999
 11
219.9240430000001
 21
104.6425370000002
 72
     1
 10
219.9240430000001
 20
104.6425370000002
 11
218.0251069999999
 21
104.6425370000002
 72
     1
 10
218.0251069999999
 20
104.6425370000002
 11
216.5664529999999
 21
106.0974
 97
        1
330
709
 75
     0
 76
     1
 52
0.0
 41
3.0
 77
     0
 78
     1
 53
45.0
 43
0.0
 44
0.0
 45
-0.2651650429449553
 46
0.2651650429449553
 79
     0
 98
        1
 10
0.0
 20
0.0
  0
INSERT
  5
7CC
330
20
100
AcDbEntity
  8
Dim
100
AcDbBlockReference
  2
_Open30
 10
114.9221839999999
 20
125.6472840000001
 30
0.0
 41
3.599999999999999
 42
3.599999999999999
 43
3.599999999999999
 50
135.677162363656
  0
LWPOLYLINE
  5
7CD
330
20
100
AcDbEntity
  8
Dim
100
AcDbPolyline
 90
        4
 70
     0
 43
0.0
 10
117.4976754589371
 20
123.1319622025075
 10
122.2068379999998
 20
118.532817
 10
122.9695310260732
 20
118.532817
 10
137.5695310260732
 20
118.532817
  0
INSERT
  5
7CE
330
20
100
AcDbEntity
  8
Dim
100
AcDbBlockReference
  2
_Open30
 10
168.3488969999999
 20
156.464007
 30
0.0
 41
3.599999999999999
 42
3.599999999999999
 43
3.599999999999999
 50
310.6909113301811
1001
ACAD
1000
DSTYLE
1002
{
1070
   147
1040
0.05
1070
    77
1070
     0
1002
}
  0
LWPOLYLINE
  5
7CF
330
20
100
AcDbEntity
  8
Dim
100
AcDbPolyline
 90
        2
 70
     0
 43
0.0
 10
166.0017757143964
 20
159.1936629619606
 10
149.3729787973911
 20
178.532627217089
1001
ACAD
1000
DSTYLE
1002
{
1070
   147
1040
0.05
1070
    77
1070
     0
1002
}
  0
INSERT
  5
7D0
330
20
100
AcDbEntity
  8
Dim
100
AcDbBlockReference
  2
_Open30
 10
220.5496730000001
 20
148.3911150000001
 30
0.0
 41
3.599999999999999
 42
3.599999999999999
 43
3.599999999999999
 50
254.1565247917418
1001
ACAD
1000
DSTYLE
1002
{
1070
    77
1070
     0
1002
}
  0
LWPOLYLINE
  5
7D1
330
20
100
AcDbEntity
  8
Dim
100
AcDbPolyline
 90
        2
 70
     0
 43
0.0
 10
221.5325100284283
 20
151.8543550112541
 10
225.616203561751
 20
166.2441372734471
1001
ACAD
1000
DSTYLE
1002
{
1070
    77
1070
     0
1002
}
  0
INSERT
  5
7D2
330
20
100
AcDbEntity
  8
Dim
100
AcDbBlockReference
  2
_Open30
 10
210.8283019999999
 20
102.517085
 30
0.0
 41
3.599999999999999
 42
3.599999999999999
 43
3.599999999999999
 50
119.7607593083986
1001
ACAD
1000
DSTYLE
1002
{
1070
   147
1040
0.05
1070
    77
1070
     0
1002
}
  0
LWPOLYLINE
  5
7D3
330
20
100
AcDbEntity
  8
Dim
100
AcDbPolyline
 90
        2
 70
     0
 43
0.0
 10
212.6152683078173
 20
99.39190477884066
 10
216.7776882964798
 20
92.11235364023252
1001
ACAD
1000
DSTYLE
1002
{
1070
   147
1040
0.05
1070
    77
1070
     0
1002
}
  0
INSERT
  5
7D4
330
20
100
AcDbEntity
  8
Dim
100
AcDbBlockReference
  2
_Open30
 10
197.7183359999999
 20
107.464759
 30
0.0
 41
3.599999999999999
 42
3.599999999999999
 43
3.599999999999999
 50
57.60084816872852
1001
ACAD
1000
DSTYLE
1002
{
1070
   147
1040
0.05
1070
    77
1070
     0
1002
}
  0
LWPOLYLINE
  5
7D5
330
20
100
AcDbEntity
  8
Dim
100
AcDbPolyline
 90
        2
 70
     0
 43
0.0
 10
195.7894045342216
 20
104.4251499132373
 10
180.2838561602897
 20
79.9915157645896
1001
ACAD
1000
DSTYLE
1002
{
1070
   147
1040
0.05
1070
    77
1070
     0
1002
}
  0
INSERT
  5
7D6
330
20
100
AcDbEntity
  8
Dim
100
AcDbBlockReference
  2
_Open30
 10
226.6964119999999
 20
128.821939
 30
0.0
 41
3.599999999999999
 42
3.599999999999999
 43
3.599999999999999
 50
104.8297522085125
  0
LWPOLYLINE
  5
7D7
330
20
100
AcDbEntity
  8
Dim
100
AcDbPolyline
 90
        4
 70
     0
 43
0.0
 10
227.6178239709918
 20
125.3418527970859
 10
236.6603928747567
 20
91.18892200000003
 10
236.7886110783364
 20
91.18892200000003
 10
264.6886110783364
 20
91.18892200000003
  0
ENDSEC
  0
SECTION
  2
OBJECTS
  0
DICTIONARY
  5
C
330
0
100
AcDbDictionary
281
     1
  3
ACAD_COLOR
350
1B
  3
ACAD_GROUP
350
D
  3
ACAD_LAYOUT
350
19
  3
ACAD_MATERIAL
350
1A
  3
ACAD_MLINESTYLE
350
16
  3
ACAD_PLOTSETTINGS
350
18
  3
ACAD_PLOTSTYLENAME
350
E
  3
ACDBHEADERROUNDTRIPXREC
350
7D9
  3
AcDbVariableDictionary
350
476
  0
DICTIONARY
  5
1B
102
{ACAD_REACTORS
330
C
102
}
330
C
100
AcDbDictionary
281
     1
  0
DICTIONARY
  5
D
102
{ACAD_REACTORS
330
C
102
}
330
C
100
AcDbDictionary
281
     1
  0
DICTIONARY
  5
19
102
{ACAD_REACTORS
330
C
102
}
330
C
100
AcDbDictionary
281
     1
  3
Model
350
23
  3
レイアウト1
350
1F
  0
DICTIONARY
  5
1A
102
{ACAD_REACTORS
330
C
102
}
330
C
100
AcDbDictionary
281
     1
  0
DICTIONARY
  5
16
102
{ACAD_REACTORS
330
C
102
}
330
C
100
AcDbDictionary
281
     1
  3
Standard
350
17
  0
DICTIONARY
  5
18
102
{ACAD_REACTORS
330
C
102
}
330
C
100
AcDbDictionary
281
     1
  0
ACDBDICTIONARYWDFLT
  5
E
102
{ACAD_REACTORS
330
C
102
}
330
C
100
AcDbDictionary
281
     1
  3
Normal
350
F
100
AcDbDictionaryWithDefault
340
F
  0
DICTIONARY
  5
7D9
102
{ACAD_REACTORS
330
C
102
}
330
C
100
AcDbDictionary
281
     1
  3
COLORDICT
350
7DB
  3
MATERIALDICT
350
7DA
  0
DICTIONARY
  5
476
102
{ACAD_REACTORS
330
C
102
}
330
C
100
AcDbDictionary
281
     1
  3
DIMASSOC
350
477
  3
PROJECTNAME
350
478
  0
LAYOUT
  5
23
102
{ACAD_XDICTIONARY
360
7DE
102
}
102
{ACAD_REACTORS
330
19
102
}
330
19
100
AcDbPlotSettings
  1

  2
Microsoft Office Document Image Writer
  4

  6

 40
0.0
 41
0.0
 42
0.0
 43
0.0
 44
0.0
 45
0.0
 46
0.0
 47
0.0
 48
0.0
 49
0.0
140
0.0
141
0.0
142
1.0
143
1.0
 70
  1712
 72
     0
 73
     0
 74
     0
  7

 75
     0
147
1.0
148
0.0
149
0.0
100
AcDbLayout
  1
Model
 70
     1
 71
     0
 10
0.0
 20
0.0
 11
12.0
 21
9.0
 12
0.0
 22
0.0
 32
0.0
 14
0.0
 24
0.0
 34
0.0
 15
0.0
 25
0.0
 35
0.0
146
0.0
 13
0.0
 23
0.0
 33
0.0
 16
1.0
 26
0.0
 36
0.0
 17
0.0
 27
1.0
 37
0.0
 76
     0
330
20
  0
LAYOUT
  5
1F
102
{ACAD_XDICTIONARY
360
7DC
102
}
102
{ACAD_REACTORS
330
19
102
}
330
19
100
AcDbPlotSettings
  1

  2
Microsoft Office Document Image Writer
  4

  6

 40
0.0
 41
0.0
 42
0.0
 43
0.0
 44
0.0
 45
0.0
 46
0.0
 47
0.0
 48
0.0
 49
0.0
140
0.0
141
0.0
142
1.0
143
1.0
 70
   688
 72
     0
 73
     0
 74
     5
  7

 75
    16
147
1.0
148
0.0
149
0.0
100
AcDbLayout
  1
レイアウト1
 70
     1
 71
     1
 10
0.0
 20
0.0
 11
12.0
 21
9.0
 12
0.0
 22
0.0
 32
0.0
 14
1.000000000000000E+20
 24
1.000000000000000E+20
 34
1.000000000000000E+20
 15
-1.000000000000000E+20
 25
-1.000000000000000E+20
 35
-1.000000000000000E+20
146
0.0
 13
0.0
 23
0.0
 33
0.0
 16
1.0
 26
0.0
 36
0.0
 17
0.0
 27
1.0
 37
0.0
 76
     0
330
1C
  0
MLINESTYLE
  5
17
102
{ACAD_REACTORS
330
16
102
}
330
16
100
AcDbMlineStyle
  2
STANDARD
 70
     0
  3

 62
   256
 51
90.0
 52
90.0
 71
     2
 49
0.5
 62
   256
  6
BYLAYER
 49
-0.5
 62
   256
  6
BYLAYER
  0
ACDBPLACEHOLDER
  5
F
102
{ACAD_REACTORS
330
E
102
}
330
E
  0
XRECORD
  5
7DB
102
{ACAD_REACTORS
330
7D9
102
}
330
7D9
100
AcDbXrecord
280
     1
340
1B
  0
XRECORD
  5
7DA
102
{ACAD_REACTORS
330
7D9
102
}
330
7D9
100
AcDbXrecord
280
     1
340
1A
  0
DICTIONARYVAR
  5
477
102
{ACAD_REACTORS
330
476
102
}
330
476
100
DictionaryVariables
280
     0
  1
1
  0
DICTIONARYVAR
  5
478
102
{ACAD_REACTORS
330
476
102
}
330
476
100
DictionaryVariables
280
     0
  1

  0
DICTIONARY
  5
7DE
330
23
100
AcDbDictionary
280
     1
281
     1
  3
ACAD_XREC_ROUNDTRIP
360
7DF
  0
DICTIONARY
  5
7DC
330
1F
100
AcDbDictionary
280
     1
281
     1
  3
ACAD_XREC_ROUNDTRIP
360
7DD
  0
XRECORD
  5
7DF
102
{ACAD_REACTORS
330
7DE
102
}
330
7DE
100
AcDbXrecord
280
     1
102
SHADEPLOT
 70
     0
102
SHADEPLOTRESLEVEL
 70
     2
102
SHADEPLOTCUSTOMDPI
 70
   300
  0
XRECORD
  5
7DD
102
{ACAD_REACTORS
330
7DC
102
}
330
7DC
100
AcDbXrecord
280
     1
102
SHADEPLOT
 70
     0
102
SHADEPLOTRESLEVEL
 70
     2
102
SHADEPLOTCUSTOMDPI
 70
   300
  0
ENDSEC
  0
EOF
