  0
SECTION
  2
HEADER
  9
$ACADVER
  1
AC1015
  9
$ACADMAINTVER
 70
    20
  9
$DWGCODEPAGE
  3
ANSI_932
  9
$INSBASE
 10
0.0
 20
0.0
 30
0.0
  9
$EXTMIN
 10
0.0
 20
0.0
 30
0.0
  9
$EXTMAX
 10
406.0
 20
283.9999999999999
 30
0.0
  9
$LIMMIN
 10
0.0
 20
0.0
  9
$LIMMAX
 10
841.0
 20
594.0
  9
$ORTHOMODE
 70
     1
  9
$REGENMODE
 70
     1
  9
$FILLMODE
 70
     1
  9
$QTEXTMODE
 70
     0
  9
$MIRRTEXT
 70
     0
  9
$LTSCALE
 40
1.0
  9
$ATTMODE
 70
     1
  9
$TEXTSIZE
 40
0.2
  9
$TRACEWID
 40
0.05
  9
$TEXTSTYLE
  7
STANDARD
  9
$CLAYER
  8
hyou
  9
$CELTYPE
  6
ByLayer
  9
$CECOLOR
 62
   256
  9
$CELTSCALE
 40
1.0
  9
$DISPSILH
 70
     0
  9
$DIMSCALE
 40
20.0
  9
$DIMASZ
 40
0.18
  9
$DIMEXO
 40
0.0625
  9
$DIMDLI
 40
0.38
  9
$DIMRND
 40
0.0
  9
$DIMDLE
 40
0.0
  9
$DIMEXE
 40
0.1
  9
$DIMTP
 40
0.0
  9
$DIMTM
 40
0.0
  9
$DIMTXT
 40
0.3
  9
$DIMCEN
 40
0.09
  9
$DIMTSZ
 40
0.0
  9
$DIMTOL
 70
     0
  9
$DIMLIM
 70
     0
  9
$DIMTIH
 70
     0
  9
$DIMTOH
 70
     0
  9
$DIMSE1
 70
     0
  9
$DIMSE2
 70
     0
  9
$DIMTAD
 70
     1
  9
$DIMZIN
 70
     0
  9
$DIMBLK
  1
Open30
  9
$DIMASO
 70
     1
  9
$DIMSHO
 70
     1
  9
$DIMPOST
  1

  9
$DIMAPOST
  1

  9
$DIMALT
 70
     0
  9
$DIMALTD
 70
     2
  9
$DIMALTF
 40
25.4
  9
$DIMLFAC
 40
1.0
  9
$DIMTOFL
 70
     0
  9
$DIMTVP
 40
0.0
  9
$DIMTIX
 70
     0
  9
$DIMSOXD
 70
     0
  9
$DIMSAH
 70
     0
  9
$DIMBLK1
  1

  9
$DIMBLK2
  1

  9
$DIMSTYLE
  2
1-1
  9
$DIMCLRD
 70
     0
  9
$DIMCLRE
 70
     0
  9
$DIMCLRT
 70
     0
  9
$DIMTFAC
 40
1.0
  9
$DIMGAP
 40
0.05
  9
$DIMJUST
 70
     0
  9
$DIMSD1
 70
     0
  9
$DIMSD2
 70
     0
  9
$DIMTOLJ
 70
     1
  9
$DIMTZIN
 70
     0
  9
$DIMALTZ
 70
     0
  9
$DIMALTTZ
 70
     0
  9
$DIMUPT
 70
     0
  9
$DIMDEC
 70
     4
  9
$DIMTDEC
 70
     4
  9
$DIMALTU
 70
     2
  9
$DIMALTTD
 70
     2
  9
$DIMTXSTY
  7
STANDARD
  9
$DIMAUNIT
 70
     0
  9
$DIMADEC
 70
     0
  9
$DIMALTRND
 40
0.0
  9
$DIMAZIN
 70
     0
  9
$DIMDSEP
 70
    46
  9
$DIMATFIT
 70
     3
  9
$DIMFRAC
 70
     0
  9
$DIMLDRBLK
  1
Open30
  9
$DIMLUNIT
 70
     2
  9
$DIMLWD
 70
    -2
  9
$DIMLWE
 70
    -2
  9
$DIMTMOVE
 70
     0
  9
$LUNITS
 70
     2
  9
$LUPREC
 70
     4
  9
$SKETCHINC
 40
0.1
  9
$FILLETRAD
 40
0.0
  9
$AUNITS
 70
     0
  9
$AUPREC
 70
     0
  9
$MENU
  1
.
  9
$ELEVATION
 40
0.0
  9
$PELEVATION
 40
0.0
  9
$THICKNESS
 40
0.0
  9
$LIMCHECK
 70
     0
  9
$CHAMFERA
 40
0.0
  9
$CHAMFERB
 40
0.0
  9
$CHAMFERC
 40
0.0
  9
$CHAMFERD
 40
0.0
  9
$SKPOLY
 70
     0
  9
$TDCREATE
 40
2455166.579312870
  9
$TDUCREATE
 40
2455166.204312870
  9
$TDUPDATE
 40
2455236.627216494
  9
$TDUUPDATE
 40
2455236.252216493
  9
$TDINDWG
 40
0.0621310648
  9
$TDUSRTIMER
 40
0.0621182407
  9
$USRTIMER
 70
     1
  9
$ANGBASE
 50
0.0
  9
$ANGDIR
 70
     0
  9
$PDMODE
 70
     0
  9
$PDSIZE
 40
0.0
  9
$PLINEWID
 40
0.0
  9
$SPLFRAME
 70
     0
  9
$SPLINETYPE
 70
     6
  9
$SPLINESEGS
 70
     8
  9
$HANDSEED
  5
44D
  9
$SURFTAB1
 70
     6
  9
$SURFTAB2
 70
     6
  9
$SURFTYPE
 70
     6
  9
$SURFU
 70
     6
  9
$SURFV
 70
     6
  9
$UCSBASE
  2

  9
$UCSNAME
  2

  9
$UCSORG
 10
0.0
 20
0.0
 30
0.0
  9
$UCSXDIR
 10
1.0
 20
0.0
 30
0.0
  9
$UCSYDIR
 10
0.0
 20
1.0
 30
0.0
  9
$UCSORTHOREF
  2

  9
$UCSORTHOVIEW
 70
     0
  9
$UCSORGTOP
 10
0.0
 20
0.0
 30
0.0
  9
$UCSORGBOTTOM
 10
0.0
 20
0.0
 30
0.0
  9
$UCSORGLEFT
 10
0.0
 20
0.0
 30
0.0
  9
$UCSORGRIGHT
 10
0.0
 20
0.0
 30
0.0
  9
$UCSORGFRONT
 10
0.0
 20
0.0
 30
0.0
  9
$UCSORGBACK
 10
0.0
 20
0.0
 30
0.0
  9
$PUCSBASE
  2

  9
$PUCSNAME
  2

  9
$PUCSORG
 10
0.0
 20
0.0
 30
0.0
  9
$PUCSXDIR
 10
1.0
 20
0.0
 30
0.0
  9
$PUCSYDIR
 10
0.0
 20
1.0
 30
0.0
  9
$PUCSORTHOREF
  2

  9
$PUCSORTHOVIEW
 70
     0
  9
$PUCSORGTOP
 10
0.0
 20
0.0
 30
0.0
  9
$PUCSORGBOTTOM
 10
0.0
 20
0.0
 30
0.0
  9
$PUCSORGLEFT
 10
0.0
 20
0.0
 30
0.0
  9
$PUCSORGRIGHT
 10
0.0
 20
0.0
 30
0.0
  9
$PUCSORGFRONT
 10
0.0
 20
0.0
 30
0.0
  9
$PUCSORGBACK
 10
0.0
 20
0.0
 30
0.0
  9
$USERI1
 70
     0
  9
$USERI2
 70
     0
  9
$USERI3
 70
     0
  9
$USERI4
 70
     0
  9
$USERI5
 70
     0
  9
$USERR1
 40
0.0
  9
$USERR2
 40
0.0
  9
$USERR3
 40
0.0
  9
$USERR4
 40
0.0
  9
$USERR5
 40
0.0
  9
$WORLDVIEW
 70
     1
  9
$SHADEDGE
 70
     3
  9
$SHADEDIF
 70
    70
  9
$TILEMODE
 70
     1
  9
$MAXACTVP
 70
    64
  9
$PINSBASE
 10
0.0
 20
0.0
 30
0.0
  9
$PLIMCHECK
 70
     0
  9
$PEXTMIN
 10
1.000000000000000E+20
 20
1.000000000000000E+20
 30
1.000000000000000E+20
  9
$PEXTMAX
 10
-1.000000000000000E+20
 20
-1.000000000000000E+20
 30
-1.000000000000000E+20
  9
$PLIMMIN
 10
0.0
 20
0.0
  9
$PLIMMAX
 10
12.0
 20
9.0
  9
$UNITMODE
 70
     0
  9
$VISRETAIN
 70
     1
  9
$PLINEGEN
 70
     0
  9
$PSLTSCALE
 70
     1
  9
$TREEDEPTH
 70
  3020
  9
$CMLSTYLE
  2
Standard
  9
$CMLJUST
 70
     0
  9
$CMLSCALE
 40
1.0
  9
$PROXYGRAPHICS
 70
     1
  9
$MEASUREMENT
 70
     0
  9
$CELWEIGHT
370
    -1
  9
$ENDCAPS
280
     0
  9
$JOINSTYLE
280
     0
  9
$LWDISPLAY
290
     0
  9
$INSUNITS
 70
     0
  9
$HYPERLINKBASE
  1

  9
$STYLESHEET
  1

  9
$XEDIT
290
     1
  9
$CEPSNTYPE
380
     0
  9
$PSTYLEMODE
290
     1
  9
$FINGERPRINTGUID
  2
{50B83531-B29D-4AD8-8291-D8A9AE4DB618}
  9
$VERSIONGUID
  2
{46F2761B-4514-4967-9DC4-1B9383A39776}
  9
$EXTNAMES
290
     1
  9
$PSVPSCALE
 40
0.0
  9
$OLESTARTUP
290
     0
  0
ENDSEC
  0
SECTION
  2
CLASSES
  0
CLASS
  1
ACDBDICTIONARYWDFLT
  2
AcDbDictionaryWithDefault
  3
ObjectDBX Classes
 90
        0
280
     0
281
     0
  0
CLASS
  1
DICTIONARYVAR
  2
AcDbDictionaryVar
  3
ObjectDBX Classes
 90
        0
280
     0
281
     0
  0
CLASS
  1
ACDBPLACEHOLDER
  2
AcDbPlaceHolder
  3
ObjectDBX Classes
 90
        0
280
     0
281
     0
  0
CLASS
  1
LAYOUT
  2
AcDbLayout
  3
ObjectDBX Classes
 90
        0
280
     0
281
     0
  0
ENDSEC
  0
SECTION
  2
TABLES
  0
TABLE
  2
VPORT
  5
8
330
0
100
AcDbSymbolTable
 70
     2
  0
VPORT
  5
445
330
8
100
AcDbSymbolTableRecord
100
AcDbViewportTableRecord
  2
*Active
 70
     0
 10
0.0
 20
0.0
 11
1.0
 21
1.0
 12
277.7366707627178
 22
141.9965846028729
 13
0.0
 23
0.0
 14
1.0
 24
1.0
 15
0.0
 25
0.0
 16
0.0
 26
0.0
 36
1.0
 17
0.0
 27
0.0
 37
0.0
 40
322.0710095236283
 41
1.276315789473684
 42
50.0
 43
0.0
 44
0.0
 50
0.0
 51
0.0
 71
     0
 72
   100
 73
     1
 74
     1
 75
     0
 76
     0
 77
     0
 78
     0
281
     0
 65
     1
110
0.0
120
0.0
130
0.0
111
1.0
121
0.0
131
0.0
112
0.0
122
1.0
132
0.0
 79
     0
146
0.0
  0
ENDTAB
  0
TABLE
  2
LTYPE
  5
5
330
0
100
AcDbSymbolTable
 70
     3
  0
LTYPE
  5
13
330
5
100
AcDbSymbolTableRecord
100
AcDbLinetypeTableRecord
  2
ByBlock
 70
     0
  3

 72
    65
 73
     0
 40
0.0
  0
LTYPE
  5
14
330
5
100
AcDbSymbolTableRecord
100
AcDbLinetypeTableRecord
  2
ByLayer
 70
     0
  3

 72
    65
 73
     0
 40
0.0
  0
LTYPE
  5
15
330
5
100
AcDbSymbolTableRecord
100
AcDbLinetypeTableRecord
  2
CONTINUOUS
 70
     0
  3
実線
 72
    65
 73
     0
 40
0.0
  0
LTYPE
  5
28
330
5
100
AcDbSymbolTableRecord
100
AcDbLinetypeTableRecord
  2
CENTER2
 70
     0
  3
----------  --  ----------  --  
 72
    65
 73
     4
 40
20.0
 49
12.5
 74
     0
 49
-2.5
 74
     0
 49
2.5
 74
     0
 49
-2.5
 74
     0
  0
LTYPE
  5
2B
330
5
100
AcDbSymbolTableRecord
100
AcDbLinetypeTableRecord
  2
DOT
 70
     0
  3
-   -   -   -   -   -   -   -   
 72
    65
 73
     2
 40
2.5
 49
0.625
 74
     0
 49
-1.875
 74
     0
  0
ENDTAB
  0
TABLE
  2
LAYER
  5
2
330
0
100
AcDbSymbolTable
 70
     6
  0
LAYER
  5
10
330
2
100
AcDbSymbolTableRecord
100
AcDbLayerTableRecord
  2
0
 70
     0
 62
     2
  6
CONTINUOUS
370
    -3
390
F
  0
LAYER
  5
2BE
330
2
100
AcDbSymbolTableRecord
100
AcDbLayerTableRecord
  2
Defpoints
 70
     0
 62
   113
  6
CONTINUOUS
290
     0
370
    -3
390
F
  0
LAYER
  5
2BF
330
2
100
AcDbSymbolTableRecord
100
AcDbLayerTableRecord
  2
Dim
 70
     0
 62
     4
  6
CONTINUOUS
370
    -3
390
F
  0
LAYER
  5
3E7
330
2
100
AcDbSymbolTableRecord
100
AcDbLayerTableRecord
  2
waku
 70
     0
 62
     7
  6
CONTINUOUS
370
    -3
390
F
  0
LAYER
  5
3E8
330
2
100
AcDbSymbolTableRecord
100
AcDbLayerTableRecord
  2
moji
 70
     0
 62
     3
  6
CONTINUOUS
370
    -3
390
F
  0
LAYER
  5
3E9
330
2
100
AcDbSymbolTableRecord
100
AcDbLayerTableRecord
  2
hyou
 70
     0
 62
     4
  6
CONTINUOUS
370
    -3
390
F
  0
ENDTAB
  0
TABLE
  2
STYLE
  5
3
330
0
100
AcDbSymbolTable
 70
     1
  0
STYLE
  5
11
330
3
100
AcDbSymbolTableRecord
100
AcDbTextStyleTableRecord
  2
STANDARD
 70
     0
 40
0.0
 41
1.0
 50
0.0
 71
     0
 42
0.2
  3
txt
  4
bigfont.shx
  0
ENDTAB
  0
TABLE
  2
VIEW
  5
6
330
0
100
AcDbSymbolTable
 70
     0
  0
ENDTAB
  0
TABLE
  2
UCS
  5
7
330
0
100
AcDbSymbolTable
 70
     0
  0
ENDTAB
  0
TABLE
  2
APPID
  5
9
330
0
100
AcDbSymbolTable
 70
     1
  0
APPID
  5
12
330
9
100
AcDbSymbolTableRecord
100
AcDbRegAppTableRecord
  2
ACAD
 70
     0
  0
ENDTAB
  0
TABLE
  2
DIMSTYLE
  5
A
330
0
100
AcDbSymbolTable
 70
     2
100
AcDbDimStyleTable
 71
     2
340
2C0
340
2A7
  0
DIMSTYLE
105
2A7
330
A
100
AcDbSymbolTableRecord
100
AcDbDimStyleTableRecord
  2
Standard
 70
     0
340
11
  0
DIMSTYLE
105
2C0
102
{ACAD_REACTORS
330
2DC
330
2FE
330
314
330
321
330
32E
330
373
330
372
102
}
330
A
100
AcDbSymbolTableRecord
100
AcDbDimStyleTableRecord
  2
1-1
 70
     0
 40
20.0
 44
0.1
 73
     0
 74
     0
 77
     1
140
0.3
147
0.05
340
11
341
2AC
342
2AC
  0
ENDTAB
  0
TABLE
  2
BLOCK_RECORD
  5
1
330
0
100
AcDbSymbolTable
 70
     6
  0
BLOCK_RECORD
  5
20
330
1
100
AcDbSymbolTableRecord
100
AcDbBlockTableRecord
  2
*Model_Space
340
23
  0
BLOCK_RECORD
  5
1C
330
1
100
AcDbSymbolTableRecord
100
AcDbBlockTableRecord
  2
*Paper_Space
340
1F
  0
BLOCK_RECORD
  5
2AC
330
1
100
AcDbSymbolTableRecord
100
AcDbBlockTableRecord
  2
_Open30
340
0
102
{BLKREFS
331
3FE
331
3FF
331
407
331
408
331
410
331
411
331
419
331
41A
331
422
331
423
331
435
331
437
331
439
331
43B
331
43D
331
43F
331
441
331
443
102
}
  0
BLOCK_RECORD
  5
2DD
330
1
100
AcDbSymbolTableRecord
100
AcDbBlockTableRecord
  2
*D1
340
0
  0
BLOCK_RECORD
  5
2FF
330
1
100
AcDbSymbolTableRecord
100
AcDbBlockTableRecord
  2
*D2
340
0
  0
BLOCK_RECORD
  5
315
330
1
100
AcDbSymbolTableRecord
100
AcDbBlockTableRecord
  2
*D3
340
0
  0
BLOCK_RECORD
  5
322
330
1
100
AcDbSymbolTableRecord
100
AcDbBlockTableRecord
  2
*D4
340
0
  0
BLOCK_RECORD
  5
32F
330
1
100
AcDbSymbolTableRecord
100
AcDbBlockTableRecord
  2
*D5
340
0
  0
ENDTAB
  0
ENDSEC
  0
SECTION
  2
BLOCKS
  0
BLOCK
  5
21
330
20
100
AcDbEntity
  8
0
100
AcDbBlockBegin
  2
*Model_Space
 70
     0
 10
0.0
 20
0.0
 30
0.0
  3
*Model_Space
  1

  0
ENDBLK
  5
22
330
20
100
AcDbEntity
  8
0
100
AcDbBlockEnd
  0
BLOCK
  5
1D
330
1C
100
AcDbEntity
 67
     1
  8
0
100
AcDbBlockBegin
  2
*Paper_Space
 70
     0
 10
0.0
 20
0.0
 30
0.0
  3
*Paper_Space
  1

  0
ENDBLK
  5
1E
330
1C
100
AcDbEntity
 67
     1
  8
0
100
AcDbBlockEnd
  0
BLOCK
  5
2AD
330
2AC
100
AcDbEntity
  8
0
100
AcDbBlockBegin
  2
_Open30
 70
     0
 10
0.0
 20
0.0
 30
0.0
  3
_Open30
  1

  0
LINE
  5
2AE
330
2AC
100
AcDbEntity
  8
0
  6
ByBlock
 62
     0
370
    -2
100
AcDbLine
 10
-1.0
 20
0.26794919
 30
0.0
 11
0.0
 21
0.0
 31
0.0
  0
LINE
  5
2AF
330
2AC
100
AcDbEntity
  8
0
  6
ByBlock
 62
     0
370
    -2
100
AcDbLine
 10
0.0
 20
0.0
 30
0.0
 11
-1.0
 21
-0.26794919
 31
0.0
  0
LINE
  5
2B0
330
2AC
100
AcDbEntity
  8
0
  6
ByBlock
 62
     0
370
    -2
100
AcDbLine
 10
0.0
 20
0.0
 30
0.0
 11
-1.0
 21
0.0
 31
0.0
  0
ENDBLK
  5
2B1
330
2AC
100
AcDbEntity
  8
0
100
AcDbBlockEnd
  0
BLOCK
  5
2E8
330
2DD
100
AcDbEntity
  8
0
100
AcDbBlockBegin
  2
*D1
 70
     1
 10
0.0
 20
0.0
 30
0.0
  3
*D1
  1

  0
LINE
  5
3FA
330
2DD
100
AcDbEntity
  8
Dim
 62
     0
370
    -2
100
AcDbLine
 10
294.94173
 20
229.76334
 30
0.0
 11
294.94173
 21
241.00653
 31
0.0
  0
LINE
  5
3FB
330
2DD
100
AcDbEntity
  8
Dim
 62
     0
370
    -2
100
AcDbLine
 10
301.9460699999998
 20
229.76334
 30
0.0
 11
301.9460699999998
 21
241.00653
 31
0.0
  0
LINE
  5
3FC
330
2DD
100
AcDbEntity
  8
Dim
 62
     0
370
    -2
100
AcDbLine
 10
291.34173
 20
239.00653
 30
0.0
 11
287.74173
 21
239.00653
 31
0.0
  0
LINE
  5
3FD
330
2DD
100
AcDbEntity
  8
Dim
 62
     0
370
    -2
100
AcDbLine
 10
305.5460699999998
 20
239.00653
 30
0.0
 11
309.1460699999998
 21
239.00653
 31
0.0
  0
INSERT
  5
3FE
330
2DD
100
AcDbEntity
  8
Dim
 62
     0
370
    -2
100
AcDbBlockReference
  2
_Open30
 10
294.94173
 20
239.00653
 30
0.0
 41
3.599999999999998
 42
3.599999999999998
 43
3.599999999999998
  0
INSERT
  5
3FF
330
2DD
100
AcDbEntity
  8
Dim
 62
     0
370
    -2
100
AcDbBlockReference
  2
_Open30
 10
301.9460699999998
 20
239.00653
 30
0.0
 41
3.599999999999998
 42
3.599999999999998
 43
3.599999999999998
 50
180.0
  0
MTEXT
  5
400
330
2DD
100
AcDbEntity
  8
Dim
 62
     0
100
AcDbMText
 10
298.4438999999999
 20
243.00653
 30
0.0
 40
6.0
 41
0.0
 71
     5
 72
     1
  1
\A1;Ｃ
 73
     1
 44
1.0
1001
ACAD
1000
MTEXTBEGIN
1070
    73
1070
     1
1070
    44
1040
1.0
1070
    74
1070
     0
1000
MTEXTEND
  0
POINT
  5
401
330
2DD
100
AcDbEntity
  8
Defpoints
 62
     0
100
AcDbPoint
 10
294.94173
 20
228.51334
 30
0.0
  0
POINT
  5
402
330
2DD
100
AcDbEntity
  8
Defpoints
 62
     0
100
AcDbPoint
 10
301.9460699999998
 20
228.51334
 30
0.0
  0
POINT
  5
403
330
2DD
100
AcDbEntity
  8
Defpoints
 62
     0
100
AcDbPoint
 10
301.9460699999998
 20
239.00653
 30
0.0
  0
ENDBLK
  5
2E9
330
2DD
100
AcDbEntity
  8
0
100
AcDbBlockEnd
  0
BLOCK
  5
309
330
2FF
100
AcDbEntity
  8
0
100
AcDbBlockBegin
  2
*D2
 70
     1
 10
0.0
 20
0.0
 30
0.0
  3
*D2
  1

  0
LINE
  5
404
330
2FF
100
AcDbEntity
  8
Dim
 62
     0
370
    -2
100
AcDbLine
 10
301.9460699999998
 20
229.76334
 30
0.0
 11
301.9460699999998
 21
241.00653
 31
0.0
  0
LINE
  5
405
330
2FF
100
AcDbEntity
  8
Dim
 62
     0
370
    -2
100
AcDbLine
 10
357.4460699999999
 20
168.02966
 30
0.0
 11
357.4460699999999
 21
241.00653
 31
0.0
  0
LINE
  5
406
330
2FF
100
AcDbEntity
  8
Dim
 62
     0
370
    -2
100
AcDbLine
 10
305.5460699999998
 20
239.00653
 30
0.0
 11
353.8460699999998
 21
239.00653
 31
0.0
  0
INSERT
  5
407
330
2FF
100
AcDbEntity
  8
Dim
 62
     0
370
    -2
100
AcDbBlockReference
  2
_Open30
 10
301.9460699999998
 20
239.00653
 30
0.0
 41
3.599999999999998
 42
3.599999999999998
 43
3.599999999999998
 50
180.0
  0
INSERT
  5
408
330
2FF
100
AcDbEntity
  8
Dim
 62
     0
370
    -2
100
AcDbBlockReference
  2
_Open30
 10
357.4460699999999
 20
239.00653
 30
0.0
 41
3.599999999999998
 42
3.599999999999998
 43
3.599999999999998
  0
MTEXT
  5
409
330
2FF
100
AcDbEntity
  8
Dim
 62
     0
100
AcDbMText
 10
329.6960699999999
 20
243.00653
 30
0.0
 40
6.0
 41
0.0
 71
     5
 72
     1
  1
\A1;Ｄ
 73
     1
 44
1.0
1001
ACAD
1000
MTEXTBEGIN
1070
    73
1070
     1
1070
    44
1040
1.0
1070
    74
1070
     0
1000
MTEXTEND
  0
POINT
  5
40A
330
2FF
100
AcDbEntity
  8
Defpoints
 62
     0
100
AcDbPoint
 10
301.9460699999998
 20
228.51334
 30
0.0
  0
POINT
  5
40B
330
2FF
100
AcDbEntity
  8
Defpoints
 62
     0
100
AcDbPoint
 10
357.4460699999999
 20
166.77966
 30
0.0
  0
POINT
  5
40C
330
2FF
100
AcDbEntity
  8
Defpoints
 62
     0
100
AcDbPoint
 10
357.4460699999999
 20
239.00653
 30
0.0
  0
ENDBLK
  5
30A
330
2FF
100
AcDbEntity
  8
0
100
AcDbBlockEnd
  0
BLOCK
  5
31F
330
315
100
AcDbEntity
  8
0
100
AcDbBlockBegin
  2
*D3
 70
     1
 10
0.0
 20
0.0
 30
0.0
  3
*D3
  1

  0
LINE
  5
40D
330
315
100
AcDbEntity
  8
Dim
 62
     0
370
    -2
100
AcDbLine
 10
301.9460699999998
 20
229.76334
 30
0.0
 11
301.9460699999998
 21
232.83507
 31
0.0
  0
LINE
  5
40E
330
315
100
AcDbEntity
  8
Dim
 62
     0
370
    -2
100
AcDbLine
 10
349.44607
 20
201.75861
 30
0.0
 11
349.44607
 21
232.83507
 31
0.0
  0
LINE
  5
40F
330
315
100
AcDbEntity
  8
Dim
 62
     0
370
    -2
100
AcDbLine
 10
305.5460699999998
 20
230.83507
 30
0.0
 11
345.84607
 21
230.83507
 31
0.0
  0
INSERT
  5
410
330
315
100
AcDbEntity
  8
Dim
 62
     0
370
    -2
100
AcDbBlockReference
  2
_Open30
 10
301.9460699999998
 20
230.83507
 30
0.0
 41
3.599999999999998
 42
3.599999999999998
 43
3.599999999999998
 50
180.0
  0
INSERT
  5
411
330
315
100
AcDbEntity
  8
Dim
 62
     0
370
    -2
100
AcDbBlockReference
  2
_Open30
 10
349.44607
 20
230.83507
 30
0.0
 41
3.599999999999998
 42
3.599999999999998
 43
3.599999999999998
  0
MTEXT
  5
412
330
315
100
AcDbEntity
  8
Dim
 62
     0
100
AcDbMText
 10
325.6960699999999
 20
234.8350700000001
 30
0.0
 40
6.0
 41
0.0
 71
     5
 72
     1
  1
\A1;Ｅ
 73
     1
 44
1.0
1001
ACAD
1000
MTEXTBEGIN
1070
    73
1070
     1
1070
    44
1040
1.0
1070
    74
1070
     0
1000
MTEXTEND
  0
POINT
  5
413
330
315
100
AcDbEntity
  8
Defpoints
 62
     0
100
AcDbPoint
 10
301.9460699999998
 20
228.51334
 30
0.0
  0
POINT
  5
414
330
315
100
AcDbEntity
  8
Defpoints
 62
     0
100
AcDbPoint
 10
349.44607
 20
200.50861
 30
0.0
  0
POINT
  5
415
330
315
100
AcDbEntity
  8
Defpoints
 62
     0
100
AcDbPoint
 10
349.44607
 20
230.83507
 30
0.0
  0
ENDBLK
  5
320
330
315
100
AcDbEntity
  8
0
100
AcDbBlockEnd
  0
BLOCK
  5
32C
330
322
100
AcDbEntity
  8
0
100
AcDbBlockBegin
  2
*D4
 70
     1
 10
0.0
 20
0.0
 30
0.0
  3
*D4
  1

  0
LINE
  5
416
330
322
100
AcDbEntity
  8
Dim
 62
     0
370
    -2
100
AcDbLine
 10
350.0822500000002
 20
205.50861
 30
0.0
 11
376.8632599999999
 21
205.50861
 31
0.0
  0
LINE
  5
417
330
322
100
AcDbEntity
  8
Dim
 62
     0
370
    -2
100
AcDbLine
 10
350.0822500000002
 20
108.50861
 30
0.0
 11
376.8632599999999
 21
108.50861
 31
0.0
  0
LINE
  5
418
330
322
100
AcDbEntity
  8
Dim
 62
     0
370
    -2
100
AcDbLine
 10
374.8632599999999
 20
201.90861
 30
0.0
 11
374.8632599999999
 21
112.10861
 31
0.0
  0
INSERT
  5
419
330
322
100
AcDbEntity
  8
Dim
 62
     0
370
    -2
100
AcDbBlockReference
  2
_Open30
 10
374.8632599999999
 20
205.50861
 30
0.0
 41
3.599999999999998
 42
3.599999999999998
 43
3.599999999999998
 50
90.0
  0
INSERT
  5
41A
330
322
100
AcDbEntity
  8
Dim
 62
     0
370
    -2
100
AcDbBlockReference
  2
_Open30
 10
374.8632599999999
 20
108.50861
 30
0.0
 41
3.599999999999998
 42
3.599999999999998
 43
3.599999999999998
 50
270.0
  0
MTEXT
  5
41B
330
322
100
AcDbEntity
  8
Dim
 62
     0
100
AcDbMText
 10
370.8632599999999
 20
157.00861
 30
0.0
 40
6.0
 41
0.0
 71
     5
 72
     1
  1
\A1;φ Ｂ
 11
0.0000000000000001
 21
1.0
 31
0.0
 73
     1
 44
1.0
1001
ACAD
1000
MTEXTBEGIN
1070
    73
1070
     1
1070
    44
1040
1.0
1070
    74
1070
     0
1000
MTEXTEND
  0
POINT
  5
41C
330
322
100
AcDbEntity
  8
Defpoints
 62
     0
100
AcDbPoint
 10
348.8322500000001
 20
205.50861
 30
0.0
  0
POINT
  5
41D
330
322
100
AcDbEntity
  8
Defpoints
 62
     0
100
AcDbPoint
 10
348.8322500000001
 20
108.50861
 30
0.0
  0
POINT
  5
41E
330
322
100
AcDbEntity
  8
Defpoints
 62
     0
100
AcDbPoint
 10
374.8632599999999
 20
108.50861
 30
0.0
  0
ENDBLK
  5
32D
330
322
100
AcDbEntity
  8
0
100
AcDbBlockEnd
  0
BLOCK
  5
339
330
32F
100
AcDbEntity
  8
0
100
AcDbBlockBegin
  2
*D5
 70
     1
 10
0.0
 20
0.0
 30
0.0
  3
*D5
  1

  0
LINE
  5
41F
330
32F
100
AcDbEntity
  8
Dim
 62
     0
370
    -2
100
AcDbLine
 10
296.0164299999999
 20
229.31154
 30
0.0
 11
253.6823699999998
 21
229.31154
 31
0.0
  0
LINE
  5
420
330
32F
100
AcDbEntity
  8
Dim
 62
     0
370
    -2
100
AcDbLine
 10
296.0164299999999
 20
84.70568
 30
0.0
 11
253.6823699999998
 21
84.70568000000001
 31
0.0
  0
LINE
  5
421
330
32F
100
AcDbEntity
  8
Dim
 62
     0
370
    -2
100
AcDbLine
 10
255.6823699999998
 20
225.71154
 30
0.0
 11
255.6823699999998
 21
88.30568000000003
 31
0.0
  0
INSERT
  5
422
330
32F
100
AcDbEntity
  8
Dim
 62
     0
370
    -2
100
AcDbBlockReference
  2
_Open30
 10
255.6823699999998
 20
229.31154
 30
0.0
 41
3.599999999999998
 42
3.599999999999998
 43
3.599999999999998
 50
90.0
  0
INSERT
  5
423
330
32F
100
AcDbEntity
  8
Dim
 62
     0
370
    -2
100
AcDbBlockReference
  2
_Open30
 10
255.6823699999998
 20
84.70568000000001
 30
0.0
 41
3.599999999999998
 42
3.599999999999998
 43
3.599999999999998
 50
270.0
  0
MTEXT
  5
424
330
32F
100
AcDbEntity
  8
Dim
 62
     0
100
AcDbMText
 10
251.6823699999998
 20
157.00861
 30
0.0
 40
6.0
 41
0.0
 71
     5
 72
     1
  1
\A1;φ Ａ
 11
0.0000000000000001
 21
1.0
 31
0.0
 73
     1
 44
1.0
1001
ACAD
1000
MTEXTBEGIN
1070
    73
1070
     1
1070
    44
1040
1.0
1070
    74
1070
     0
1000
MTEXTEND
  0
POINT
  5
425
330
32F
100
AcDbEntity
  8
Defpoints
 62
     0
100
AcDbPoint
 10
297.2664299999999
 20
229.31154
 30
0.0
  0
POINT
  5
426
330
32F
100
AcDbEntity
  8
Defpoints
 62
     0
100
AcDbPoint
 10
297.2664299999999
 20
84.70568
 30
0.0
  0
POINT
  5
427
330
32F
100
AcDbEntity
  8
Defpoints
 62
     0
100
AcDbPoint
 10
255.6823699999998
 20
84.70568000000001
 30
0.0
  0
ENDBLK
  5
33A
330
32F
100
AcDbEntity
  8
0
100
AcDbBlockEnd
  0
ENDSEC
  0
SECTION
  2
ENTITIES
  0
TEXT
  5
3C
330
20
100
AcDbEntity
  8
moji
100
AcDbText
 10
264.7627390694214
 20
25.08800981914442
 30
0.0
 40
2.5
  1
検 図
 41
0.855
100
AcDbText
  0
LINE
  5
3F
330
20
100
AcDbEntity
  8
0
100
AcDbLine
 10
70.35486999999999
 20
117.50861
 30
0.0
 11
133.2834
 21
117.50861
 31
0.0
  0
LINE
  5
40
330
20
100
AcDbEntity
  8
0
100
AcDbLine
 10
70.29137000000014
 20
120.50861
 30
0.0
 11
133.3469
 21
120.50861
 31
0.0
  0
LINE
  5
41
330
20
100
AcDbEntity
  8
0
100
AcDbLine
 10
58.23014
 20
131.50861
 30
0.0
 11
145.40812
 21
131.50861
 31
0.0
  0
LINE
  5
42
330
20
100
AcDbEntity
  8
0
100
AcDbLine
 10
59.81912999999997
 20
134.50861
 30
0.0
 11
143.8191299999999
 21
134.50861
 31
0.0
  0
LINE
  5
43
330
20
100
AcDbEntity
  8
0
100
AcDbLine
 10
52.64597000000001
 20
145.50861
 30
0.0
 11
150.9922899999999
 21
145.50861
 31
0.0
  0
LINE
  5
44
330
20
100
AcDbEntity
  8
0
100
AcDbLine
 10
55.08585
 20
148.50861
 30
0.0
 11
148.5524200000001
 21
148.50861
 31
0.0
  0
LINE
  5
45
330
20
100
AcDbEntity
  8
0
100
AcDbLine
 10
51.38105000000002
 20
159.50861
 30
0.0
 11
152.25721
 21
159.50861
 31
0.0
  0
LINE
  5
46
330
20
100
AcDbEntity
  8
0
100
AcDbLine
 10
55.08585
 20
162.50861
 30
0.0
 11
148.5524200000001
 21
162.50861
 31
0.0
  0
LINE
  5
47
330
20
100
AcDbEntity
  8
0
100
AcDbLine
 10
54.09073000000001
 20
173.50861
 30
0.0
 11
149.54753
 21
173.50861
 31
0.0
  0
LINE
  5
48
330
20
100
AcDbEntity
  8
0
100
AcDbLine
 10
59.15766999999998
 20
176.50861
 30
0.0
 11
144.4805899999999
 21
176.50861
 31
0.0
  0
LINE
  5
49
330
20
100
AcDbEntity
  8
0
100
AcDbLine
 10
61.56990999999999
 20
187.50861
 30
0.0
 11
142.06835
 21
187.50861
 31
0.0
  0
LINE
  5
4A
330
20
100
AcDbEntity
  8
0
100
AcDbLine
 10
68.77371
 20
190.50861
 30
0.0
 11
134.86455
 21
190.50861
 31
0.0
  0
LINE
  5
4B
330
20
100
AcDbEntity
  8
0
100
AcDbLine
 10
77.94445999999997
 20
201.50861
 30
0.0
 11
125.6938
 21
201.50861
 31
0.0
  0
ARC
  5
4C
330
20
100
AcDbEntity
  8
0
100
AcDbCircle
 10
101.81913
 20
157.00861
 30
0.0
 40
50.5
100
AcDbArc
 50
177.16241
 51
186.10685
  0
ARC
  5
4D
330
20
100
AcDbEntity
  8
0
100
AcDbCircle
 10
101.81913
 20
157.00861
 30
0.0
 40
50.5
100
AcDbArc
 50
193.16303
 51
202.61986
  0
ARC
  5
4E
330
20
100
AcDbEntity
  8
0
100
AcDbCircle
 10
101.81913
 20
157.00861
 30
0.0
 40
50.5
100
AcDbArc
 50
210.3280600000001
 51
222.11248
  0
ARC
  5
4F
330
20
100
AcDbEntity
  8
0
100
AcDbCircle
 10
101.81913
 20
157.00861
 30
0.0
 40
50.5
100
AcDbArc
 50
231.46044
 51
308.53955
  0
ARC
  5
50
330
20
100
AcDbEntity
  8
0
100
AcDbCircle
 10
55.08585
 20
165.50861
 30
0.0
 40
3.0
100
AcDbArc
 50
169.69154
 51
270.0
  0
LINE
  5
51
330
20
100
AcDbEntity
  8
0
100
AcDbLine
 10
68.04382000000003
 20
193.73044
 30
0.0
 11
135.5944399999999
 21
193.73044
 31
0.0
  0
LINE
  5
52
330
20
100
AcDbEntity
  8
0
100
AcDbLine
 10
68.17371000000003
 20
193.3768799999999
 30
0.0
 11
135.4645499999999
 21
193.3768799999999
 31
0.0
  0
LINE
  5
53
330
20
100
AcDbEntity
  8
0
100
AcDbLine
 10
58.45767000000001
 20
179.37688
 30
0.0
 11
145.18059
 21
179.37688
 31
0.0
  0
LINE
  5
54
330
20
100
AcDbEntity
  8
0
100
AcDbLine
 10
58.32226999999999
 20
179.7304399999999
 30
0.0
 11
145.31599
 21
179.7304399999999
 31
0.0
  0
LINE
  5
55
330
20
100
AcDbEntity
  8
0
100
AcDbLine
 10
54.18585000000001
 20
165.3768799999999
 30
0.0
 11
149.45242
 21
165.3768799999999
 31
0.0
  0
LINE
  5
56
330
20
100
AcDbEntity
  8
0
100
AcDbLine
 10
54.25605
 20
165.73044
 30
0.0
 11
149.38221
 21
165.73044
 31
0.0
  0
LINE
  5
57
330
20
100
AcDbEntity
  8
0
100
AcDbLine
 10
54.08584999999999
 20
151.37688
 30
0.0
 11
149.55242
 21
151.37688
 31
0.0
  0
LINE
  5
58
330
20
100
AcDbEntity
  8
0
100
AcDbLine
 10
54.12987999999995
 20
151.73044
 30
0.0
 11
149.50838
 21
151.73044
 31
0.0
  0
LINE
  5
59
330
20
100
AcDbEntity
  8
0
100
AcDbLine
 10
58.31912999999997
 20
137.3768799999999
 30
0.0
 11
145.31913
 21
137.3768799999999
 31
0.0
  0
LINE
  5
5A
330
20
100
AcDbEntity
  8
0
100
AcDbLine
 10
58.25923
 20
137.73044
 30
0.0
 11
145.3790399999999
 21
137.73044
 31
0.0
  0
LINE
  5
5B
330
20
100
AcDbEntity
  8
0
100
AcDbLine
 10
67.89137
 20
123.3768799999999
 30
0.0
 11
135.7469
 21
123.3768799999999
 31
0.0
  0
LINE
  5
5C
330
20
100
AcDbEntity
  8
0
100
AcDbLine
 10
67.69412999999997
 20
123.73044
 30
0.0
 11
135.94413
 21
123.73044
 31
0.0
  0
ARC
  5
5D
330
20
100
AcDbEntity
  8
0
100
AcDbCircle
 10
100.67462
 20
154.01011
 30
0.0
 40
50.5
100
AcDbArc
 50
157.28739
 51
163.84485
  0
ARC
  5
5E
330
20
100
AcDbEntity
  8
0
100
AcDbCircle
 10
54.25605
 20
167.83044
 30
0.0
 40
2.1
100
AcDbArc
 50
173.69157
 51
270.0
  0
ARC
  5
5F
330
20
100
AcDbEntity
  8
0
100
AcDbCircle
 10
54.18585000000001
 20
167.47688
 30
0.0
 40
2.1
100
AcDbArc
 50
163.84485
 51
270.0
  0
ARC
  5
60
330
20
100
AcDbEntity
  8
0
100
AcDbCircle
 10
101.81913
 20
157.00861
 30
0.0
 40
50.5
100
AcDbArc
 50
168.97968
 51
169.69154
  0
ARC
  5
61
330
20
100
AcDbEntity
  8
0
100
AcDbCircle
 10
101.81913
 20
174.31542
 30
0.0
 40
64.938535
100
AcDbArc
 50
241.0187200000001
 51
298.98127
  0
ARC
  5
62
330
20
100
AcDbEntity
  8
0
100
AcDbCircle
 10
101.81913
 20
177.25913
 30
0.0
 40
67.52869799999999
100
AcDbArc
 50
242.22897
 51
297.77102
  0
ARC
  5
63
330
20
100
AcDbEntity
  8
0
100
AcDbCircle
 10
101.81913
 20
157.00861
 30
0.0
 40
48.0
100
AcDbArc
 50
256.19903
 51
283.80096
  0
ARC
  5
64
330
20
100
AcDbEntity
  8
0
100
AcDbCircle
 10
101.81913
 20
157.00861
 30
0.0
 40
48.0
100
AcDbArc
 50
224.48006
 51
229.50094
  0
ARC
  5
65
330
20
100
AcDbEntity
  8
0
100
AcDbCircle
 10
101.81913
 20
157.00861
 30
0.0
 40
48.0
100
AcDbArc
 50
204.14167
 51
207.95318
  0
ARC
  5
66
330
20
100
AcDbEntity
  8
0
100
AcDbCircle
 10
101.81913
 20
157.00861
 30
0.0
 40
48.0
100
AcDbArc
 50
186.7379
 51
190.19916
  0
ARC
  5
67
330
20
100
AcDbEntity
  8
0
100
AcDbCircle
 10
101.81913
 20
157.00861
 30
0.0
 40
48.0
100
AcDbArc
 50
169.9598
 51
173.24155
  0
ARC
  5
68
330
20
100
AcDbEntity
  8
0
100
AcDbCircle
 10
101.81913
 20
157.00861
 30
0.0
 40
48.0
100
AcDbArc
 50
152.22467
 51
155.70488
  0
ARC
  5
69
330
20
100
AcDbEntity
  8
0
100
AcDbCircle
 10
101.81913
 20
157.00861
 30
0.0
 40
48.0
100
AcDbArc
 50
130.74057
 51
135.24886
  0
ARC
  5
6A
330
20
100
AcDbEntity
  8
0
100
AcDbCircle
 10
101.81913
 20
157.00861
 30
0.0
 40
48.0
100
AcDbArc
 50
44.751131
 51
49.259787
  0
ARC
  5
6B
330
20
100
AcDbEntity
  8
0
100
AcDbCircle
 10
101.81913
 20
157.00861
 30
0.0
 40
48.0
100
AcDbArc
 50
24.29512
 51
27.775327
  0
ARC
  5
6C
330
20
100
AcDbEntity
  8
0
100
AcDbCircle
 10
101.81913
 20
157.00861
 30
0.0
 40
48.0
100
AcDbArc
 50
6.758449999999998
 51
10.040194
  0
ARC
  5
6D
330
20
100
AcDbEntity
  8
0
100
AcDbCircle
 10
101.81913
 20
157.00861
 30
0.0
 40
48.0
100
AcDbArc
 50
349.8008299999999
 51
353.2621
  0
ARC
  5
6E
330
20
100
AcDbEntity
  8
0
100
AcDbCircle
 10
101.81913
 20
157.00861
 30
0.0
 40
48.0
100
AcDbArc
 50
332.04681
 51
335.85832
  0
ARC
  5
6F
330
20
100
AcDbEntity
  8
0
100
AcDbCircle
 10
101.81913
 20
157.00861
 30
0.0
 40
48.0
100
AcDbArc
 50
310.49905
 51
315.51994
  0
CIRCLE
  5
70
330
20
100
AcDbEntity
  8
0
100
AcDbCircle
 10
101.81913
 20
157.00861
 30
0.0
 40
72.5
  0
CIRCLE
  5
71
330
20
100
AcDbEntity
  8
0
100
AcDbCircle
 10
101.81913
 20
157.00861
 30
0.0
 40
61.5
  0
CIRCLE
  5
72
330
20
100
AcDbEntity
  8
0
100
AcDbCircle
 10
101.81913
 20
157.00861
 30
0.0
 40
69.67
  0
CIRCLE
  5
73
330
20
100
AcDbEntity
  8
0
100
AcDbCircle
 10
142.47777
 20
197.66725
 30
0.0
 40
2.299999999999998
  0
CIRCLE
  5
74
330
20
100
AcDbEntity
  8
0
100
AcDbCircle
 10
61.16048999999998
 20
197.66725
 30
0.0
 40
2.299999999999998
  0
CIRCLE
  5
75
330
20
100
AcDbEntity
  8
0
100
AcDbCircle
 10
61.16048999999998
 20
116.34997
 30
0.0
 40
2.299999999999998
  0
CIRCLE
  5
76
330
20
100
AcDbEntity
  8
0
100
AcDbCircle
 10
142.47777
 20
116.34997
 30
0.0
 40
2.299999999999998
  0
ARC
  5
77
330
20
100
AcDbEntity
  8
0
100
AcDbCircle
 10
101.81913
 20
157.00861
 30
0.0
 40
43.5
100
AcDbArc
 50
123.27443
 51
129.63578
  0
ARC
  5
78
330
20
100
AcDbEntity
  8
0
100
AcDbCircle
 10
101.81913
 20
157.00861
 30
0.0
 40
43.5
100
AcDbArc
 50
149.05512
 51
153.36688
  0
ARC
  5
79
330
20
100
AcDbEntity
  8
0
100
AcDbCircle
 10
101.81913
 20
157.00861
 30
0.0
 40
43.5
100
AcDbArc
 50
168.90863
 51
172.73626
  0
ARC
  5
7A
330
20
100
AcDbEntity
  8
0
100
AcDbCircle
 10
101.81913
 20
157.00861
 30
0.0
 40
43.5
100
AcDbArc
 50
187.43867
 51
191.26822
  0
ARC
  5
7B
330
20
100
AcDbEntity
  8
0
100
AcDbCircle
 10
101.81913
 20
157.00861
 30
0.0
 40
43.5
100
AcDbArc
 50
206.82738
 51
211.14739
  0
ARC
  5
7C
330
20
100
AcDbEntity
  8
0
100
AcDbCircle
 10
101.81913
 20
157.00861
 30
0.0
 40
43.5
100
AcDbArc
 50
230.63698
 51
237.04314
  0
ARC
  5
7D
330
20
100
AcDbEntity
  8
0
100
AcDbCircle
 10
101.81913
 20
157.00861
 30
0.0
 40
43.5
100
AcDbArc
 50
50.364212
 51
56.725563
  0
ARC
  5
7E
330
20
100
AcDbEntity
  8
0
100
AcDbCircle
 10
101.81913
 20
157.00861
 30
0.0
 40
43.5
100
AcDbArc
 50
26.633119
 51
30.944875
  0
ARC
  5
7F
330
20
100
AcDbEntity
  8
0
100
AcDbCircle
 10
101.81913
 20
157.00861
 30
0.0
 40
43.5
100
AcDbArc
 50
7.263735999999998
 51
11.091365
  0
ARC
  5
80
330
20
100
AcDbEntity
  8
0
100
AcDbCircle
 10
101.81913
 20
157.00861
 30
0.0
 40
43.5
100
AcDbArc
 50
348.7317700000001
 51
352.56132
  0
ARC
  5
81
330
20
100
AcDbEntity
  8
0
100
AcDbCircle
 10
101.81913
 20
157.00861
 30
0.0
 40
43.5
100
AcDbArc
 50
328.85261
 51
333.17261
  0
ARC
  5
82
330
20
100
AcDbEntity
  8
0
100
AcDbCircle
 10
101.81913
 20
157.00861
 30
0.0
 40
43.5
100
AcDbArc
 50
302.95685
 51
309.36301
  0
ARC
  5
83
330
20
100
AcDbEntity
  8
0
100
AcDbCircle
 10
96.07716000000001
 20
154.3763
 30
0.0
 40
50.5
100
AcDbArc
 50
111.04268
 51
124.63164
  0
ARC
  5
84
330
20
100
AcDbEntity
  8
0
100
AcDbCircle
 10
68.04382000000003
 20
194.9304399999999
 30
0.0
 40
1.199999999999999
100
AcDbArc
 50
123.69541
 51
270.0
  0
ARC
  5
85
330
20
100
AcDbEntity
  8
0
100
AcDbCircle
 10
68.17371000000003
 20
194.77688
 30
0.0
 40
1.399999999999999
100
AcDbArc
 50
124.63164
 51
270.0
  0
ARC
  5
86
330
20
100
AcDbEntity
  8
0
100
AcDbCircle
 10
59.15766999999998
 20
179.00861
 30
0.0
 40
2.5
100
AcDbArc
 50
152.72038
 51
270.0
  0
ARC
  5
87
330
20
100
AcDbEntity
  8
0
100
AcDbCircle
 10
97.36297000000002
 20
151.88409
 30
0.0
 40
50.5
100
AcDbArc
 50
135.13521
 51
143.02297
  0
ARC
  5
88
330
20
100
AcDbEntity
  8
0
100
AcDbCircle
 10
58.32226999999999
 20
181.3304399999999
 30
0.0
 40
1.6
100
AcDbArc
 50
144.49945
 51
270.0
  0
ARC
  5
89
330
20
100
AcDbEntity
  8
0
100
AcDbCircle
 10
58.45767000000001
 20
181.17688
 30
0.0
 40
1.8
100
AcDbArc
 50
143.02297
 51
270.0
  0
ARC
  5
8A
330
20
100
AcDbEntity
  8
0
100
AcDbCircle
 10
68.77371
 20
192.50861
 30
0.0
 40
2.0
100
AcDbArc
 50
141.30879
 51
270.0
  0
ARC
  5
8B
330
20
100
AcDbEntity
  8
0
100
AcDbCircle
 10
101.81913
 20
157.00861
 30
0.0
 40
50.5
100
AcDbArc
 50
152.67689
 51
152.72038
  0
ARC
  5
8C
330
20
100
AcDbEntity
  8
0
100
AcDbCircle
 10
55.08585
 20
152.00861
 30
0.0
 40
3.5
100
AcDbArc
 50
186.10685
 51
270.0
  0
ARC
  5
8D
330
20
100
AcDbEntity
  8
0
100
AcDbCircle
 10
101.86951
 20
158.4289799999999
 30
0.0
 40
50.5
100
AcDbArc
 50
178.77498
 51
185.44184
  0
ARC
  5
8E
330
20
100
AcDbEntity
  8
0
100
AcDbCircle
 10
54.08584999999999
 20
153.8768799999999
 30
0.0
 40
2.5
100
AcDbArc
 50
185.44184
 51
270.0
  0
ARC
  5
8F
330
20
100
AcDbEntity
  8
0
100
AcDbCircle
 10
101.8671499999999
 20
160.69325
 30
0.0
 40
50.5
100
AcDbArc
 50
181.34417
 51
187.94558
  0
ARC
  5
90
330
20
100
AcDbEntity
  8
0
100
AcDbCircle
 10
54.12987999999995
 20
154.03044
 30
0.0
 40
2.299999999999998
100
AcDbArc
 50
187.94558
 51
270.0
  0
ARC
  5
91
330
20
100
AcDbEntity
  8
0
100
AcDbCircle
 10
59.81912999999997
 20
139.50861
 30
0.0
 40
5.0
100
AcDbArc
 50
202.61986
 51
270.0
  0
ARC
  5
92
330
20
100
AcDbEntity
  8
0
100
AcDbCircle
 10
100.5349
 20
161.5367299999999
 30
0.0
 40
50.5
100
AcDbArc
 50
198.50506
 51
206.07652
  0
ARC
  5
93
330
20
100
AcDbEntity
  8
0
100
AcDbCircle
 10
58.31912999999997
 20
140.8768799999999
 30
0.0
 40
3.5
100
AcDbArc
 50
206.07652
 51
270.0
  0
ARC
  5
94
330
20
100
AcDbEntity
  8
0
100
AcDbCircle
 10
99.84443999999996
 20
163.4684
 30
0.0
 40
50.5
100
AcDbArc
 50
200.83263
 51
208.45638
  0
ARC
  5
95
330
20
100
AcDbEntity
  8
0
100
AcDbCircle
 10
58.25923
 20
140.9304399999999
 30
0.0
 40
3.2
100
AcDbArc
 50
208.45638
 51
270.0
  0
ARC
  5
96
330
20
100
AcDbEntity
  8
0
100
AcDbCircle
 10
70.29137000000014
 20
128.50861
 30
0.0
 40
8.0
100
AcDbArc
 50
222.11248
 51
270.0
  0
ARC
  5
97
330
20
100
AcDbEntity
  8
0
100
AcDbCircle
 10
98.88975000000002
 20
161.45935
 30
0.0
 40
50.5
100
AcDbArc
 50
216.37615
 51
226.33923
  0
ARC
  5
98
330
20
100
AcDbEntity
  8
0
100
AcDbCircle
 10
67.89137
 20
128.97688
 30
0.0
 40
5.599999999999997
100
AcDbArc
 50
226.33923
 51
270.0
  0
ARC
  5
99
330
20
100
AcDbEntity
  8
0
100
AcDbCircle
 10
97.90193000000002
 20
162.7559999999999
 30
0.0
 40
50.5
100
AcDbArc
 50
218.22565
 51
228.40142
  0
ARC
  5
9A
330
20
100
AcDbEntity
  8
0
100
AcDbCircle
 10
67.69412999999997
 20
128.73044
 30
0.0
 40
5.0
100
AcDbArc
 50
228.40142
 51
270.0
  0
ARC
  5
9B
330
20
100
AcDbEntity
  8
0
100
AcDbCircle
 10
101.81913
 20
157.00861
 30
0.0
 40
50.5
100
AcDbArc
 50
353.89314
 51
2.837584999999998
  0
ARC
  5
9C
330
20
100
AcDbEntity
  8
0
100
AcDbCircle
 10
101.81913
 20
157.00861
 30
0.0
 40
50.5
100
AcDbArc
 50
337.38013
 51
346.83696
  0
ARC
  5
9D
330
20
100
AcDbEntity
  8
0
100
AcDbCircle
 10
101.81913
 20
157.00861
 30
0.0
 40
50.5
100
AcDbArc
 50
317.8875100000001
 51
329.67193
  0
ARC
  5
9E
330
20
100
AcDbEntity
  8
0
100
AcDbCircle
 10
148.5524200000001
 20
165.50861
 30
0.0
 40
3.0
100
AcDbArc
 50
270.0
 51
10.308453
  0
ARC
  5
9F
330
20
100
AcDbEntity
  8
0
100
AcDbCircle
 10
102.96365
 20
154.01011
 30
0.0
 40
50.5
100
AcDbArc
 50
16.155144
 51
22.712608
  0
ARC
  5
A0
330
20
100
AcDbEntity
  8
0
100
AcDbCircle
 10
149.38221
 20
167.83044
 30
0.0
 40
2.1
100
AcDbArc
 50
270.0
 51
6.308424999999997
  0
ARC
  5
A1
330
20
100
AcDbEntity
  8
0
100
AcDbCircle
 10
149.45242
 20
167.47688
 30
0.0
 40
2.1
100
AcDbArc
 50
270.0
 51
16.155144
  0
ARC
  5
A2
330
20
100
AcDbEntity
  8
0
100
AcDbCircle
 10
101.81913
 20
157.00861
 30
0.0
 40
50.5
100
AcDbArc
 50
10.308453
 51
11.020316
  0
ARC
  5
A3
330
20
100
AcDbEntity
  8
0
100
AcDbCircle
 10
107.56111
 20
154.3763
 30
0.0
 40
50.5
100
AcDbArc
 50
55.36835100000001
 51
68.957317
  0
ARC
  5
A4
330
20
100
AcDbEntity
  8
0
100
AcDbCircle
 10
135.5944399999999
 20
194.9304399999999
 30
0.0
 40
1.199999999999999
100
AcDbArc
 50
270.0
 51
56.30458400000001
  0
ARC
  5
A5
330
20
100
AcDbEntity
  8
0
100
AcDbCircle
 10
135.4645499999999
 20
194.77688
 30
0.0
 40
1.399999999999999
100
AcDbArc
 50
270.0
 51
55.36835100000001
  0
ARC
  5
A6
330
20
100
AcDbEntity
  8
0
100
AcDbCircle
 10
144.4805899999999
 20
179.00861
 30
0.0
 40
2.5
100
AcDbArc
 50
270.0
 51
27.279613
  0
ARC
  5
A7
330
20
100
AcDbEntity
  8
0
100
AcDbCircle
 10
106.27529
 20
151.88409
 30
0.0
 40
50.5
100
AcDbArc
 50
36.977028
 51
44.864787
  0
ARC
  5
A8
330
20
100
AcDbEntity
  8
0
100
AcDbCircle
 10
145.31599
 20
181.3304399999999
 30
0.0
 40
1.6
100
AcDbArc
 50
270.0
 51
35.500549
  0
ARC
  5
A9
330
20
100
AcDbEntity
  8
0
100
AcDbCircle
 10
145.18059
 20
181.17688
 30
0.0
 40
1.8
100
AcDbArc
 50
270.0
 51
36.977028
  0
ARC
  5
AA
330
20
100
AcDbEntity
  8
0
100
AcDbCircle
 10
134.86455
 20
192.50861
 30
0.0
 40
2.0
100
AcDbArc
 50
270.0
 51
38.691205
  0
ARC
  5
AB
330
20
100
AcDbEntity
  8
0
100
AcDbCircle
 10
101.81913
 20
157.00861
 30
0.0
 40
50.5
100
AcDbArc
 50
27.279613
 51
27.323108
  0
ARC
  5
AC
330
20
100
AcDbEntity
  8
0
100
AcDbCircle
 10
148.5524200000001
 20
152.00861
 30
0.0
 40
3.5
100
AcDbArc
 50
270.0
 51
353.89314
  0
ARC
  5
AD
330
20
100
AcDbEntity
  8
0
100
AcDbCircle
 10
101.76875
 20
158.4289799999999
 30
0.0
 40
50.5
100
AcDbArc
 50
354.55816
 51
1.225014
  0
ARC
  5
AE
330
20
100
AcDbEntity
  8
0
100
AcDbCircle
 10
149.55242
 20
153.8768799999999
 30
0.0
 40
2.5
100
AcDbArc
 50
270.0
 51
354.55816
  0
ARC
  5
AF
330
20
100
AcDbEntity
  8
0
100
AcDbCircle
 10
101.77111
 20
160.69325
 30
0.0
 40
50.5
100
AcDbArc
 50
352.05441
 51
358.65582
  0
ARC
  5
B0
330
20
100
AcDbEntity
  8
0
100
AcDbCircle
 10
149.50838
 20
154.03044
 30
0.0
 40
2.299999999999998
100
AcDbArc
 50
270.0
 51
352.05441
  0
ARC
  5
B1
330
20
100
AcDbEntity
  8
0
100
AcDbCircle
 10
143.8191299999999
 20
139.50861
 30
0.0
 40
5.0
100
AcDbArc
 50
270.0
 51
337.38013
  0
ARC
  5
B2
330
20
100
AcDbEntity
  8
0
100
AcDbCircle
 10
103.10337
 20
161.5367299999999
 30
0.0
 40
50.5
100
AcDbArc
 50
333.92347
 51
341.4949299999999
  0
ARC
  5
B3
330
20
100
AcDbEntity
  8
0
100
AcDbCircle
 10
145.31913
 20
140.8768799999999
 30
0.0
 40
3.5
100
AcDbArc
 50
270.0
 51
333.92347
  0
ARC
  5
B4
330
20
100
AcDbEntity
  8
0
100
AcDbCircle
 10
103.79382
 20
163.4684
 30
0.0
 40
50.5
100
AcDbArc
 50
331.54361
 51
339.16737
  0
ARC
  5
B5
330
20
100
AcDbEntity
  8
0
100
AcDbCircle
 10
145.3790399999999
 20
140.9304399999999
 30
0.0
 40
3.2
100
AcDbArc
 50
270.0
 51
331.54361
  0
ARC
  5
B6
330
20
100
AcDbEntity
  8
0
100
AcDbCircle
 10
133.3469
 20
128.50861
 30
0.0
 40
8.0
100
AcDbArc
 50
270.0
 51
317.8875100000001
  0
ARC
  5
B7
330
20
100
AcDbEntity
  8
0
100
AcDbCircle
 10
104.74851
 20
161.45935
 30
0.0
 40
50.5
100
AcDbArc
 50
313.66076
 51
323.62384
  0
ARC
  5
B8
330
20
100
AcDbEntity
  8
0
100
AcDbCircle
 10
135.7469
 20
128.97688
 30
0.0
 40
5.599999999999997
100
AcDbArc
 50
270.0
 51
313.66076
  0
ARC
  5
B9
330
20
100
AcDbEntity
  8
0
100
AcDbCircle
 10
105.73633
 20
162.7559999999999
 30
0.0
 40
50.5
100
AcDbArc
 50
311.59857
 51
321.77434
  0
ARC
  5
BA
330
20
100
AcDbEntity
  8
0
100
AcDbCircle
 10
135.94413
 20
128.73044
 30
0.0
 40
5.0
100
AcDbArc
 50
270.0
 51
311.59857
  0
CIRCLE
  5
BB
330
20
100
AcDbEntity
  8
0
  6
CENTER2
100
AcDbCircle
 10
101.81913
 20
157.00861
 30
0.0
 40
66.0
  0
CIRCLE
  5
BC
330
20
100
AcDbEntity
  8
0
100
AcDbCircle
 10
35.81912999999997
 20
157.00861
 30
0.0
 40
2.1
  0
CIRCLE
  5
BD
330
20
100
AcDbEntity
  8
0
100
AcDbCircle
 10
167.8191299999999
 20
157.00861
 30
0.0
 40
2.1
  0
LINE
  5
BE
330
20
100
AcDbEntity
  8
0
100
AcDbLine
 10
349.44607
 20
202.50861
 30
0.0
 11
349.44607
 21
178.27102
 31
0.0
  0
ARC
  5
BF
330
20
100
AcDbEntity
  8
0
100
AcDbCircle
 10
346.4460699999999
 20
202.50861
 30
0.0
 40
3.0
100
AcDbArc
 50
0.0
 51
90.0
  0
ARC
  5
C0
330
20
100
AcDbEntity
  8
0
100
AcDbCircle
 10
346.4460699999999
 20
111.50861
 30
0.0
 40
3.0
100
AcDbArc
 50
270.0
 51
0.0
  0
LINE
  5
C1
330
20
100
AcDbEntity
  8
0
  6
CENTER2
100
AcDbLine
 10
15.50825
 20
157.00861
 30
0.0
 11
385.86058
 21
157.00861
 31
0.0
  0
LINE
  5
C2
330
20
100
AcDbEntity
  8
0
  6
CENTER2
100
AcDbLine
 10
101.81913
 20
59.64098
 30
0.0
 11
101.81913
 21
254.37624
 31
0.0
  0
LINE
  5
C3
330
20
100
AcDbEntity
  8
0
100
AcDbLine
 10
346.4460699999999
 20
108.50861
 30
0.0
 11
302.14607
 21
108.50861
 31
0.0
  0
LINE
  5
C4
330
20
100
AcDbEntity
  8
0
100
AcDbLine
 10
302.14607
 20
205.50861
 30
0.0
 11
346.4460699999999
 21
205.50861
 31
0.0
  0
LINE
  5
C6
330
20
100
AcDbEntity
  8
waku
100
AcDbLine
 10
245.9999999999998
 20
15.0
 30
0.0
 11
406.0
 21
15.0
 31
0.0
  0
LINE
  5
C8
330
20
100
AcDbEntity
  8
hyou
100
AcDbLine
 10
245.9999999999998
 20
40.0
 30
0.0
 11
406.0
 21
40.0
 31
0.0
  0
LINE
  5
C9
330
20
100
AcDbEntity
  8
hyou
100
AcDbLine
 10
245.9999999999998
 20
55.0
 30
0.0
 11
406.0
 21
55.0
 31
0.0
  0
LINE
  5
CA
330
20
100
AcDbEntity
  8
hyou
100
AcDbLine
 10
245.9999999999998
 20
60.0
 30
0.0
 11
406.0
 21
60.0
 31
0.0
  0
LINE
  5
CB
330
20
100
AcDbEntity
  8
hyou
100
AcDbLine
 10
245.9999999999998
 20
65.0
 30
0.0
 11
406.0
 21
65.0
 31
0.0
  0
LINE
  5
CC
330
20
100
AcDbEntity
  8
waku
100
AcDbLine
 10
251.0
 20
0.0
 30
0.0
 11
251.0
 21
15.0
 31
0.0
  0
LINE
  5
CD
330
20
100
AcDbEntity
  8
waku
100
AcDbLine
 10
245.9999999999998
 20
29.0
 30
0.0
 11
306.0
 21
29.0
 31
0.0
  0
LINE
  5
CE
330
20
100
AcDbEntity
  8
hyou
100
AcDbLine
 10
256.0
 20
40.0
 30
0.0
 11
256.0
 21
70.0
 31
0.0
  0
LINE
  5
CF
330
20
100
AcDbEntity
  8
hyou
100
AcDbLine
 10
294.0
 20
40.0
 30
0.0
 11
294.0
 21
70.0
 31
0.0
  0
LINE
  5
D0
330
20
100
AcDbEntity
  8
hyou
100
AcDbLine
 10
332.0
 20
40.0
 30
0.0
 11
332.0
 21
70.0
 31
0.0
  0
LINE
  5
D1
330
20
100
AcDbEntity
  8
hyou
100
AcDbLine
 10
369.9999999999998
 20
40.0
 30
0.0
 11
369.9999999999998
 21
70.0
 31
0.0
  0
LINE
  5
D2
330
20
100
AcDbEntity
  8
hyou
100
AcDbLine
 10
380.0
 20
40.0
 30
0.0
 11
380.0
 21
70.0
 31
0.0
  0
LINE
  5
D4
330
20
100
AcDbEntity
  8
waku
100
AcDbLine
 10
257.9999999999998
 20
29.0
 30
0.0
 11
257.9999999999998
 21
35.0
 31
0.0
  0
LINE
  5
D5
330
20
100
AcDbEntity
  8
waku
100
AcDbLine
 10
270.9999999999998
 20
0.0
 30
0.0
 11
270.9999999999998
 21
15.0
 31
0.0
  0
TEXT
  5
D6
330
20
100
AcDbEntity
  8
moji
100
AcDbText
 10
304.1331440286088
 20
66.00675286794781
 30
0.0
 40
2.5
  1
材　　　質
 41
0.8571429999999999
100
AcDbText
  0
TEXT
  5
D7
330
20
100
AcDbEntity
  8
moji
100
AcDbText
 10
386.1331440286089
 20
66.00675286794781
 30
0.0
 40
2.5
  1
備　　考
 41
0.872727
100
AcDbText
  0
TEXT
  5
D8
330
20
100
AcDbEntity
  8
moji
100
AcDbText
 10
250.1331440286088
 20
61.00676286794783
 30
0.0
 40
2.5
  1
1
 41
1.199999999999999
100
AcDbText
  0
TEXT
  5
D9
330
20
100
AcDbEntity
  8
moji
100
AcDbText
 10
250.1331440286088
 20
56.00676286794783
 30
0.0
 40
2.5
  1
2
 41
1.199999999999999
100
AcDbText
  0
TEXT
  5
DA
330
20
100
AcDbEntity
  8
moji
100
AcDbText
 10
247.7145584842323
 20
30.20566114610872
 30
0.0
 40
2.5
  1
日 付
 41
0.9
100
AcDbText
  0
TEXT
  5
DB
330
20
100
AcDbEntity
  8
moji
100
AcDbText
 10
247.1380624539574
 20
9.147969819144408
 30
0.0
 40
2.5
  1
尺
 41
1.199999999999999
100
AcDbText
  0
TEXT
  5
DC
330
20
100
AcDbEntity
  8
moji
100
AcDbText
 10
247.1380624539574
 20
3.147969819144406
 30
0.0
 40
2.5
  1
度
 41
1.199999999999999
100
AcDbText
  0
TEXT
  5
DD
330
20
100
AcDbEntity
  8
moji
100
AcDbText
 10
307.0
 20
26.5
 30
0.0
 40
2.5
  1
品
 41
1.199999999999999
100
AcDbText
  0
TEXT
  5
DE
330
20
100
AcDbEntity
  8
moji
100
AcDbText
 10
307.0
 20
18.5
 30
0.0
 40
2.5
  1
名
 41
1.199999999999999
100
AcDbText
  0
LINE
  5
DF
330
20
100
AcDbEntity
  8
waku
100
AcDbLine
 10
306.0
 20
0.0
 30
0.0
 11
306.0
 21
35.0
 31
0.0
  0
LINE
  5
E0
330
20
100
AcDbEntity
  8
waku
100
AcDbLine
 10
311.9999999999999
 20
15.0
 30
0.0
 11
311.9999999999999
 21
35.0
 31
0.0
  0
LINE
  5
E1
330
20
100
AcDbEntity
  8
moji
100
AcDbLine
 10
276.0226
 20
7.634360000000013
 30
0.0
 11
301.8788500000001
 21
7.634360000000013
 31
0.0
  0
LINE
  5
E2
330
20
100
AcDbEntity
  8
moji
100
AcDbLine
 10
281.0123999999998
 20
12.85098000000002
 30
0.0
 11
281.0123999999998
 21
2.64456000000001
 31
0.0
  0
CIRCLE
  5
E3
330
20
100
AcDbEntity
  8
moji
100
AcDbCircle
 10
281.0123999999998
 20
7.634360000000013
 30
0.0
 40
3.915333999999998
  0
CIRCLE
  5
E4
330
20
100
AcDbEntity
  8
moji
100
AcDbCircle
 10
281.0123999999998
 20
7.634360000000013
 30
0.0
 40
2.740545999999998
  0
LINE
  5
E5
330
20
100
AcDbEntity
  8
moji
100
AcDbLine
 10
290.0847699999998
 20
10.37491000000003
 30
0.0
 11
290.0847699999998
 21
4.893820000000005
 31
0.0
  0
LINE
  5
E6
330
20
100
AcDbEntity
  8
moji
100
AcDbLine
 10
298.9303299999999
 20
11.5497
 30
0.0
 11
298.9303299999999
 21
3.719030000000003
 31
0.0
  0
LINE
  5
E7
330
20
100
AcDbEntity
  8
moji
100
AcDbLine
 10
290.0847699999998
 20
10.37491000000003
 30
0.0
 11
298.9303299999999
 21
11.5497
 31
0.0
  0
LINE
  5
E8
330
20
100
AcDbEntity
  8
moji
100
AcDbLine
 10
290.0847699999998
 20
4.893820000000005
 30
0.0
 11
298.9303299999999
 21
3.719030000000003
 31
0.0
  0
TEXT
  5
E9
330
20
100
AcDbEntity
  8
moji
100
AcDbText
 10
257.1331440286089
 20
61.00676286794783
 30
0.0
 40
2.5
  1
ルーバー
 41
0.872727
100
AcDbText
  0
TEXT
  5
EA
330
20
100
AcDbEntity
  8
moji
100
AcDbText
 10
295.1331440286089
 20
61.00676286794783
 30
0.0
 40
2.5
  1
SUS 304 BA 0.5t
 41
0.4704550000000002
100
AcDbText
  0
TEXT
  5
EB
330
20
100
AcDbEntity
  8
moji
100
AcDbText
 10
374.1331440286089
 20
61.00676286794783
 30
0.0
 40
2.5
  1
1
 41
1.199999999999999
100
AcDbText
  0
TEXT
  5
EC
330
20
100
AcDbEntity
  8
moji
100
AcDbText
 10
257.1331440286089
 20
56.00676286794783
 30
0.0
 40
2.5
  1
本体
 41
0.9599999999999999
100
AcDbText
  0
TEXT
  5
ED
330
20
100
AcDbEntity
  8
moji
100
AcDbText
 10
295.1331440286089
 20
56.00676286794783
 30
0.0
 40
2.5
  1
SUS 304 2B 0.5t
 41
0.4704550000000002
100
AcDbText
  0
TEXT
  5
EE
330
20
100
AcDbEntity
  8
moji
100
AcDbText
 10
374.1331440286089
 20
56.00676286794783
 30
0.0
 40
2.5
  1
1
 41
1.199999999999999
100
AcDbText
  0
LINE
  5
F3
330
20
100
AcDbEntity
  8
0
100
AcDbLine
 10
302.14607
 20
204.00861
 30
0.0
 11
346.4460699999999
 21
204.00861
 31
0.0
  0
LINE
  5
F4
330
20
100
AcDbEntity
  8
0
100
AcDbLine
 10
346.4460699999999
 20
110.00861
 30
0.0
 11
302.14607
 21
110.00861
 31
0.0
  0
LINE
  5
F5
330
20
100
AcDbEntity
  8
0
100
AcDbLine
 10
347.9460699999998
 20
202.50861
 30
0.0
 11
347.9460699999998
 21
180.87993
 31
0.0
  0
ARC
  5
F6
330
20
100
AcDbEntity
  8
0
100
AcDbCircle
 10
346.4460699999999
 20
202.50861
 30
0.0
 40
1.5
100
AcDbArc
 50
0.0
 51
90.0
  0
ARC
  5
F7
330
20
100
AcDbEntity
  8
0
100
AcDbCircle
 10
346.4460699999999
 20
111.50861
 30
0.0
 40
1.5
100
AcDbArc
 50
270.0
 51
0.0
  0
LINE
  5
F8
330
20
100
AcDbEntity
  8
0
100
AcDbLine
 10
347.9460699999998
 20
200.50861
 30
0.0
 11
349.44607
 21
200.50861
 31
0.0
  0
TEXT
  5
F9
330
20
100
AcDbEntity
  8
moji
100
AcDbText
 10
250.1331440286088
 20
51.00676286794783
 30
0.0
 40
2.5
  1
3
 41
1.199999999999999
100
AcDbText
  0
TEXT
  5
FA
330
20
100
AcDbEntity
  8
moji
100
AcDbText
 10
257.1331440286089
 20
51.00676286794783
 30
0.0
 40
2.5
  1
網
 41
1.199999999999999
100
AcDbText
  0
TEXT
  5
FB
330
20
100
AcDbEntity
  8
moji
100
AcDbText
 10
295.1331440286089
 20
51.00676286794783
 30
0.0
 40
2.5
  1
SUS 304 φ0.23-16M
 41
0.4488
100
AcDbText
  0
TEXT
  5
FC
330
20
100
AcDbEntity
  8
moji
100
AcDbText
 10
374.1331440286089
 20
51.00676286794783
 30
0.0
 40
2.5
  1
1
 41
1.199999999999999
100
AcDbText
  0
TEXT
  5
FD
330
20
100
AcDbEntity
  8
moji
100
AcDbText
 10
382.2279840286092
 20
50.99484286794794
 30
0.0
 40
2.5
  1
TVAPノミ
 41
0.635294
100
AcDbText
  0
LINE
  5
FE
330
20
100
AcDbEntity
  8
hyou
100
AcDbLine
 10
270.9999999999998
 20
40.0
 30
0.0
 11
270.9999999999998
 21
35.0
 31
0.0
  0
TEXT
  5
FF
330
20
100
AcDbEntity
  8
moji
100
AcDbText
 10
247.7145584842323
 20
35.70566114610873
 30
0.0
 40
2.5
  1
表 面 処 理
 41
0.735
100
AcDbText
  0
TEXT
  5
100
330
20
100
AcDbEntity
  8
moji
100
AcDbText
 10
272.7145584842323
 20
35.70566114610873
 30
0.0
 40
2.5
  1
　アクリル焼付け塗装
 41
0.7241380000000001
100
AcDbText
  0
LINE
  5
101
330
20
100
AcDbEntity
  8
waku
100
AcDbLine
 10
261.0
 20
15.0
 30
0.0
 11
261.0
 21
29.0
 31
0.0
  0
LINE
  5
102
330
20
100
AcDbEntity
  8
waku
100
AcDbLine
 10
276.0
 20
15.0
 30
0.0
 11
276.0
 21
29.0
 31
0.0
  0
LINE
  5
103
330
20
100
AcDbEntity
  8
waku
100
AcDbLine
 10
290.9999999999998
 20
15.0
 30
0.0
 11
290.9999999999998
 21
29.0
 31
0.0
  0
LINE
  5
104
330
20
100
AcDbEntity
  8
waku
100
AcDbLine
 10
245.9999999999998
 20
24.0
 30
0.0
 11
306.0
 21
24.0
 31
0.0
  0
TEXT
  5
105
330
20
100
AcDbEntity
  8
moji
100
AcDbText
 10
249.7627390694214
 20
25.08800981914442
 30
0.0
 40
2.5
  1
承 認
 41
0.855
100
AcDbText
  0
TEXT
  5
106
330
20
100
AcDbEntity
  8
moji
100
AcDbText
 10
294.5075117381114
 20
17.23885125924721
 30
0.0
 40
4.5
  1
T,K
 41
0.75
100
AcDbText
  0
TEXT
  5
107
330
20
100
AcDbEntity
  8
moji
100
AcDbText
 10
279.7627390694213
 20
25.08800981914442
 30
0.0
 40
2.5
  1
製 図
 41
0.855
100
AcDbText
  0
TEXT
  5
108
330
20
100
AcDbEntity
  8
moji
100
AcDbText
 10
294.7627390694214
 20
25.08800981914442
 30
0.0
 40
2.5
  1
設 計
 41
0.855
100
AcDbText
  0
LINE
  5
109
330
20
100
AcDbEntity
  8
0
100
AcDbLine
 10
347.9460699999998
 20
113.50861
 30
0.0
 11
349.44607
 21
113.50861
 31
0.0
  0
LINE
  5
10A
330
20
100
AcDbEntity
  8
hyou
100
AcDbLine
 10
75.0
 20
4.999999999999912
 30
0.0
 11
75.0
 21
29.0
 31
0.0
  0
LINE
  5
10B
330
20
100
AcDbEntity
  8
hyou
100
AcDbLine
 10
95.0
 20
4.999999999999912
 30
0.0
 11
95.0
 21
29.0
 31
0.0
  0
LINE
  5
10C
330
20
100
AcDbEntity
  8
hyou
100
AcDbLine
 10
135.0
 20
4.999999999999912
 30
0.0
 11
135.0
 21
29.0
 31
0.0
  0
LINE
  5
10D
330
20
100
AcDbEntity
  8
hyou
100
AcDbLine
 10
155.0
 20
4.999999999999912
 30
0.0
 11
155.0
 21
29.0
 31
0.0
  0
LINE
  5
10E
330
20
100
AcDbEntity
  8
hyou
100
AcDbLine
 10
175.0
 20
4.999999999999912
 30
0.0
 11
175.0
 21
29.0
 31
0.0
  0
LINE
  5
10F
330
20
100
AcDbEntity
  8
hyou
100
AcDbLine
 10
5.0
 20
13.0
 30
0.0
 11
215.0
 21
13.0
 31
0.0
  0
LINE
  5
110
330
20
100
AcDbEntity
  8
hyou
100
AcDbLine
 10
5.0
 20
21.0
 30
0.0
 11
215.0
 21
21.0
 31
0.0
  0
TEXT
  5
113
330
20
100
AcDbEntity
  8
moji
100
AcDbText
 10
5.106579999999978
 20
22.24025913811694
 30
0.0
 40
4.5
  1
 型 番
 41
0.727273
100
AcDbText
  0
TEXT
  5
114
330
20
100
AcDbEntity
  8
moji
100
AcDbText
 10
64.25573534145041
 20
23.51751291516951
 30
0.0
 40
4.5
  1
寸 法 
 41
0.727273
100
AcDbText
  0
TEXT
  5
115
330
20
100
AcDbEntity
  8
moji
100
AcDbText
 10
78.46112703060561
 20
22.43024633871471
 30
0.0
 40
4.5
  1
  A
 41
0.75
100
AcDbText
  0
TEXT
  5
116
330
20
100
AcDbEntity
  8
moji
100
AcDbText
 10
98.46112703060562
 20
22.43024633871471
 30
0.0
 40
4.5
  1
  B
 41
0.75
100
AcDbText
  0
TEXT
  5
117
330
20
100
AcDbEntity
  8
moji
100
AcDbText
 10
138.4611270306056
 20
22.43024633871471
 30
0.0
 40
4.5
  1
  D
 41
0.75
100
AcDbText
  0
TEXT
  5
118
330
20
100
AcDbEntity
  8
moji
100
AcDbText
 10
158.4611270306056
 20
22.43024633871471
 30
0.0
 40
4.5
  1
  E
 41
0.75
100
AcDbText
  0
TEXT
  5
119
330
20
100
AcDbEntity
  8
moji
100
AcDbText
 10
6.193460000000013
 20
14.01735000000002
 30
0.0
 40
4.5
  1
VC100TV(A)P-FD , DK24FC-08S
 41
0.421875
100
AcDbText
  0
TEXT
  5
11A
330
20
100
AcDbEntity
  8
moji
100
AcDbText
 10
80.12677462486516
 20
14.46396318149584
 30
0.0
 40
4.5
  1
145
 41
0.75
100
AcDbText
  0
TEXT
  5
11B
330
20
100
AcDbEntity
  8
moji
100
AcDbText
 10
80.37953278486837
 20
6.716604039675102
 30
0.0
 40
4.5
  1
200
 41
0.75
100
AcDbText
  0
TEXT
  5
11C
330
20
100
AcDbEntity
  8
moji
100
AcDbText
 10
100.3795327848683
 20
6.716604039675102
 30
0.0
 40
4.5
  1
145
 41
0.75
100
AcDbText
  0
TEXT
  5
11D
330
20
100
AcDbEntity
  8
moji
100
AcDbText
 10
142.6844527848683
 20
6.668224039675124
 30
0.0
 40
4.5
  1
79
 41
0.8
100
AcDbText
  0
TEXT
  5
11E
330
20
100
AcDbEntity
  8
moji
100
AcDbText
 10
102.5809146248652
 20
14.4910131814957
 30
0.0
 40
4.5
  1
97
 41
0.8
100
AcDbText
  0
TEXT
  5
11F
330
20
100
AcDbEntity
  8
moji
100
AcDbText
 10
138.8516746248652
 20
14.49069318149583
 30
0.0
 40
4.5
  1
55.5
 41
0.727273
100
AcDbText
  0
TEXT
  5
120
330
20
100
AcDbEntity
  8
moji
100
AcDbText
 10
158.9443146248652
 20
14.35018318149582
 30
0.0
 40
4.5
  1
47.5
 41
0.727273
100
AcDbText
  0
TEXT
  5
121
330
20
100
AcDbEntity
  8
moji
100
AcDbText
 10
162.8336827848684
 20
6.743654039675107
 30
0.0
 40
4.5
  1
56
 41
0.8
100
AcDbText
  0
TEXT
  5
122
330
20
100
AcDbEntity
  8
moji
100
AcDbText
 10
253.7865717381113
 20
4.265311259247198
 30
0.0
 40
4.5
  1
NTS
 41
0.84375
100
AcDbText
  0
LINE
  5
123
330
20
100
AcDbEntity
  8
0
100
AcDbLine
 10
329.4460699999998
 20
205.50861
 30
0.0
 11
341.44607
 21
205.50861
 31
0.0
  0
LINE
  5
124
330
20
100
AcDbEntity
  8
0
100
AcDbLine
 10
315.4460699999999
 20
207.97102
 30
0.0
 11
317.41569
 21
207.62372
 31
0.0
  0
LINE
  5
125
330
20
100
AcDbEntity
  8
0
100
AcDbLine
 10
315.4460699999999
 20
207.97102
 30
0.0
 11
315.7239099999998
 21
209.54671
 31
0.0
  0
ARC
  5
126
330
20
100
AcDbEntity
  8
0
100
AcDbCircle
 10
322.0859900000001
 20
199.13889
 30
0.0
 40
9.599999999999999
100
AcDbArc
 50
42.607482
 51
117.39251
  0
ARC
  5
127
330
20
100
AcDbEntity
  8
0
100
AcDbCircle
 10
329.4460699999998
 20
205.90861
 30
0.0
 40
0.4
100
AcDbArc
 50
222.60748
 51
270.0
  0
ARC
  5
128
330
20
100
AcDbEntity
  8
0
100
AcDbCircle
 10
317.4851499999999
 20
208.01765
 30
0.0
 40
0.4
100
AcDbArc
 50
260.0
 51
297.39251
  0
LINE
  5
129
330
20
100
AcDbEntity
  8
0
100
AcDbLine
 10
341.44607
 20
206.70861
 30
0.0
 11
341.44607
 21
205.50861
 31
0.0
  0
LINE
  5
12A
330
20
100
AcDbEntity
  8
0
100
AcDbLine
 10
330.3406399999999
 20
206.70861
 30
0.0
 11
341.44607
 21
206.70861
 31
0.0
  0
ARC
  5
12B
330
20
100
AcDbEntity
  8
0
100
AcDbCircle
 10
322.0859900000001
 20
199.13889
 30
0.0
 40
11.2
100
AcDbArc
 50
42.607482
 51
115.26281
  0
LINE
  5
12C
330
20
100
AcDbEntity
  8
0
100
AcDbLine
 10
315.7239099999998
 20
209.54671
 30
0.0
 11
317.3061499999999
 21
209.2677200000002
 31
0.0
  0
LINE
  5
12D
330
20
100
AcDbEntity
  8
0
100
AcDbLine
 10
304.4460699999998
 20
202.00861
 30
0.0
 11
304.4460699999998
 21
198.0503
 31
0.0
  0
ARC
  5
12E
330
20
100
AcDbEntity
  8
0
100
AcDbCircle
 10
306.4460699999998
 20
202.00861
 30
0.0
 40
2.0
100
AcDbArc
 50
90.0
 51
180.0
  0
LINE
  5
12F
330
20
100
AcDbEntity
  8
0
100
AcDbLine
 10
329.4460699999998
 20
204.00861
 30
0.0
 11
329.4460699999998
 21
197.65452
 31
0.0
  0
LINE
  5
130
330
20
100
AcDbEntity
  8
0
100
AcDbLine
 10
314.71054
 20
202.50861
 30
0.0
 11
315.2889299999998
 21
201.93022
 31
0.0
  0
LINE
  5
131
330
20
100
AcDbEntity
  8
0
100
AcDbLine
 10
323.6854499999998
 20
200.01245
 30
0.0
 11
326.1816099999998
 21
202.50861
 31
0.0
  0
LINE
  5
132
330
20
100
AcDbEntity
  8
0
100
AcDbLine
 10
329.4460699999998
 20
204.00861
 30
0.0
 11
306.4460699999998
 21
204.00861
 31
0.0
  0
LINE
  5
133
330
20
100
AcDbEntity
  8
0
100
AcDbLine
 10
305.9460699999998
 20
202.50861
 30
0.0
 11
314.71054
 21
202.50861
 31
0.0
  0
LINE
  5
134
330
20
100
AcDbEntity
  8
0
100
AcDbLine
 10
306.1960699999998
 20
201.50861
 30
0.0
 11
312.6960699999998
 21
201.50861
 31
0.0
  0
LINE
  5
135
330
20
100
AcDbEntity
  8
0
100
AcDbLine
 10
305.9460699999998
 20
199.70861
 30
0.0
 11
304.4460699999998
 21
199.70861
 31
0.0
  0
LINE
  5
136
330
20
100
AcDbEntity
  8
0
100
AcDbLine
 10
322.06672
 20
200.51504
 30
0.0
 11
325.1209499999999
 21
203.56927
 31
0.0
  0
LINE
  5
137
330
20
100
AcDbEntity
  8
0
100
AcDbLine
 10
315.7712
 20
203.56927
 30
0.0
 11
317.8108499999999
 21
201.52962
 31
0.0
  0
ARC
  5
138
330
20
100
AcDbEntity
  8
0
100
AcDbCircle
 10
326.1816099999998
 20
202.50861
 30
0.0
 40
1.5
100
AcDbArc
 50
90.0
 51
135.0
  0
ARC
  5
139
330
20
100
AcDbEntity
  8
0
100
AcDbCircle
 10
314.71054
 20
202.50861
 30
0.0
 40
1.5
100
AcDbArc
 50
45.0
 51
90.0
  0
LINE
  5
13A
330
20
100
AcDbEntity
  8
0
100
AcDbLine
 10
304.4460699999998
 20
112.00861
 30
0.0
 11
304.4460699999998
 21
115.96693
 31
0.0
  0
ARC
  5
13B
330
20
100
AcDbEntity
  8
0
100
AcDbCircle
 10
306.4460699999998
 20
112.00861
 30
0.0
 40
2.0
100
AcDbArc
 50
180.0
 51
270.0
  0
LINE
  5
13C
330
20
100
AcDbEntity
  8
0
100
AcDbLine
 10
329.4460699999998
 20
110.00861
 30
0.0
 11
329.4460699999998
 21
116.3627
 31
0.0
  0
LINE
  5
13D
330
20
100
AcDbEntity
  8
0
100
AcDbLine
 10
314.71054
 20
111.50861
 30
0.0
 11
315.2889299999998
 21
112.087
 31
0.0
  0
LINE
  5
13E
330
20
100
AcDbEntity
  8
0
100
AcDbLine
 10
323.6854499999998
 20
114.00477
 30
0.0
 11
326.1816099999998
 21
111.50861
 31
0.0
  0
LINE
  5
13F
330
20
100
AcDbEntity
  8
0
100
AcDbLine
 10
329.4460699999998
 20
110.00861
 30
0.0
 11
306.4460699999998
 21
110.00861
 31
0.0
  0
LINE
  5
140
330
20
100
AcDbEntity
  8
0
100
AcDbLine
 10
305.9460699999998
 20
111.50861
 30
0.0
 11
314.71054
 21
111.50861
 31
0.0
  0
LINE
  5
141
330
20
100
AcDbEntity
  8
0
100
AcDbLine
 10
306.1960699999998
 20
112.50861
 30
0.0
 11
312.6531700000001
 21
112.50861
 31
0.0
  0
LINE
  5
142
330
20
100
AcDbEntity
  8
0
100
AcDbLine
 10
305.9460699999998
 20
114.30861
 30
0.0
 11
304.4460699999998
 21
114.30861
 31
0.0
  0
LINE
  5
143
330
20
100
AcDbEntity
  8
0
100
AcDbLine
 10
322.06672
 20
113.50218
 30
0.0
 11
325.1209499999999
 21
110.44795
 31
0.0
  0
LINE
  5
144
330
20
100
AcDbEntity
  8
0
100
AcDbLine
 10
315.7712
 20
110.44795
 30
0.0
 11
317.8108499999999
 21
112.4876
 31
0.0
  0
ARC
  5
145
330
20
100
AcDbEntity
  8
0
100
AcDbCircle
 10
326.1816099999998
 20
111.50861
 30
0.0
 40
1.5
100
AcDbArc
 50
225.0
 51
270.0
  0
ARC
  5
146
330
20
100
AcDbEntity
  8
0
100
AcDbCircle
 10
314.71054
 20
111.50861
 30
0.0
 40
1.5
100
AcDbArc
 50
270.0
 51
315.0
  0
LINE
  5
147
330
20
100
AcDbEntity
  8
0
100
AcDbLine
 10
305.9460699999998
 20
111.50861
 30
0.0
 11
305.9460699999998
 21
115.64463
 31
0.0
  0
LINE
  5
148
330
20
100
AcDbEntity
  8
0
100
AcDbLine
 10
305.9460699999998
 20
202.50861
 30
0.0
 11
305.9460699999998
 21
198.37259
 31
0.0
  0
LINE
  5
149
330
20
100
AcDbEntity
  8
0
100
AcDbLine
 10
324.06029
 20
202.50861
 30
0.0
 11
316.8318599999999
 21
202.50861
 31
0.0
  0
LINE
  5
14A
330
20
100
AcDbEntity
  8
0
100
AcDbLine
 10
326.1873900000002
 20
111.50861
 30
0.0
 11
329.4460699999998
 21
111.50861
 31
0.0
  0
LINE
  5
14B
330
20
100
AcDbEntity
  8
0
100
AcDbLine
 10
316.8318599999999
 20
111.50861
 30
0.0
 11
324.06029
 21
111.50861
 31
0.0
  0
LINE
  5
14C
330
20
100
AcDbEntity
  8
0
100
AcDbLine
 10
306.1960699999998
 20
201.50861
 30
0.0
 11
306.1960699999998
 21
198.41856
 31
0.0
  0
ARC
  5
14D
330
20
100
AcDbEntity
  8
0
100
AcDbCircle
 10
309.4460699999999
 20
157.00861
 30
0.0
 40
45.3
100
AcDbArc
 50
8.249724
 51
84.73373700000001
  0
ARC
  5
14E
330
20
100
AcDbEntity
  8
0
100
AcDbCircle
 10
313.5935299999999
 20
201.6175
 30
0.0
 40
0.5
100
AcDbArc
 50
88.81124399999999
 51
153.82543
  0
ARC
  5
14F
330
20
100
AcDbEntity
  8
0
100
AcDbCircle
 10
309.4460699999999
 20
157.00861
 30
0.0
 40
45.3
100
AcDbArc
 50
275.26626
 51
351.75027
  0
ARC
  5
150
330
20
100
AcDbEntity
  8
0
100
AcDbCircle
 10
313.5935299999999
 20
112.39972
 30
0.0
 40
0.5
100
AcDbArc
 50
206.17456
 51
271.18875
  0
LINE
  5
151
330
20
100
AcDbEntity
  8
0
100
AcDbLine
 10
302.49607
 20
116.50861
 30
0.0
 11
302.49607
 21
197.50861
 31
0.0
  0
LINE
  5
152
330
20
100
AcDbEntity
  8
0
100
AcDbLine
 10
320.49607
 20
116.50861
 30
0.0
 11
320.49607
 21
197.50861
 31
0.0
  0
ARC
  5
153
330
20
100
AcDbEntity
  8
0
100
AcDbCircle
 10
311.4960700000001
 20
145.12679
 30
0.0
 40
30.0
100
AcDbArc
 50
252.54239
 51
287.4576
  0
ARC
  5
154
330
20
100
AcDbEntity
  8
0
100
AcDbCircle
 10
311.4960700000001
 20
168.89044
 30
0.0
 40
30.0
100
AcDbArc
 50
72.54239699999998
 51
107.4576
  0
LINE
  5
155
330
20
100
AcDbEntity
  8
0
100
AcDbLine
 10
306.1960699999998
 20
112.45861
 30
0.0
 11
306.1960699999998
 21
115.59867
 31
0.0
  0
LINE
  5
156
330
20
100
AcDbEntity
  8
0
100
AcDbLine
 10
326.1816099999998
 20
202.50861
 30
0.0
 11
329.4460699999998
 21
202.50861
 31
0.0
  0
ARC
  5
157
330
20
100
AcDbEntity
  8
0
100
AcDbCircle
 10
312.67462
 20
202.00815
 30
0.0
 40
0.5
100
AcDbArc
 50
272.45895
 51
340.11174
  0
ARC
  5
158
330
20
100
AcDbEntity
  8
0
100
AcDbCircle
 10
312.67462
 20
112.00907
 30
0.0
 40
0.5
100
AcDbArc
 50
19.888252
 51
87.541048
  0
LINE
  5
159
330
20
100
AcDbEntity
  8
0
100
AcDbLine
 10
349.44607
 20
135.7462
 30
0.0
 11
349.44607
 21
111.50861
 31
0.0
  0
LINE
  5
15A
330
20
100
AcDbEntity
  8
0
100
AcDbLine
 10
347.9460699999998
 20
133.13729
 30
0.0
 11
347.9460699999998
 21
111.50861
 31
0.0
  0
LINE
  5
15B
330
20
100
AcDbEntity
  8
0
100
AcDbLine
 10
357.4460699999999
 20
163.10861
 30
0.0
 11
357.4460699999999
 21
150.90861
 31
0.0
  0
LINE
  5
15C
330
20
100
AcDbEntity
  8
0
100
AcDbLine
 10
338.4460699999999
 20
163.50861
 30
0.0
 11
357.0460699999999
 21
163.50861
 31
0.0
  0
LINE
  5
15D
330
20
100
AcDbEntity
  8
0
100
AcDbLine
 10
338.4460699999999
 20
150.50861
 30
0.0
 11
357.0460699999999
 21
150.50861
 31
0.0
  0
ARC
  5
15E
330
20
100
AcDbEntity
  8
0
100
AcDbCircle
 10
357.0460699999999
 20
163.10861
 30
0.0
 40
0.4
100
AcDbArc
 50
0.0
 51
90.0
  0
ARC
  5
15F
330
20
100
AcDbEntity
  8
0
100
AcDbCircle
 10
357.0460699999999
 20
150.90861
 30
0.0
 40
0.4
100
AcDbArc
 50
270.0
 51
0.0
  0
LINE
  5
160
330
20
100
AcDbEntity
  8
0
100
AcDbLine
 10
338.4460699999999
 20
163.50861
 30
0.0
 11
338.4460699999999
 21
150.50861
 31
0.0
  0
LINE
  5
161
330
20
100
AcDbEntity
  8
hyou
100
AcDbLine
 10
245.9999999999998
 20
50.0
 30
0.0
 11
406.0
 21
50.0
 31
0.0
  0
TEXT
  5
162
330
20
100
AcDbEntity
  8
moji
100
AcDbText
 10
250.1331440286088
 20
46.00676286794781
 30
0.0
 40
2.5
  1
4
 41
1.199999999999999
100
AcDbText
  0
TEXT
  5
163
330
20
100
AcDbEntity
  8
moji
100
AcDbText
 10
257.1331440286089
 20
46.00676286794781
 30
0.0
 40
2.5
  1
ダンパーユニット
 41
0.834783
100
AcDbText
  0
TEXT
  5
164
330
20
100
AcDbEntity
  8
moji
100
AcDbText
 10
295.1331440286089
 20
46.00676286794781
 30
0.0
 40
2.5
  1
SUS 304 2B 1.5t
 41
0.4704550000000002
100
AcDbText
  0
TEXT
  5
165
330
20
100
AcDbEntity
  8
moji
100
AcDbText
 10
374.1331440286089
 20
46.00676286794781
 30
0.0
 40
2.5
  1
1
 41
1.199999999999999
100
AcDbText
  0
LINE
  5
167
330
20
100
AcDbEntity
  8
0
100
AcDbLine
 10
298.64607
 20
218.50861
 30
0.0
 11
295.44173
 21
218.50861
 31
0.0
  0
LINE
  5
168
330
20
100
AcDbEntity
  8
0
100
AcDbLine
 10
301.31215
 20
229.31154
 30
0.0
 11
297.17829
 21
227.38389
 31
0.0
  0
LINE
  5
169
330
20
100
AcDbEntity
  8
0
100
AcDbLine
 10
295.4575599999998
 20
224.92644
 30
0.0
 11
294.94363
 21
219.05219
 31
0.0
  0
ARC
  5
16A
330
20
100
AcDbEntity
  8
0
100
AcDbCircle
 10
295.44173
 20
219.00861
 30
0.0
 40
0.5
100
AcDbArc
 50
175.0
 51
270.0
  0
LINE
  5
16B
330
20
100
AcDbEntity
  8
0
100
AcDbLine
 10
294.94173
 20
219.00861
 30
0.0
 11
294.94173
 21
199.71848
 31
0.0
  0
LINE
  5
16C
330
20
100
AcDbEntity
  8
0
100
AcDbLine
 10
298.64607
 20
218.40861
 30
0.0
 11
297.14607
 21
218.40861
 31
0.0
  0
LINE
  5
16D
330
20
100
AcDbEntity
  8
0
100
AcDbLine
 10
301.9460699999998
 20
205.5288200000002
 30
0.0
 11
301.9460699999998
 21
227.95208
 31
0.0
  0
LINE
  5
16E
330
20
100
AcDbEntity
  8
0
100
AcDbLine
 10
297.14607
 20
95.60861
 30
0.0
 11
298.64607
 21
95.60861
 31
0.0
  0
LINE
  5
16F
330
20
100
AcDbEntity
  8
0
100
AcDbLine
 10
298.20673
 20
200.86216
 30
0.0
 11
290.72145
 21
193.3768799999999
 31
0.0
  0
LINE
  5
170
330
20
100
AcDbEntity
  8
0
100
AcDbLine
 10
298.64607
 20
213.25861
 30
0.0
 11
298.64607
 21
100.75861
 31
0.0
  0
LINE
  5
171
330
20
100
AcDbEntity
  8
0
100
AcDbLine
 10
297.14607
 20
190.50861
 30
0.0
 11
298.64607
 21
190.50861
 31
0.0
  0
LINE
  5
172
330
20
100
AcDbEntity
  8
0
100
AcDbLine
 10
289.66079
 20
194.43754
 30
0.0
 11
290.72145
 21
193.3768799999999
 31
0.0
  0
LINE
  5
173
330
20
100
AcDbEntity
  8
0
100
AcDbLine
 10
298.20673
 20
186.86216
 30
0.0
 11
290.72145
 21
179.37688
 31
0.0
  0
LINE
  5
174
330
20
100
AcDbEntity
  8
0
100
AcDbLine
 10
297.14607
 20
176.50861
 30
0.0
 11
298.64607
 21
176.50861
 31
0.0
  0
LINE
  5
175
330
20
100
AcDbEntity
  8
0
100
AcDbLine
 10
290.72145
 20
179.37688
 30
0.0
 11
289.66079
 21
180.4375399999999
 31
0.0
  0
LINE
  5
176
330
20
100
AcDbEntity
  8
0
100
AcDbLine
 10
298.20673
 20
172.86216
 30
0.0
 11
290.72145
 21
165.3768799999999
 31
0.0
  0
LINE
  5
177
330
20
100
AcDbEntity
  8
0
100
AcDbLine
 10
297.14607
 20
162.50861
 30
0.0
 11
298.64607
 21
162.50861
 31
0.0
  0
LINE
  5
178
330
20
100
AcDbEntity
  8
0
100
AcDbLine
 10
289.66079
 20
166.43754
 30
0.0
 11
290.72145
 21
165.3768799999999
 31
0.0
  0
LINE
  5
179
330
20
100
AcDbEntity
  8
0
100
AcDbLine
 10
298.20673
 20
158.86216
 30
0.0
 11
290.72145
 21
151.37688
 31
0.0
  0
LINE
  5
17A
330
20
100
AcDbEntity
  8
0
100
AcDbLine
 10
297.14607
 20
148.50861
 30
0.0
 11
298.64607
 21
148.50861
 31
0.0
  0
LINE
  5
17B
330
20
100
AcDbEntity
  8
0
100
AcDbLine
 10
289.66079
 20
152.43754
 30
0.0
 11
290.72145
 21
151.37688
 31
0.0
  0
LINE
  5
17C
330
20
100
AcDbEntity
  8
0
100
AcDbLine
 10
298.20673
 20
144.86216
 30
0.0
 11
290.72145
 21
137.3768799999999
 31
0.0
  0
LINE
  5
17D
330
20
100
AcDbEntity
  8
0
100
AcDbLine
 10
297.14607
 20
134.50861
 30
0.0
 11
298.64607
 21
134.50861
 31
0.0
  0
LINE
  5
17E
330
20
100
AcDbEntity
  8
0
100
AcDbLine
 10
289.66079
 20
138.43754
 30
0.0
 11
290.72145
 21
137.3768799999999
 31
0.0
  0
LINE
  5
17F
330
20
100
AcDbEntity
  8
0
100
AcDbLine
 10
298.20673
 20
130.86216
 30
0.0
 11
290.72145
 21
123.3768799999999
 31
0.0
  0
LINE
  5
180
330
20
100
AcDbEntity
  8
0
100
AcDbLine
 10
297.14607
 20
120.50861
 30
0.0
 11
298.64607
 21
120.50861
 31
0.0
  0
LINE
  5
181
330
20
100
AcDbEntity
  8
0
100
AcDbLine
 10
289.66079
 20
124.43754
 30
0.0
 11
290.72145
 21
123.3768799999999
 31
0.0
  0
LINE
  5
182
330
20
100
AcDbEntity
  8
0
100
AcDbLine
 10
298.20673
 20
116.86216
 30
0.0
 11
290.72145
 21
109.3768799999999
 31
0.0
  0
LINE
  5
183
330
20
100
AcDbEntity
  8
0
100
AcDbLine
 10
297.14607
 20
106.50861
 30
0.0
 11
298.64607
 21
106.50861
 31
0.0
  0
LINE
  5
184
330
20
100
AcDbEntity
  8
0
100
AcDbLine
 10
289.66079
 20
110.43754
 30
0.0
 11
290.72145
 21
109.3768799999999
 31
0.0
  0
LINE
  5
185
330
20
100
AcDbEntity
  8
0
100
AcDbLine
 10
298.84607
 20
211.20861
 30
0.0
 11
299.6460699999999
 21
211.20861
 31
0.0
  0
LINE
  5
186
330
20
100
AcDbEntity
  8
0
100
AcDbLine
 10
298.64607
 20
211.40861
 30
0.0
 11
298.64607
 21
213.25861
 31
0.0
  0
ARC
  5
187
330
20
100
AcDbEntity
  8
0
100
AcDbCircle
 10
298.84607
 20
211.40861
 30
0.0
 40
0.2
100
AcDbArc
 50
180.0
 51
270.0
  0
LINE
  5
188
330
20
100
AcDbEntity
  8
0
100
AcDbLine
 10
297.14607
 20
215.75861
 30
0.0
 11
300.1460699999999
 21
215.75861
 31
0.0
  0
LINE
  5
189
330
20
100
AcDbEntity
  8
0
100
AcDbLine
 10
297.14607
 20
213.25861
 30
0.0
 11
300.1460699999999
 21
213.25861
 31
0.0
  0
LINE
  5
18A
330
20
100
AcDbEntity
  8
0
100
AcDbLine
 10
297.14607
 20
212.20861
 30
0.0
 11
297.14607
 21
213.25861
 31
0.0
  0
ARC
  5
18B
330
20
100
AcDbEntity
  8
0
100
AcDbCircle
 10
299.63496
 20
214.50861
 30
0.0
 40
3.388888999999998
100
AcDbArc
 50
137.25875
 51
222.74124
  0
LINE
  5
18C
330
20
100
AcDbEntity
  8
0
100
AcDbLine
 10
300.64607
 20
216.00861
 30
0.0
 11
300.64607
 21
213.00861
 31
0.0
  0
LINE
  5
18D
330
20
100
AcDbEntity
  8
0
100
AcDbLine
 10
300.1460699999999
 20
216.3086100000001
 30
0.0
 11
300.3460700000001
 21
216.3086100000001
 31
0.0
  0
LINE
  5
18E
330
20
100
AcDbEntity
  8
0
100
AcDbLine
 10
300.1460699999999
 20
212.70861
 30
0.0
 11
300.3460700000001
 21
212.70861
 31
0.0
  0
LINE
  5
18F
330
20
100
AcDbEntity
  8
0
100
AcDbLine
 10
300.1460699999999
 20
216.3086100000001
 30
0.0
 11
300.1460699999999
 21
215.75861
 31
0.0
  0
ARC
  5
190
330
20
100
AcDbEntity
  8
0
100
AcDbCircle
 10
300.3460700000001
 20
216.00861
 30
0.0
 40
0.3
100
AcDbArc
 50
0.0
 51
90.0
  0
ARC
  5
191
330
20
100
AcDbEntity
  8
0
100
AcDbCircle
 10
300.3460700000001
 20
213.00861
 30
0.0
 40
0.3
100
AcDbArc
 50
270.0
 51
0.0
  0
LINE
  5
192
330
20
100
AcDbEntity
  8
0
100
AcDbLine
 10
294.94173
 20
95.00861000000003
 30
0.0
 11
294.94173
 21
113.59716
 31
0.0
  0
LINE
  5
193
330
20
100
AcDbEntity
  8
0
100
AcDbLine
 10
298.64607
 20
102.60861
 30
0.0
 11
298.64607
 21
100.75861
 31
0.0
  0
ARC
  5
194
330
20
100
AcDbEntity
  8
0
100
AcDbCircle
 10
298.4461499999999
 20
224.66497
 30
0.0
 40
3.0
100
AcDbArc
 50
115.0
 51
175.0
  0
LINE
  5
195
330
20
100
AcDbEntity
  8
0
100
AcDbLine
 10
294.94173
 20
197.59716
 30
0.0
 11
294.94173
 21
185.71848
 31
0.0
  0
LINE
  5
196
330
20
100
AcDbEntity
  8
0
100
AcDbLine
 10
294.94173
 20
183.59716
 30
0.0
 11
294.94173
 21
171.71848
 31
0.0
  0
LINE
  5
197
330
20
100
AcDbEntity
  8
0
100
AcDbLine
 10
294.94173
 20
169.59716
 30
0.0
 11
294.94173
 21
157.00861
 31
0.0
  0
LINE
  5
198
330
20
100
AcDbEntity
  8
0
100
AcDbLine
 10
294.94173
 20
143.71848
 30
0.0
 11
294.94173
 21
155.59716
 31
0.0
  0
LINE
  5
199
330
20
100
AcDbEntity
  8
0
100
AcDbLine
 10
294.94173
 20
128.30427
 30
0.0
 11
294.94173
 21
141.59716
 31
0.0
  0
LINE
  5
19A
330
20
100
AcDbEntity
  8
0
100
AcDbLine
 10
294.94173
 20
115.71848
 30
0.0
 11
294.94173
 21
127.59716
 31
0.0
  0
LINE
  5
19B
330
20
100
AcDbEntity
  8
0
100
AcDbLine
 10
301.9460699999998
 20
227.95208
 30
0.0
 11
297.8122200000001
 21
226.02443
 31
0.0
  0
ARC
  5
19C
330
20
100
AcDbEntity
  8
0
100
AcDbCircle
 10
298.4461499999999
 20
224.66497
 30
0.0
 40
1.5
100
AcDbArc
 50
115.0
 51
175.0
  0
LINE
  5
19D
330
20
100
AcDbEntity
  8
0
100
AcDbLine
 10
296.95185
 20
224.7957
 30
0.0
 11
296.53304
 21
220.00861
 31
0.0
  0
LINE
  5
19E
330
20
100
AcDbEntity
  8
0
100
AcDbLine
 10
301.9460699999998
 20
227.95208
 30
0.0
 11
301.31215
 21
229.31154
 31
0.0
  0
LINE
  5
19F
330
20
100
AcDbEntity
  8
0
100
AcDbLine
 10
299.6460699999999
 20
206.50861
 30
0.0
 11
299.6460699999999
 21
211.20861
 31
0.0
  0
LINE
  5
1A0
330
20
100
AcDbEntity
  8
0
100
AcDbLine
 10
301.14607
 20
206.50861
 30
0.0
 11
301.14607
 21
212.50861
 31
0.0
  0
LINE
  5
1A1
330
20
100
AcDbEntity
  8
0
100
AcDbLine
 10
298.64607
 20
220.00861
 30
0.0
 11
296.53304
 21
220.00861
 31
0.0
  0
ARC
  5
1A2
330
20
100
AcDbEntity
  8
0
100
AcDbCircle
 10
298.64607
 20
218.50861
 30
0.0
 40
1.5
100
AcDbArc
 50
0.0
 51
90.0
  0
LINE
  5
1A3
330
20
100
AcDbEntity
  8
0
100
AcDbLine
 10
300.1460699999999
 20
212.70861
 30
0.0
 11
300.1460699999999
 21
213.25861
 31
0.0
  0
LINE
  5
1A4
330
20
100
AcDbEntity
  8
0
100
AcDbLine
 10
300.1460699999999
 20
212.70861
 30
0.0
 11
300.9460699999999
 21
212.70861
 31
0.0
  0
ARC
  5
1A5
330
20
100
AcDbEntity
  8
0
100
AcDbCircle
 10
300.9460699999999
 20
212.50861
 30
0.0
 40
0.2
100
AcDbArc
 50
0.0
 51
90.0
  0
ARC
  5
1A6
330
20
100
AcDbEntity
  8
0
100
AcDbCircle
 10
302.14607
 20
206.50861
 30
0.0
 40
1.0
100
AcDbArc
 50
180.0
 51
270.0
  0
ARC
  5
1A7
330
20
100
AcDbEntity
  8
0
100
AcDbCircle
 10
302.14607
 20
206.50861
 30
0.0
 40
2.5
100
AcDbArc
 50
180.0
 51
270.0
  0
LINE
  5
1A8
330
20
100
AcDbEntity
  8
0
100
AcDbLine
 10
297.14607
 20
201.9228299999999
 30
0.0
 11
297.14607
 21
213.25861
 31
0.0
  0
LINE
  5
1A9
330
20
100
AcDbEntity
  8
0
100
AcDbLine
 10
297.14607
 20
201.9228299999999
 30
0.0
 11
289.66079
 21
194.43754
 31
0.0
  0
LINE
  5
1AA
330
20
100
AcDbEntity
  8
0
100
AcDbLine
 10
297.14607
 20
187.92283
 30
0.0
 11
289.66079
 21
180.4375399999999
 31
0.0
  0
LINE
  5
1AB
330
20
100
AcDbEntity
  8
0
100
AcDbLine
 10
297.14607
 20
187.92283
 30
0.0
 11
297.14607
 21
199.8015
 31
0.0
  0
LINE
  5
1AC
330
20
100
AcDbEntity
  8
0
100
AcDbLine
 10
297.14607
 20
173.9228299999999
 30
0.0
 11
297.14607
 21
185.8015
 31
0.0
  0
LINE
  5
1AD
330
20
100
AcDbEntity
  8
0
100
AcDbLine
 10
297.14607
 20
173.9228299999999
 30
0.0
 11
289.66079
 21
166.43754
 31
0.0
  0
LINE
  5
1AE
330
20
100
AcDbEntity
  8
0
100
AcDbLine
 10
297.14607
 20
159.92283
 30
0.0
 11
297.14607
 21
171.8015
 31
0.0
  0
LINE
  5
1AF
330
20
100
AcDbEntity
  8
0
100
AcDbLine
 10
297.14607
 20
159.92283
 30
0.0
 11
289.66079
 21
152.43754
 31
0.0
  0
LINE
  5
1B0
330
20
100
AcDbEntity
  8
0
100
AcDbLine
 10
297.14607
 20
157.8015
 30
0.0
 11
297.14607
 21
145.9228299999999
 31
0.0
  0
LINE
  5
1B1
330
20
100
AcDbEntity
  8
0
100
AcDbLine
 10
297.14607
 20
145.9228299999999
 30
0.0
 11
289.66079
 21
138.43754
 31
0.0
  0
LINE
  5
1B2
330
20
100
AcDbEntity
  8
0
100
AcDbLine
 10
297.14607
 20
131.92283
 30
0.0
 11
289.66079
 21
124.43754
 31
0.0
  0
LINE
  5
1B3
330
20
100
AcDbEntity
  8
0
100
AcDbLine
 10
297.14607
 20
143.8015
 30
0.0
 11
297.14607
 21
131.92283
 31
0.0
  0
LINE
  5
1B4
330
20
100
AcDbEntity
  8
0
100
AcDbLine
 10
297.14607
 20
117.92283
 30
0.0
 11
289.66079
 21
110.43754
 31
0.0
  0
LINE
  5
1B5
330
20
100
AcDbEntity
  8
0
100
AcDbLine
 10
297.14607
 20
129.8015
 30
0.0
 11
297.14607
 21
117.92283
 31
0.0
  0
LINE
  5
1B6
330
20
100
AcDbEntity
  8
0
100
AcDbLine
 10
297.14607
 20
115.8015
 30
0.0
 11
297.14607
 21
100.75861
 31
0.0
  0
ARC
  5
1B7
330
20
100
AcDbEntity
  8
0
100
AcDbCircle
 10
297.14607
 20
117.92283
 30
0.0
 40
1.5
100
AcDbArc
 50
315.0
 51
0.0
  0
ARC
  5
1B8
330
20
100
AcDbEntity
  8
0
100
AcDbCircle
 10
297.14607
 20
131.92283
 30
0.0
 40
1.5
100
AcDbArc
 50
315.0
 51
0.0
  0
ARC
  5
1B9
330
20
100
AcDbEntity
  8
0
100
AcDbCircle
 10
297.14607
 20
145.9228299999999
 30
0.0
 40
1.5
100
AcDbArc
 50
315.0
 51
0.0
  0
ARC
  5
1BA
330
20
100
AcDbEntity
  8
0
100
AcDbCircle
 10
297.14607
 20
159.92283
 30
0.0
 40
1.5
100
AcDbArc
 50
315.0
 51
0.0
  0
ARC
  5
1BB
330
20
100
AcDbEntity
  8
0
100
AcDbCircle
 10
297.14607
 20
173.9228299999999
 30
0.0
 40
1.5
100
AcDbArc
 50
315.0
 51
0.0
  0
ARC
  5
1BC
330
20
100
AcDbEntity
  8
0
100
AcDbCircle
 10
297.14607
 20
187.92283
 30
0.0
 40
1.5
100
AcDbArc
 50
315.0
 51
0.0
  0
ARC
  5
1BD
330
20
100
AcDbEntity
  8
0
100
AcDbCircle
 10
297.14607
 20
201.9228299999999
 30
0.0
 40
1.5
100
AcDbArc
 50
315.0
 51
0.0
  0
LINE
  5
1BE
330
20
100
AcDbEntity
  8
0
100
AcDbLine
 10
298.64607
 20
95.50861000000002
 30
0.0
 11
295.44173
 21
95.50861000000002
 31
0.0
  0
LINE
  5
1BF
330
20
100
AcDbEntity
  8
0
100
AcDbLine
 10
301.31215
 20
84.70568
 30
0.0
 11
297.17829
 21
86.63332999999999
 31
0.0
  0
LINE
  5
1C0
330
20
100
AcDbEntity
  8
0
100
AcDbLine
 10
295.4575599999998
 20
89.09079
 30
0.0
 11
294.94363
 21
94.96502999999998
 31
0.0
  0
ARC
  5
1C1
330
20
100
AcDbEntity
  8
0
100
AcDbCircle
 10
295.44173
 20
95.00861000000003
 30
0.0
 40
0.5
100
AcDbArc
 50
90.0
 51
185.0
  0
LINE
  5
1C2
330
20
100
AcDbEntity
  8
0
100
AcDbLine
 10
301.9460699999998
 20
108.48841
 30
0.0
 11
301.9460699999998
 21
86.06514000000002
 31
0.0
  0
ARC
  5
1C3
330
20
100
AcDbEntity
  8
0
100
AcDbCircle
 10
298.4461499999999
 20
89.35225
 30
0.0
 40
3.0
100
AcDbArc
 50
185.0
 51
245.0
  0
LINE
  5
1C4
330
20
100
AcDbEntity
  8
0
100
AcDbLine
 10
301.9460699999998
 20
86.06514000000002
 30
0.0
 11
297.8122200000001
 21
87.99279000000002
 31
0.0
  0
ARC
  5
1C5
330
20
100
AcDbEntity
  8
0
100
AcDbCircle
 10
298.4461499999999
 20
89.35225
 30
0.0
 40
1.5
100
AcDbArc
 50
185.0
 51
245.0
  0
LINE
  5
1C6
330
20
100
AcDbEntity
  8
0
100
AcDbLine
 10
296.95185
 20
89.22152000000002
 30
0.0
 11
296.53304
 21
94.00861000000004
 31
0.0
  0
LINE
  5
1C7
330
20
100
AcDbEntity
  8
0
100
AcDbLine
 10
301.9460699999998
 20
86.06514000000002
 30
0.0
 11
301.31215
 21
84.70568
 31
0.0
  0
LINE
  5
1C8
330
20
100
AcDbEntity
  8
0
100
AcDbLine
 10
299.6460699999999
 20
107.50861
 30
0.0
 11
299.6460699999999
 21
102.80861
 31
0.0
  0
LINE
  5
1C9
330
20
100
AcDbEntity
  8
0
100
AcDbLine
 10
301.14607
 20
107.50861
 30
0.0
 11
301.14607
 21
101.50861
 31
0.0
  0
LINE
  5
1CA
330
20
100
AcDbEntity
  8
0
100
AcDbLine
 10
298.64607
 20
94.00861000000004
 30
0.0
 11
296.53304
 21
94.00861000000004
 31
0.0
  0
ARC
  5
1CB
330
20
100
AcDbEntity
  8
0
100
AcDbCircle
 10
298.64607
 20
95.50861000000002
 30
0.0
 40
1.5
100
AcDbArc
 50
270.0
 51
0.0
  0
LINE
  5
1CC
330
20
100
AcDbEntity
  8
0
100
AcDbLine
 10
300.1460699999999
 20
101.30861
 30
0.0
 11
300.1460699999999
 21
100.75861
 31
0.0
  0
ARC
  5
1CD
330
20
100
AcDbEntity
  8
0
100
AcDbCircle
 10
302.14607
 20
107.50861
 30
0.0
 40
1.0
100
AcDbArc
 50
90.0
 51
180.0
  0
ARC
  5
1CE
330
20
100
AcDbEntity
  8
0
100
AcDbCircle
 10
302.14607
 20
107.50861
 30
0.0
 40
2.5
100
AcDbArc
 50
90.0
 51
180.0
  0
LINE
  5
1CF
330
20
100
AcDbEntity
  8
0
100
AcDbLine
 10
298.64607
 20
215.75861
 30
0.0
 11
298.64607
 21
218.50861
 31
0.0
  0
LINE
  5
1D0
330
20
100
AcDbEntity
  8
0
100
AcDbLine
 10
297.14607
 20
215.75861
 30
0.0
 11
297.14607
 21
218.40861
 31
0.0
  0
LINE
  5
1D1
330
20
100
AcDbEntity
  8
0
100
AcDbLine
 10
297.14607
 20
215.75861
 30
0.0
 11
297.14607
 21
216.80861
 31
0.0
  0
LINE
  5
1D2
330
20
100
AcDbEntity
  8
0
100
AcDbLine
 10
300.1460699999999
 20
213.25861
 30
0.0
 11
300.1460699999999
 21
212.70861
 31
0.0
  0
LINE
  5
1D3
330
20
100
AcDbEntity
  8
0
100
AcDbLine
 10
300.1460699999999
 20
215.75861
 30
0.0
 11
300.1460699999999
 21
218.50861
 31
0.0
  0
LINE
  5
1D4
330
20
100
AcDbEntity
  8
0
100
AcDbLine
 10
298.64607
 20
215.75861
 30
0.0
 11
298.64607
 21
218.40861
 31
0.0
  0
LINE
  5
1D5
330
20
100
AcDbEntity
  8
0
100
AcDbLine
 10
298.84607
 20
102.80861
 30
0.0
 11
299.6460699999999
 21
102.80861
 31
0.0
  0
ARC
  5
1D6
330
20
100
AcDbEntity
  8
0
100
AcDbCircle
 10
298.84607
 20
102.60861
 30
0.0
 40
0.2
100
AcDbArc
 50
90.0
 51
180.0
  0
LINE
  5
1D7
330
20
100
AcDbEntity
  8
0
100
AcDbLine
 10
297.14607
 20
98.25861000000003
 30
0.0
 11
300.1460699999999
 21
98.25861000000003
 31
0.0
  0
LINE
  5
1D8
330
20
100
AcDbEntity
  8
0
100
AcDbLine
 10
297.14607
 20
100.75861
 30
0.0
 11
300.1460699999999
 21
100.75861
 31
0.0
  0
LINE
  5
1D9
330
20
100
AcDbEntity
  8
0
100
AcDbLine
 10
297.14607
 20
101.80861
 30
0.0
 11
297.14607
 21
100.75861
 31
0.0
  0
ARC
  5
1DA
330
20
100
AcDbEntity
  8
0
100
AcDbCircle
 10
299.63496
 20
99.50861000000003
 30
0.0
 40
3.388888999999998
100
AcDbArc
 50
137.25875
 51
222.74124
  0
LINE
  5
1DB
330
20
100
AcDbEntity
  8
0
100
AcDbLine
 10
300.64607
 20
98.00861000000004
 30
0.0
 11
300.64607
 21
101.00861
 31
0.0
  0
LINE
  5
1DC
330
20
100
AcDbEntity
  8
0
100
AcDbLine
 10
300.1460699999999
 20
97.70861000000003
 30
0.0
 11
300.3460700000001
 21
97.70861000000003
 31
0.0
  0
LINE
  5
1DD
330
20
100
AcDbEntity
  8
0
100
AcDbLine
 10
300.1460699999999
 20
101.30861
 30
0.0
 11
300.3460700000001
 21
101.30861
 31
0.0
  0
LINE
  5
1DE
330
20
100
AcDbEntity
  8
0
100
AcDbLine
 10
300.1460699999999
 20
97.70861000000003
 30
0.0
 11
300.1460699999999
 21
98.25861000000003
 31
0.0
  0
ARC
  5
1DF
330
20
100
AcDbEntity
  8
0
100
AcDbCircle
 10
300.3460700000001
 20
98.00861000000004
 30
0.0
 40
0.3
100
AcDbArc
 50
270.0
 51
0.0
  0
ARC
  5
1E0
330
20
100
AcDbEntity
  8
0
100
AcDbCircle
 10
300.3460700000001
 20
101.00861
 30
0.0
 40
0.3
100
AcDbArc
 50
0.0
 51
90.0
  0
LINE
  5
1E1
330
20
100
AcDbEntity
  8
0
100
AcDbLine
 10
300.1460699999999
 20
101.30861
 30
0.0
 11
300.1460699999999
 21
100.75861
 31
0.0
  0
LINE
  5
1E2
330
20
100
AcDbEntity
  8
0
100
AcDbLine
 10
300.1460699999999
 20
101.30861
 30
0.0
 11
300.9460699999999
 21
101.30861
 31
0.0
  0
ARC
  5
1E3
330
20
100
AcDbEntity
  8
0
100
AcDbCircle
 10
300.9460699999999
 20
101.50861
 30
0.0
 40
0.2
100
AcDbArc
 50
270.0
 51
0.0
  0
LINE
  5
1E4
330
20
100
AcDbEntity
  8
0
100
AcDbLine
 10
297.14607
 20
98.25861000000003
 30
0.0
 11
297.14607
 21
97.20861000000002
 31
0.0
  0
LINE
  5
1E5
330
20
100
AcDbEntity
  8
0
100
AcDbLine
 10
300.1460699999999
 20
100.75861
 30
0.0
 11
300.1460699999999
 21
101.30861
 31
0.0
  0
LINE
  5
1E6
330
20
100
AcDbEntity
  8
0
100
AcDbLine
 10
297.14607
 20
98.25861000000003
 30
0.0
 11
297.14607
 21
95.60861
 31
0.0
  0
LINE
  5
1E7
330
20
100
AcDbEntity
  8
0
100
AcDbLine
 10
300.1460699999999
 20
98.25861000000003
 30
0.0
 11
300.1460699999999
 21
95.50861000000002
 31
0.0
  0
LINE
  5
1E8
330
20
100
AcDbEntity
  8
0
100
AcDbLine
 10
298.64607
 20
98.25861000000003
 30
0.0
 11
298.64607
 21
95.50861000000002
 31
0.0
  0
LINE
  5
1E9
330
20
100
AcDbEntity
  8
0
100
AcDbLine
 10
298.64607
 20
98.25861000000003
 30
0.0
 11
298.64607
 21
95.60861
 31
0.0
  0
CIRCLE
  5
1EA
330
20
100
AcDbEntity
  8
0
100
AcDbCircle
 10
299.1460699999999
 20
210.00861
 30
0.0
 40
0.5
  0
CIRCLE
  5
1EB
330
20
100
AcDbEntity
  8
0
100
AcDbCircle
 10
299.1460699999999
 20
208.00861
 30
0.0
 40
0.5
  0
CIRCLE
  5
1EC
330
20
100
AcDbEntity
  8
0
100
AcDbCircle
 10
299.1460699999999
 20
206.00861
 30
0.0
 40
0.5
  0
CIRCLE
  5
1ED
330
20
100
AcDbEntity
  8
0
100
AcDbCircle
 10
299.1460699999999
 20
204.00861
 30
0.0
 40
0.5
  0
CIRCLE
  5
1EE
330
20
100
AcDbEntity
  8
0
100
AcDbCircle
 10
299.1460699999999
 20
202.00861
 30
0.0
 40
0.5
  0
CIRCLE
  5
1EF
330
20
100
AcDbEntity
  8
0
100
AcDbCircle
 10
299.1460699999999
 20
200.00861
 30
0.0
 40
0.5
  0
CIRCLE
  5
1F0
330
20
100
AcDbEntity
  8
0
100
AcDbCircle
 10
299.1460699999999
 20
198.00861
 30
0.0
 40
0.5
  0
CIRCLE
  5
1F1
330
20
100
AcDbEntity
  8
0
100
AcDbCircle
 10
299.1460699999999
 20
196.00861
 30
0.0
 40
0.5
  0
CIRCLE
  5
1F2
330
20
100
AcDbEntity
  8
0
100
AcDbCircle
 10
299.1460699999999
 20
194.00861
 30
0.0
 40
0.5
  0
CIRCLE
  5
1F3
330
20
100
AcDbEntity
  8
0
100
AcDbCircle
 10
299.1460699999999
 20
192.00861
 30
0.0
 40
0.5
  0
CIRCLE
  5
1F4
330
20
100
AcDbEntity
  8
0
100
AcDbCircle
 10
299.1460699999999
 20
190.00861
 30
0.0
 40
0.5
  0
CIRCLE
  5
1F5
330
20
100
AcDbEntity
  8
0
100
AcDbCircle
 10
299.1460699999999
 20
188.00861
 30
0.0
 40
0.5
  0
CIRCLE
  5
1F6
330
20
100
AcDbEntity
  8
0
100
AcDbCircle
 10
299.1460699999999
 20
186.00861
 30
0.0
 40
0.5
  0
CIRCLE
  5
1F7
330
20
100
AcDbEntity
  8
0
100
AcDbCircle
 10
299.1460699999999
 20
184.00861
 30
0.0
 40
0.5
  0
CIRCLE
  5
1F8
330
20
100
AcDbEntity
  8
0
100
AcDbCircle
 10
299.1460699999999
 20
182.00861
 30
0.0
 40
0.5
  0
CIRCLE
  5
1F9
330
20
100
AcDbEntity
  8
0
100
AcDbCircle
 10
299.1460699999999
 20
180.00861
 30
0.0
 40
0.5
  0
CIRCLE
  5
1FA
330
20
100
AcDbEntity
  8
0
100
AcDbCircle
 10
299.1460699999999
 20
178.00861
 30
0.0
 40
0.5
  0
CIRCLE
  5
1FB
330
20
100
AcDbEntity
  8
0
100
AcDbCircle
 10
299.1460699999999
 20
176.00861
 30
0.0
 40
0.5
  0
CIRCLE
  5
1FC
330
20
100
AcDbEntity
  8
0
100
AcDbCircle
 10
299.1460699999999
 20
174.00861
 30
0.0
 40
0.5
  0
CIRCLE
  5
1FD
330
20
100
AcDbEntity
  8
0
100
AcDbCircle
 10
299.1460699999999
 20
172.00861
 30
0.0
 40
0.5
  0
CIRCLE
  5
1FE
330
20
100
AcDbEntity
  8
0
100
AcDbCircle
 10
299.1460699999999
 20
170.00861
 30
0.0
 40
0.5
  0
CIRCLE
  5
1FF
330
20
100
AcDbEntity
  8
0
100
AcDbCircle
 10
299.1460699999999
 20
168.00861
 30
0.0
 40
0.5
  0
CIRCLE
  5
200
330
20
100
AcDbEntity
  8
0
100
AcDbCircle
 10
299.1460699999999
 20
166.00861
 30
0.0
 40
0.5
  0
CIRCLE
  5
201
330
20
100
AcDbEntity
  8
0
100
AcDbCircle
 10
299.1460699999999
 20
164.00861
 30
0.0
 40
0.5
  0
CIRCLE
  5
202
330
20
100
AcDbEntity
  8
0
100
AcDbCircle
 10
299.1460699999999
 20
162.00861
 30
0.0
 40
0.5
  0
CIRCLE
  5
203
330
20
100
AcDbEntity
  8
0
100
AcDbCircle
 10
299.1460699999999
 20
160.00861
 30
0.0
 40
0.5
  0
CIRCLE
  5
204
330
20
100
AcDbEntity
  8
0
100
AcDbCircle
 10
299.1460699999999
 20
158.00861
 30
0.0
 40
0.5
  0
CIRCLE
  5
205
330
20
100
AcDbEntity
  8
0
100
AcDbCircle
 10
299.1460699999999
 20
156.00861
 30
0.0
 40
0.5
  0
CIRCLE
  5
206
330
20
100
AcDbEntity
  8
0
100
AcDbCircle
 10
299.1460699999999
 20
154.00861
 30
0.0
 40
0.5
  0
CIRCLE
  5
207
330
20
100
AcDbEntity
  8
0
100
AcDbCircle
 10
299.1460699999999
 20
152.00861
 30
0.0
 40
0.5
  0
CIRCLE
  5
208
330
20
100
AcDbEntity
  8
0
100
AcDbCircle
 10
299.1460699999999
 20
150.00861
 30
0.0
 40
0.5
  0
CIRCLE
  5
209
330
20
100
AcDbEntity
  8
0
100
AcDbCircle
 10
299.1460699999999
 20
148.00861
 30
0.0
 40
0.5
  0
CIRCLE
  5
20A
330
20
100
AcDbEntity
  8
0
100
AcDbCircle
 10
299.1460699999999
 20
146.00861
 30
0.0
 40
0.5
  0
CIRCLE
  5
20B
330
20
100
AcDbEntity
  8
0
100
AcDbCircle
 10
299.1460699999999
 20
144.00861
 30
0.0
 40
0.5
  0
CIRCLE
  5
20C
330
20
100
AcDbEntity
  8
0
100
AcDbCircle
 10
299.1460699999999
 20
142.00861
 30
0.0
 40
0.5
  0
CIRCLE
  5
20D
330
20
100
AcDbEntity
  8
0
100
AcDbCircle
 10
299.1460699999999
 20
140.00861
 30
0.0
 40
0.5
  0
CIRCLE
  5
20E
330
20
100
AcDbEntity
  8
0
100
AcDbCircle
 10
299.1460699999999
 20
138.00861
 30
0.0
 40
0.5
  0
CIRCLE
  5
20F
330
20
100
AcDbEntity
  8
0
100
AcDbCircle
 10
299.1460699999999
 20
136.00861
 30
0.0
 40
0.5
  0
CIRCLE
  5
210
330
20
100
AcDbEntity
  8
0
100
AcDbCircle
 10
299.1460699999999
 20
134.00861
 30
0.0
 40
0.5
  0
CIRCLE
  5
211
330
20
100
AcDbEntity
  8
0
100
AcDbCircle
 10
299.1460699999999
 20
132.00861
 30
0.0
 40
0.5
  0
CIRCLE
  5
212
330
20
100
AcDbEntity
  8
0
100
AcDbCircle
 10
299.1460699999999
 20
130.00861
 30
0.0
 40
0.5
  0
CIRCLE
  5
213
330
20
100
AcDbEntity
  8
0
100
AcDbCircle
 10
299.1460699999999
 20
128.00861
 30
0.0
 40
0.5
  0
CIRCLE
  5
214
330
20
100
AcDbEntity
  8
0
100
AcDbCircle
 10
299.1460699999999
 20
126.00861
 30
0.0
 40
0.5
  0
CIRCLE
  5
215
330
20
100
AcDbEntity
  8
0
100
AcDbCircle
 10
299.1460699999999
 20
124.00861
 30
0.0
 40
0.5
  0
CIRCLE
  5
216
330
20
100
AcDbEntity
  8
0
100
AcDbCircle
 10
299.1460699999999
 20
122.00861
 30
0.0
 40
0.5
  0
CIRCLE
  5
217
330
20
100
AcDbEntity
  8
0
100
AcDbCircle
 10
299.1460699999999
 20
120.00861
 30
0.0
 40
0.5
  0
CIRCLE
  5
218
330
20
100
AcDbEntity
  8
0
100
AcDbCircle
 10
299.1460699999999
 20
118.00861
 30
0.0
 40
0.5
  0
CIRCLE
  5
219
330
20
100
AcDbEntity
  8
0
100
AcDbCircle
 10
299.1460699999999
 20
116.00861
 30
0.0
 40
0.5
  0
CIRCLE
  5
21A
330
20
100
AcDbEntity
  8
0
100
AcDbCircle
 10
299.1460699999999
 20
114.00861
 30
0.0
 40
0.5
  0
CIRCLE
  5
21B
330
20
100
AcDbEntity
  8
0
100
AcDbCircle
 10
299.1460699999999
 20
112.00861
 30
0.0
 40
0.5
  0
CIRCLE
  5
21C
330
20
100
AcDbEntity
  8
0
100
AcDbCircle
 10
299.1460699999999
 20
110.00861
 30
0.0
 40
0.5
  0
CIRCLE
  5
21D
330
20
100
AcDbEntity
  8
0
100
AcDbCircle
 10
299.1460699999999
 20
108.00861
 30
0.0
 40
0.5
  0
CIRCLE
  5
21E
330
20
100
AcDbEntity
  8
0
100
AcDbCircle
 10
299.1460699999999
 20
106.00861
 30
0.0
 40
0.5
  0
CIRCLE
  5
21F
330
20
100
AcDbEntity
  8
0
100
AcDbCircle
 10
299.1460699999999
 20
104.00861
 30
0.0
 40
0.5
  0
LINE
  5
220
330
20
100
AcDbEntity
  8
0
100
AcDbLine
 10
299.6460699999999
 20
210.00861
 30
0.0
 11
299.6460699999999
 21
104.00861
 31
0.0
  0
TEXT
  5
221
330
20
100
AcDbEntity
  8
moji
100
AcDbText
 10
204.6884846248651
 20
14.35914318149571
 30
0.0
 40
4.5
  1
4
100
AcDbText
  0
TEXT
  5
222
330
20
100
AcDbEntity
  8
moji
100
AcDbText
 10
204.9412427848683
 20
6.611784039675112
 30
0.0
 40
4.5
  1
4
100
AcDbText
  0
LINE
  5
223
330
20
100
AcDbEntity
  8
hyou
100
AcDbLine
 10
115.0
 20
4.999999999999912
 30
0.0
 11
115.0
 21
29.0
 31
0.0
  0
TEXT
  5
224
330
20
100
AcDbEntity
  8
moji
100
AcDbText
 10
118.4611270306055
 20
22.43024633871471
 30
0.0
 40
4.5
  1
  C
 41
0.75
100
AcDbText
  0
TEXT
  5
225
330
20
100
AcDbEntity
  8
moji
100
AcDbText
 10
124.6884846248651
 20
14.35914318149571
 30
0.0
 40
4.5
  1
7
100
AcDbText
  0
TEXT
  5
226
330
20
100
AcDbEntity
  8
moji
100
AcDbText
 10
124.9412427848683
 20
6.611784039675112
 30
0.0
 40
4.5
  1
8
100
AcDbText
  0
LINE
  5
227
330
20
100
AcDbEntity
  8
hyou
100
AcDbLine
 10
194.9999999999998
 20
4.999999999999912
 30
0.0
 11
194.9999999999998
 21
29.0
 31
0.0
  0
TEXT
  5
228
330
20
100
AcDbEntity
  8
moji
100
AcDbText
 10
178.4611570306054
 20
22.43025633871472
 30
0.0
 40
4.5
  1
  F
 41
0.75
100
AcDbText
  0
TEXT
  5
229
330
20
100
AcDbEntity
  8
moji
100
AcDbText
 10
180.6028046248651
 20
14.44315318149569
 30
0.0
 40
4.5
  1
132
 41
0.75
100
AcDbText
  0
TEXT
  5
22A
330
20
100
AcDbEntity
  8
moji
100
AcDbText
 10
180.8555627848683
 20
6.695794039675121
 30
0.0
 40
4.5
  1
185
 41
0.75
100
AcDbText
  0
TEXT
  5
22B
330
20
100
AcDbEntity
  8
moji
100
AcDbText
 10
279.5075117381115
 20
17.23885125924721
 30
0.0
 40
4.5
  1
T,K
 41
0.75
100
AcDbText
  0
TEXT
  5
22C
330
20
100
AcDbEntity
  8
moji
100
AcDbText
 10
264.5075117381114
 20
17.23885125924721
 30
0.0
 40
4.5
  1
I,H
 41
0.75
100
AcDbText
  0
TEXT
  5
22D
330
20
100
AcDbEntity
  8
moji
100
AcDbText
 10
249.5075117381115
 20
17.23885125924721
 30
0.0
 40
4.5
  1
I,H
 41
0.75
100
AcDbText
  0
LINE
  5
22E
330
20
100
AcDbEntity
  8
0
100
AcDbLine
 10
295.4791299999998
 20
225.10861
 30
0.0
 11
297.01325
 21
225.10861
 31
0.0
  0
LINE
  5
22F
330
20
100
AcDbEntity
  8
0
100
AcDbLine
 10
295.10605
 20
220.90861
 30
0.0
 11
296.6117799999998
 21
220.90861
 31
0.0
  0
LINE
  5
230
330
20
100
AcDbEntity
  8
0
100
AcDbLine
 10
295.4791299999998
 20
88.90861000000002
 30
0.0
 11
297.01325
 21
88.90861000000002
 31
0.0
  0
LINE
  5
231
330
20
100
AcDbEntity
  8
0
100
AcDbLine
 10
295.10605
 20
93.10861
 30
0.0
 11
296.6117799999998
 21
93.10861
 31
0.0
  0
LINE
  5
233
330
20
100
AcDbEntity
  8
hyou
100
AcDbLine
 10
5.0
 20
29.0
 30
0.0
 11
75.0
 21
21.0
 31
0.0
  0
TEXT
  5
234
330
20
100
AcDbEntity
  8
moji
100
AcDbText
 10
6.193460000000013
 20
6.017350000000021
 30
0.0
 40
4.5
  1
VC150TV(A)P-FD , DK24FC-06S
 41
0.421875
100
AcDbText
  0
LINE
  5
235
330
20
100
AcDbEntity
  8
hyou
100
AcDbLine
 10
245.9999999999998
 20
45.0
 30
0.0
 11
406.0
 21
45.0
 31
0.0
  0
TEXT
  5
236
330
20
100
AcDbEntity
  8
moji
100
AcDbText
 10
257.1331440286089
 20
41.00676286794782
 30
0.0
 40
2.5
  1
温度ヒューズ 72℃
 41
0.7241380000000001
100
AcDbText
  0
TEXT
  5
237
330
20
100
AcDbEntity
  8
moji
100
AcDbText
 10
295.1331440286089
 20
41.00676286794782
 30
0.0
 40
2.5
  1
C1100P 0.4t
 41
0.4743750000000003
100
AcDbText
  0
TEXT
  5
238
330
20
100
AcDbEntity
  8
moji
100
AcDbText
 10
374.1331440286089
 20
41.00676286794782
 30
0.0
 40
2.5
  1
1
 41
1.199999999999999
100
AcDbText
  0
TEXT
  5
239
330
20
100
AcDbEntity
  8
moji
100
AcDbText
 10
381.9205240286088
 20
41.74484286794782
 30
0.0
 40
2.5
  1
DK24FC-06Sは、120℃
 41
0.43769
100
AcDbText
  0
LINE
  5
252
330
20
100
AcDbEntity
  8
0
  6
DOT
100
AcDbLine
 10
301.3302499999999
 20
230.83507
 30
0.0
 11
303.3942500000001
 21
230.83507
 31
0.0
  0
CIRCLE
  5
27F
330
20
100
AcDbEntity
  8
Dim
100
AcDbCircle
 10
265.0412799999998
 20
105.48496
 30
0.0
 40
5.0
  0
TEXT
  5
280
330
20
100
AcDbEntity
  8
Dim
100
AcDbText
 10
264.2457798219105
 20
102.8621370239374
 30
0.0
 40
5.0
  1
1
 41
1.125
100
AcDbText
  0
TEXT
  5
284
330
20
100
AcDbEntity
  8
Dim
100
AcDbText
 10
311.8886631255872
 20
220.978086286802
 30
0.0
 40
5.0
  1
2
 41
1.125
100
AcDbText
  0
CIRCLE
  5
285
330
20
100
AcDbEntity
  8
Dim
100
AcDbCircle
 10
313.5341
 20
223.43077
 30
0.0
 40
5.0
  0
CIRCLE
  5
289
330
20
100
AcDbEntity
  8
Dim
100
AcDbCircle
 10
339.5105999999998
 20
220.47068
 30
0.0
 40
5.0
  0
TEXT
  5
28A
330
20
100
AcDbEntity
  8
Dim
100
AcDbText
 10
337.1878696046877
 20
217.824582117236
 30
0.0
 40
5.0
  1
4
 41
1.125
100
AcDbText
  0
CIRCLE
  5
28B
330
20
100
AcDbEntity
  8
Dim
100
AcDbCircle
 10
349.1892199999999
 20
94.33024000000001
 30
0.0
 40
5.0
  0
TEXT
  5
28F
330
20
100
AcDbEntity
  8
Dim
100
AcDbText
 10
347.4498267106524
 20
91.78410986389099
 30
0.0
 40
5.0
  1
3
 41
1.125
100
AcDbText
  0
CIRCLE
  5
293
330
20
100
AcDbEntity
  8
Dim
100
AcDbCircle
 10
385.3975799999998
 20
136.3961299999999
 30
0.0
 40
5.0
  0
TEXT
  5
294
330
20
100
AcDbEntity
  8
Dim
100
AcDbText
 10
383.7710443011102
 20
133.5728311511183
 30
0.0
 40
5.0
  1
5
 41
1.125
100
AcDbText
  0
TEXT
  5
295
330
20
100
AcDbEntity
  8
moji
100
AcDbText
 10
250.1331440286088
 20
41.00676286794782
 30
0.0
 40
2.5
  1
5
 41
1.199999999999999
100
AcDbText
  0
TEXT
  5
296
330
20
100
AcDbEntity
  8
moji
100
AcDbText
 10
314.4197929373309
 20
28.63680359847645
 30
0.0
 40
2.5
  1
平型換気口(防火ダンパー付)
 41
0.6092310000000003
100
AcDbText
  0
TEXT
  5
297
330
20
100
AcDbEntity
  8
moji
100
AcDbText
 10
314.4262816741506
 20
16.91231359847643
 30
0.0
 40
2.5
  1
DK24FC-08S , DK24FC-06S
 41
0.549632
100
AcDbText
  0
TEXT
  5
298
330
20
100
AcDbEntity
  8
moji
100
AcDbText
 10
314.5454390475159
 20
22.49540359847643
 30
0.0
 40
2.5
  1
VC100TV(A)P-FD , VC150TV(A)P-FD
 41
0.5054350000000003
100
AcDbText
  0
TEXT
  5
299
330
20
100
AcDbEntity
  8
moji
100
AcDbText
 10
262.9232484842324
 20
30.16410114610872
 30
0.0
 40
2.5
  1
平成11年10月9日
 41
0.8228569999999999
100
AcDbText
  0
TEXT
  5
29A
330
20
100
AcDbEntity
  8
moji
100
AcDbText
 10
201.8362370306054
 20
22.24179633871469
 30
0.0
 40
4.5
  1
ﾘﾍﾞｯﾄ
 41
0.727273
100
AcDbText
  0
TEXT
  5
29B
330
20
100
AcDbEntity
  8
moji
100
AcDbText
 10
308.6649700000001
 20
3.217910000000017
 30
0.0
 40
10.0
  1
マックス株式会社
 41
0.830769
100
AcDbText
  0
TEXT
  5
2A3
330
20
100
AcDbEntity
  8
moji
100
AcDbText
 10
372.3152905023632
 20
65.85095286794781
 30
0.0
 40
2.5
  1
数量
 41
0.9599999999999999
100
AcDbText
  0
TEXT
  5
2A4
330
20
100
AcDbEntity
  8
moji
100
AcDbText
 10
343.8681645525372
 20
65.98815286794783
 30
0.0
 40
2.5
  1
仕　　　上
 41
0.8571429999999999
100
AcDbText
  0
TEXT
  5
2A5
330
20
100
AcDbEntity
  8
moji
100
AcDbText
 10
248.4248244326429
 20
66.12536286794792
 30
0.0
 40
2.5
  1
部番
 41
0.9599999999999999
100
AcDbText
  0
TEXT
  5
2A6
330
20
100
AcDbEntity
  8
moji
100
AcDbText
 10
262.5290840286088
 20
65.98815286794783
 30
0.0
 40
2.5
  1
名　　　称
 41
0.8571429999999999
100
AcDbText
  0
DIMENSION
  5
2DC
330
20
100
AcDbEntity
  8
Dim
100
AcDbDimension
  2
*D1
 10
301.9460699999998
 20
239.00653
 30
0.0
 11
298.4438999999999
 21
243.00653
 31
0.0
 70
    32
  1
Ｃ
 71
     5
 42
7.004339999999785
  3
1-1
100
AcDbAlignedDimension
 13
294.94173
 23
228.51334
 33
0.0
 14
301.9460699999998
 24
228.51334
 34
0.0
100
AcDbRotatedDimension
1001
ACAD
1000
DSTYLE
1002
{
1070
   279
1070
     2
1002
}
  0
DIMENSION
  5
2FE
330
20
100
AcDbEntity
  8
Dim
100
AcDbDimension
  2
*D2
 10
357.4460699999999
 20
239.00653
 30
0.0
 11
329.6960699999999
 21
243.00653
 31
0.0
 70
    32
  1
Ｄ
 71
     5
 42
55.50000000000006
  3
1-1
100
AcDbAlignedDimension
 13
301.9460699999998
 23
228.51334
 33
0.0
 14
357.4460699999999
 24
166.77966
 34
0.0
100
AcDbRotatedDimension
  0
DIMENSION
  5
314
330
20
100
AcDbEntity
  8
Dim
100
AcDbDimension
  2
*D3
 10
349.44607
 20
230.83507
 30
0.0
 11
325.6960699999999
 21
234.8350700000001
 31
0.0
 70
    32
  1
Ｅ
 71
     5
 42
47.50000000000023
  3
1-1
100
AcDbAlignedDimension
 13
301.9460699999998
 23
228.51334
 33
0.0
 14
349.44607
 24
200.50861
 34
0.0
100
AcDbRotatedDimension
  0
DIMENSION
  5
321
330
20
100
AcDbEntity
  8
Dim
100
AcDbDimension
  2
*D4
 10
374.8632599999999
 20
108.50861
 30
0.0
 11
370.8632599999999
 21
157.00861
 31
0.0
 70
    32
  1
φ Ｂ
 71
     5
 42
97.00000000000002
  3
1-1
100
AcDbAlignedDimension
 13
348.8322500000001
 23
205.50861
 33
0.0
 14
348.8322500000001
 24
108.50861
 34
0.0
 50
90.0
100
AcDbRotatedDimension
  0
DIMENSION
  5
32E
330
20
100
AcDbEntity
  8
Dim
100
AcDbDimension
  2
*D5
 10
255.6823699999998
 20
84.70568000000001
 30
0.0
 11
251.6823699999998
 21
157.00861
 31
0.0
 70
    32
  1
φ Ａ
 71
     5
 42
144.6058599999999
  3
1-1
100
AcDbAlignedDimension
 13
297.2664299999999
 23
229.31154
 33
0.0
 14
297.2664299999999
 24
84.70568
 34
0.0
 50
90.0
100
AcDbRotatedDimension
  0
LINE
  5
395
330
20
100
AcDbEntity
  8
Dim
100
AcDbLine
 10
301.9460699999998
 20
239.00653
 30
0.0
 11
294.94173
 21
239.00653
 31
0.0
  0
MTEXT
  5
397
330
20
100
AcDbEntity
  8
Dim
100
AcDbMText
 10
164.3431842463027
 20
224.95637
 30
0.0
 40
6.0
 41
0.0
 71
     7
 72
     1
  1
リベット
 73
     1
 44
1.0
1001
ACAD
1000
MTEXTBEGIN
1070
    73
1070
     1
1070
    44
1040
1.0
1070
    74
1070
     0
1000
MTEXTEND
  0
MTEXT
  5
399
330
20
100
AcDbEntity
  8
Dim
100
AcDbMText
 10
181.0475040914466
 20
181.7358299999999
 30
0.0
 40
6.0
 41
0.0
 71
     7
 72
     1
  1
ＰＣＤ φＦ
 73
     1
 44
1.0
1001
ACAD
1000
MTEXTBEGIN
1070
    73
1070
     1
1070
    44
1040
1.0
1070
    74
1070
     0
1000
MTEXTEND
  0
MTEXT
  5
39B
330
20
100
AcDbEntity
  8
Dim
100
AcDbMText
 10
183.9363072432451
 20
136.59436
 30
0.0
 40
6.0
 41
0.0
 71
     7
 72
     1
  1
2-φ4.2
 73
     1
 44
1.0
1001
ACAD
1000
MTEXTBEGIN
1070
    73
1070
     1
1070
    44
1040
1.0
1070
    74
1070
     0
1000
MTEXTEND
  0
LWPOLYLINE
  5
3F6
330
20
100
AcDbEntity
  8
waku
100
AcDbPolyline
 90
        4
 70
     1
 43
0.0
 10
0.0
 20
283.9999999999999
 10
406.0
 20
283.9999999999999
 10
406.0
 20
0.0
 10
0.0
 20
0.0
  0
LWPOLYLINE
  5
3F7
330
20
100
AcDbEntity
  8
waku
100
AcDbPolyline
 90
        4
 70
     1
 43
0.0
 10
406.0
 20
35.0
 10
245.9999999999998
 20
35.0
 10
245.9999999999998
 20
0.0
 10
406.0
 20
0.0
  0
LWPOLYLINE
  5
3F8
330
20
100
AcDbEntity
  8
hyou
100
AcDbPolyline
 90
        4
 70
     1
 43
0.0
 10
245.9999999999998
 20
70.0
 10
406.0
 20
70.0
 10
406.0
 20
35.0
 10
245.9999999999998
 20
35.0
  0
LWPOLYLINE
  5
3F9
330
20
100
AcDbEntity
  8
hyou
100
AcDbPolyline
 90
        4
 70
     1
 43
0.0
 10
5.0
 20
29.0
 10
215.0
 20
29.0
 10
215.0
 20
4.999999999999912
 10
5.0
 20
4.999999999999913
  0
INSERT
  5
435
330
20
100
AcDbEntity
  8
Dim
100
AcDbBlockReference
  2
_Open30
 10
306.8806099999998
 20
205.59228
 30
0.0
 41
3.599999999999999
 42
3.599999999999999
 43
3.599999999999999
 50
249.8286210952441
  0
LWPOLYLINE
  5
436
330
20
100
AcDbEntity
  8
Dim
100
AcDbPolyline
 90
        2
 70
     0
 43
0.0
 10
308.121995653929
 20
208.9714754158082
 10
311.7218699999999
 20
218.77075
  0
INSERT
  5
437
330
20
100
AcDbEntity
  8
Dim
100
AcDbBlockReference
  2
_Open30
 10
330.6735599999998
 20
176.44056
 30
0.0
 41
3.599999999999999
 42
3.599999999999999
 43
3.599999999999999
 50
258.5911017491048
  0
LWPOLYLINE
  5
438
330
20
100
AcDbEntity
  8
Dim
100
AcDbPolyline
 90
        2
 70
     0
 43
0.0
 10
331.3856744801142
 20
179.9694256771279
 10
338.5678199999999
 20
215.56037
  0
INSERT
  5
439
330
20
100
AcDbEntity
  8
Dim
100
AcDbBlockReference
  2
_Open30
 10
352.33673
 20
152.92655
 30
0.0
 41
3.599999999999999
 42
3.599999999999999
 43
3.599999999999999
 50
153.4349648560392
1001
ACAD
1000
DSTYLE
1002
{
1070
   147
1040
0.05
1070
    77
1070
     0
1002
}
  0
LWPOLYLINE
  5
43A
330
20
100
AcDbEntity
  8
Dim
100
AcDbPolyline
 90
        2
 70
     0
 43
0.0
 10
355.5566683381182
 20
151.3165819572376
 10
380.9254499999998
 20
138.6322
1001
ACAD
1000
DSTYLE
1002
{
1070
   147
1040
0.05
1070
    77
1070
     0
1002
}
  0
INSERT
  5
43B
330
20
100
AcDbEntity
  8
Dim
100
AcDbBlockReference
  2
_Open30
 10
299.94412
 20
140.85836
 30
0.0
 41
3.599999999999999
 42
3.599999999999999
 43
3.599999999999999
 50
136.6249802939724
1001
ACAD
1000
DSTYLE
1002
{
1070
   147
1040
0.05
1070
    77
1070
     0
1002
}
  0
LWPOLYLINE
  5
43C
330
20
100
AcDbEntity
  8
Dim
100
AcDbPolyline
 90
        2
 70
     0
 43
0.0
 10
302.5608669906702
 20
138.3859855973621
 10
345.5548499999999
 20
97.76409000000001
1001
ACAD
1000
DSTYLE
1002
{
1070
   147
1040
0.05
1070
    77
1070
     0
1002
}
  0
INSERT
  5
43D
330
20
100
AcDbEntity
  8
Dim
100
AcDbBlockReference
  2
_Open30
 10
289.8012499999999
 20
123.83805
 30
0.0
 41
3.599999999999999
 42
3.599999999999999
 43
3.599999999999999
 50
37.02076379952401
1001
ACAD
1000
DSTYLE
1002
{
1070
   147
1040
0.05
1070
    77
1070
     0
1002
}
  0
LWPOLYLINE
  5
43E
330
20
100
AcDbEntity
  8
Dim
100
AcDbPolyline
 90
        2
 70
     0
 43
0.0
 10
286.9269474973375
 20
121.6704741366934
 10
269.18152
 20
108.28825
1001
ACAD
1000
DSTYLE
1002
{
1070
   147
1040
0.05
1070
    77
1070
     0
1002
}
  0
INSERT
  5
43F
330
20
100
AcDbEntity
  8
Dim
100
AcDbBlockReference
  2
_Open30
 10
142.47777
 20
197.66725
 30
0.0
 41
3.599999999999999
 42
3.599999999999999
 43
3.599999999999999
 50
232.6664235925683
  0
LWPOLYLINE
  5
440
330
20
100
AcDbEntity
  8
Dim
100
AcDbPolyline
 90
        4
 70
     0
 43
0.0
 10
144.6610060511338
 20
200.529675605152
 10
162.52907
 20
223.9563700000001
 10
163.3431842463027
 20
223.95637
 10
189.9431842463027
 20
223.95637
  0
INSERT
  5
441
330
20
100
AcDbEntity
  8
Dim
100
AcDbBlockReference
  2
_Open30
 10
166.69105
 20
170.1708
 30
0.0
 41
3.599999999999999
 42
3.599999999999999
 43
3.599999999999999
 50
220.9717645947333
  0
LWPOLYLINE
  5
442
330
20
100
AcDbEntity
  8
Dim
100
AcDbPolyline
 90
        4
 70
     0
 43
0.0
 10
169.4091680619073
 20
172.5312733003221
 10
178.85683
 20
180.7358299999999
 10
180.0475040914466
 20
180.7358299999999
 10
217.8475040914467
 20
180.7358299999999
  0
INSERT
  5
443
330
20
100
AcDbEntity
  8
Dim
100
AcDbBlockReference
  2
_Open30
 10
168.63012
 20
156.57802
 30
0.0
 41
3.599999999999999
 42
3.599999999999999
 43
3.599999999999999
 50
121.9922111259552
  0
LWPOLYLINE
  5
444
330
20
100
AcDbEntity
  8
Dim
100
AcDbPolyline
 90
        4
 70
     0
 43
0.0
 10
170.5374143078733
 20
153.524787545182
 10
181.7382
 20
135.59436
 10
182.9363072432451
 20
135.59436
 10
215.1363072432451
 20
135.59436
  0
ENDSEC
  0
SECTION
  2
OBJECTS
  0
DICTIONARY
  5
C
330
0
100
AcDbDictionary
281
     1
  3
ACAD_COLOR
350
1B
  3
ACAD_GROUP
350
D
  3
ACAD_LAYOUT
350
19
  3
ACAD_MATERIAL
350
1A
  3
ACAD_MLINESTYLE
350
16
  3
ACAD_PLOTSETTINGS
350
18
  3
ACAD_PLOTSTYLENAME
350
E
  3
ACDBHEADERROUNDTRIPXREC
350
446
  3
AcDbVariableDictionary
350
39C
  0
DICTIONARY
  5
1B
102
{ACAD_REACTORS
330
C
102
}
330
C
100
AcDbDictionary
281
     1
  0
DICTIONARY
  5
D
102
{ACAD_REACTORS
330
C
102
}
330
C
100
AcDbDictionary
281
     1
  0
DICTIONARY
  5
19
102
{ACAD_REACTORS
330
C
102
}
330
C
100
AcDbDictionary
281
     1
  3
Model
350
23
  3
レイアウト1
350
1F
  0
DICTIONARY
  5
1A
102
{ACAD_REACTORS
330
C
102
}
330
C
100
AcDbDictionary
281
     1
  0
DICTIONARY
  5
16
102
{ACAD_REACTORS
330
C
102
}
330
C
100
AcDbDictionary
281
     1
  3
Standard
350
17
  0
DICTIONARY
  5
18
102
{ACAD_REACTORS
330
C
102
}
330
C
100
AcDbDictionary
281
     1
  0
ACDBDICTIONARYWDFLT
  5
E
102
{ACAD_REACTORS
330
C
102
}
330
C
100
AcDbDictionary
281
     1
  3
Normal
350
F
100
AcDbDictionaryWithDefault
340
F
  0
DICTIONARY
  5
446
102
{ACAD_REACTORS
330
C
102
}
330
C
100
AcDbDictionary
281
     1
  3
COLORDICT
350
448
  3
MATERIALDICT
350
447
  0
DICTIONARY
  5
39C
102
{ACAD_REACTORS
330
C
102
}
330
C
100
AcDbDictionary
281
     1
  3
DIMASSOC
350
39D
  3
PROJECTNAME
350
39E
  0
LAYOUT
  5
23
102
{ACAD_XDICTIONARY
360
44B
102
}
102
{ACAD_REACTORS
330
19
102
}
330
19
100
AcDbPlotSettings
  1

  2
Microsoft Office Document Image Writer
  4

  6

 40
0.0
 41
0.0
 42
0.0
 43
0.0
 44
0.0
 45
0.0
 46
0.0
 47
0.0
 48
0.0
 49
0.0
140
0.0
141
0.0
142
1.0
143
1.0
 70
  1712
 72
     0
 73
     0
 74
     0
  7

 75
     0
147
1.0
148
0.0
149
0.0
100
AcDbLayout
  1
Model
 70
     1
 71
     0
 10
0.0
 20
0.0
 11
12.0
 21
9.0
 12
0.0
 22
0.0
 32
0.0
 14
0.0
 24
0.0
 34
0.0
 15
0.0
 25
0.0
 35
0.0
146
0.0
 13
0.0
 23
0.0
 33
0.0
 16
1.0
 26
0.0
 36
0.0
 17
0.0
 27
1.0
 37
0.0
 76
     0
330
20
  0
LAYOUT
  5
1F
102
{ACAD_XDICTIONARY
360
449
102
}
102
{ACAD_REACTORS
330
19
102
}
330
19
100
AcDbPlotSettings
  1

  2
Microsoft Office Document Image Writer
  4

  6

 40
0.0
 41
0.0
 42
0.0
 43
0.0
 44
0.0
 45
0.0
 46
0.0
 47
0.0
 48
0.0
 49
0.0
140
0.0
141
0.0
142
1.0
143
1.0
 70
   688
 72
     0
 73
     0
 74
     5
  7

 75
    16
147
1.0
148
0.0
149
0.0
100
AcDbLayout
  1
レイアウト1
 70
     1
 71
     1
 10
0.0
 20
0.0
 11
12.0
 21
9.0
 12
0.0
 22
0.0
 32
0.0
 14
1.000000000000000E+20
 24
1.000000000000000E+20
 34
1.000000000000000E+20
 15
-1.000000000000000E+20
 25
-1.000000000000000E+20
 35
-1.000000000000000E+20
146
0.0
 13
0.0
 23
0.0
 33
0.0
 16
1.0
 26
0.0
 36
0.0
 17
0.0
 27
1.0
 37
0.0
 76
     0
330
1C
  0
MLINESTYLE
  5
17
102
{ACAD_REACTORS
330
16
102
}
330
16
100
AcDbMlineStyle
  2
STANDARD
 70
     0
  3

 62
   256
 51
90.0
 52
90.0
 71
     2
 49
0.5
 62
   256
  6
BYLAYER
 49
-0.5
 62
   256
  6
BYLAYER
  0
ACDBPLACEHOLDER
  5
F
102
{ACAD_REACTORS
330
E
102
}
330
E
  0
XRECORD
  5
448
102
{ACAD_REACTORS
330
446
102
}
330
446
100
AcDbXrecord
280
     1
340
1B
  0
XRECORD
  5
447
102
{ACAD_REACTORS
330
446
102
}
330
446
100
AcDbXrecord
280
     1
340
1A
  0
DICTIONARYVAR
  5
39D
102
{ACAD_REACTORS
330
39C
102
}
330
39C
100
DictionaryVariables
280
     0
  1
1
  0
DICTIONARYVAR
  5
39E
102
{ACAD_REACTORS
330
39C
102
}
330
39C
100
DictionaryVariables
280
     0
  1

  0
DICTIONARY
  5
44B
330
23
100
AcDbDictionary
280
     1
281
     1
  3
ACAD_XREC_ROUNDTRIP
360
44C
  0
DICTIONARY
  5
449
330
1F
100
AcDbDictionary
280
     1
281
     1
  3
ACAD_XREC_ROUNDTRIP
360
44A
  0
XRECORD
  5
44C
102
{ACAD_REACTORS
330
44B
102
}
330
44B
100
AcDbXrecord
280
     1
102
SHADEPLOT
 70
     0
102
SHADEPLOTRESLEVEL
 70
     2
102
SHADEPLOTCUSTOMDPI
 70
   300
  0
XRECORD
  5
44A
102
{ACAD_REACTORS
330
449
102
}
330
449
100
AcDbXrecord
280
     1
102
SHADEPLOT
 70
     0
102
SHADEPLOTRESLEVEL
 70
     2
102
SHADEPLOTCUSTOMDPI
 70
   300
  0
ENDSEC
  0
EOF
