  0
SECTION
  2
HEADER
  9
$ACADVER
  1
AC1015
  9
$ACADMAINTVER
 70
    20
  9
$DWGCODEPAGE
  3
ANSI_932
  9
$INSBASE
 10
0.0
 20
0.0
 30
0.0
  9
$EXTMIN
 10
0.0
 20
0.0
 30
0.0
  9
$EXTMAX
 10
406.0
 20
283.9999999999999
 30
0.0
  9
$LIMMIN
 10
0.0
 20
0.0
  9
$LIMMAX
 10
841.0
 20
594.0
  9
$ORTHOMODE
 70
     1
  9
$REGENMODE
 70
     1
  9
$FILLMODE
 70
     1
  9
$QTEXTMODE
 70
     0
  9
$MIRRTEXT
 70
     0
  9
$LTSCALE
 40
1.0
  9
$ATTMODE
 70
     1
  9
$TEXTSIZE
 40
0.2
  9
$TRACEWID
 40
0.05
  9
$TEXTSTYLE
  7
STANDARD
  9
$CLAYER
  8
hyou
  9
$CELTYPE
  6
ByLayer
  9
$CECOLOR
 62
   256
  9
$CELTSCALE
 40
1.0
  9
$DISPSILH
 70
     0
  9
$DIMSCALE
 40
20.0
  9
$DIMASZ
 40
0.18
  9
$DIMEXO
 40
0.0625
  9
$DIMDLI
 40
0.38
  9
$DIMRND
 40
0.0
  9
$DIMDLE
 40
0.0
  9
$DIMEXE
 40
0.1
  9
$DIMTP
 40
0.0
  9
$DIMTM
 40
0.0
  9
$DIMTXT
 40
0.3
  9
$DIMCEN
 40
0.09
  9
$DIMTSZ
 40
0.0
  9
$DIMTOL
 70
     0
  9
$DIMLIM
 70
     0
  9
$DIMTIH
 70
     0
  9
$DIMTOH
 70
     0
  9
$DIMSE1
 70
     0
  9
$DIMSE2
 70
     0
  9
$DIMTAD
 70
     1
  9
$DIMZIN
 70
     0
  9
$DIMBLK
  1
Open30
  9
$DIMASO
 70
     1
  9
$DIMSHO
 70
     1
  9
$DIMPOST
  1

  9
$DIMAPOST
  1

  9
$DIMALT
 70
     0
  9
$DIMALTD
 70
     2
  9
$DIMALTF
 40
25.4
  9
$DIMLFAC
 40
1.0
  9
$DIMTOFL
 70
     0
  9
$DIMTVP
 40
0.0
  9
$DIMTIX
 70
     0
  9
$DIMSOXD
 70
     0
  9
$DIMSAH
 70
     0
  9
$DIMBLK1
  1

  9
$DIMBLK2
  1

  9
$DIMSTYLE
  2
1-1
  9
$DIMCLRD
 70
     0
  9
$DIMCLRE
 70
     0
  9
$DIMCLRT
 70
     0
  9
$DIMTFAC
 40
1.0
  9
$DIMGAP
 40
0.05
  9
$DIMJUST
 70
     0
  9
$DIMSD1
 70
     0
  9
$DIMSD2
 70
     0
  9
$DIMTOLJ
 70
     1
  9
$DIMTZIN
 70
     0
  9
$DIMALTZ
 70
     0
  9
$DIMALTTZ
 70
     0
  9
$DIMUPT
 70
     0
  9
$DIMDEC
 70
     4
  9
$DIMTDEC
 70
     4
  9
$DIMALTU
 70
     2
  9
$DIMALTTD
 70
     2
  9
$DIMTXSTY
  7
STANDARD
  9
$DIMAUNIT
 70
     0
  9
$DIMADEC
 70
     0
  9
$DIMALTRND
 40
0.0
  9
$DIMAZIN
 70
     0
  9
$DIMDSEP
 70
    46
  9
$DIMATFIT
 70
     3
  9
$DIMFRAC
 70
     0
  9
$DIMLDRBLK
  1
Open30
  9
$DIMLUNIT
 70
     2
  9
$DIMLWD
 70
    -2
  9
$DIMLWE
 70
    -2
  9
$DIMTMOVE
 70
     0
  9
$LUNITS
 70
     2
  9
$LUPREC
 70
     4
  9
$SKETCHINC
 40
0.1
  9
$FILLETRAD
 40
0.0
  9
$AUNITS
 70
     0
  9
$AUPREC
 70
     0
  9
$MENU
  1
.
  9
$ELEVATION
 40
0.0
  9
$PELEVATION
 40
0.0
  9
$THICKNESS
 40
0.0
  9
$LIMCHECK
 70
     0
  9
$CHAMFERA
 40
0.0
  9
$CHAMFERB
 40
0.0
  9
$CHAMFERC
 40
0.0
  9
$CHAMFERD
 40
0.0
  9
$SKPOLY
 70
     0
  9
$TDCREATE
 40
2455166.559449225
  9
$TDUCREATE
 40
2455166.184449225
  9
$TDUPDATE
 40
2455236.622134028
  9
$TDUUPDATE
 40
2455236.247134028
  9
$TDINDWG
 40
0.0830038426
  9
$TDUSRTIMER
 40
0.0830014931
  9
$USRTIMER
 70
     1
  9
$ANGBASE
 50
0.0
  9
$ANGDIR
 70
     0
  9
$PDMODE
 70
     0
  9
$PDSIZE
 40
0.0
  9
$PLINEWID
 40
0.0
  9
$SPLFRAME
 70
     0
  9
$SPLINETYPE
 70
     6
  9
$SPLINESEGS
 70
     8
  9
$HANDSEED
  5
7C1
  9
$SURFTAB1
 70
     6
  9
$SURFTAB2
 70
     6
  9
$SURFTYPE
 70
     6
  9
$SURFU
 70
     6
  9
$SURFV
 70
     6
  9
$UCSBASE
  2

  9
$UCSNAME
  2

  9
$UCSORG
 10
0.0
 20
0.0
 30
0.0
  9
$UCSXDIR
 10
1.0
 20
0.0
 30
0.0
  9
$UCSYDIR
 10
0.0
 20
1.0
 30
0.0
  9
$UCSORTHOREF
  2

  9
$UCSORTHOVIEW
 70
     0
  9
$UCSORGTOP
 10
0.0
 20
0.0
 30
0.0
  9
$UCSORGBOTTOM
 10
0.0
 20
0.0
 30
0.0
  9
$UCSORGLEFT
 10
0.0
 20
0.0
 30
0.0
  9
$UCSORGRIGHT
 10
0.0
 20
0.0
 30
0.0
  9
$UCSORGFRONT
 10
0.0
 20
0.0
 30
0.0
  9
$UCSORGBACK
 10
0.0
 20
0.0
 30
0.0
  9
$PUCSBASE
  2

  9
$PUCSNAME
  2

  9
$PUCSORG
 10
0.0
 20
0.0
 30
0.0
  9
$PUCSXDIR
 10
1.0
 20
0.0
 30
0.0
  9
$PUCSYDIR
 10
0.0
 20
1.0
 30
0.0
  9
$PUCSORTHOREF
  2

  9
$PUCSORTHOVIEW
 70
     0
  9
$PUCSORGTOP
 10
0.0
 20
0.0
 30
0.0
  9
$PUCSORGBOTTOM
 10
0.0
 20
0.0
 30
0.0
  9
$PUCSORGLEFT
 10
0.0
 20
0.0
 30
0.0
  9
$PUCSORGRIGHT
 10
0.0
 20
0.0
 30
0.0
  9
$PUCSORGFRONT
 10
0.0
 20
0.0
 30
0.0
  9
$PUCSORGBACK
 10
0.0
 20
0.0
 30
0.0
  9
$USERI1
 70
     0
  9
$USERI2
 70
     0
  9
$USERI3
 70
     0
  9
$USERI4
 70
     0
  9
$USERI5
 70
     0
  9
$USERR1
 40
0.0
  9
$USERR2
 40
0.0
  9
$USERR3
 40
0.0
  9
$USERR4
 40
0.0
  9
$USERR5
 40
0.0
  9
$WORLDVIEW
 70
     1
  9
$SHADEDGE
 70
     3
  9
$SHADEDIF
 70
    70
  9
$TILEMODE
 70
     1
  9
$MAXACTVP
 70
    64
  9
$PINSBASE
 10
0.0
 20
0.0
 30
0.0
  9
$PLIMCHECK
 70
     0
  9
$PEXTMIN
 10
1.000000000000000E+20
 20
1.000000000000000E+20
 30
1.000000000000000E+20
  9
$PEXTMAX
 10
-1.000000000000000E+20
 20
-1.000000000000000E+20
 30
-1.000000000000000E+20
  9
$PLIMMIN
 10
0.0
 20
0.0
  9
$PLIMMAX
 10
12.0
 20
9.0
  9
$UNITMODE
 70
     0
  9
$VISRETAIN
 70
     1
  9
$PLINEGEN
 70
     0
  9
$PSLTSCALE
 70
     1
  9
$TREEDEPTH
 70
  3020
  9
$CMLSTYLE
  2
Standard
  9
$CMLJUST
 70
     0
  9
$CMLSCALE
 40
1.0
  9
$PROXYGRAPHICS
 70
     1
  9
$MEASUREMENT
 70
     0
  9
$CELWEIGHT
370
    -1
  9
$ENDCAPS
280
     0
  9
$JOINSTYLE
280
     0
  9
$LWDISPLAY
290
     0
  9
$INSUNITS
 70
     0
  9
$HYPERLINKBASE
  1

  9
$STYLESHEET
  1

  9
$XEDIT
290
     1
  9
$CEPSNTYPE
380
     0
  9
$PSTYLEMODE
290
     1
  9
$FINGERPRINTGUID
  2
{3005103E-0B0F-4A5E-B8B5-870F5D052257}
  9
$VERSIONGUID
  2
{0FC3914B-95AD-4EE6-918D-1676F61235F8}
  9
$EXTNAMES
290
     1
  9
$PSVPSCALE
 40
0.0
  9
$OLESTARTUP
290
     0
  0
ENDSEC
  0
SECTION
  2
CLASSES
  0
CLASS
  1
ACDBDICTIONARYWDFLT
  2
AcDbDictionaryWithDefault
  3
ObjectDBX Classes
 90
        0
280
     0
281
     0
  0
CLASS
  1
DICTIONARYVAR
  2
AcDbDictionaryVar
  3
ObjectDBX Classes
 90
        0
280
     0
281
     0
  0
CLASS
  1
ACDBPLACEHOLDER
  2
AcDbPlaceHolder
  3
ObjectDBX Classes
 90
        0
280
     0
281
     0
  0
CLASS
  1
LAYOUT
  2
AcDbLayout
  3
ObjectDBX Classes
 90
        0
280
     0
281
     0
  0
ENDSEC
  0
SECTION
  2
TABLES
  0
TABLE
  2
VPORT
  5
8
330
0
100
AcDbSymbolTable
 70
     2
  0
VPORT
  5
7B9
330
8
100
AcDbSymbolTableRecord
100
AcDbViewportTableRecord
  2
*Active
 70
     0
 10
0.0
 20
0.0
 11
1.0
 21
1.0
 12
192.6578843196169
 22
132.53819832817
 13
0.0
 23
0.0
 14
1.0
 24
1.0
 15
0.0
 25
0.0
 16
0.0
 26
0.0
 36
1.0
 17
0.0
 27
0.0
 37
0.0
 40
321.0770517383172
 41
1.276315789473684
 42
50.0
 43
0.0
 44
0.0
 50
0.0
 51
0.0
 71
     0
 72
   100
 73
     1
 74
     1
 75
     0
 76
     0
 77
     0
 78
     0
281
     0
 65
     1
110
0.0
120
0.0
130
0.0
111
1.0
121
0.0
131
0.0
112
0.0
122
1.0
132
0.0
 79
     0
146
0.0
  0
ENDTAB
  0
TABLE
  2
LTYPE
  5
5
330
0
100
AcDbSymbolTable
 70
     2
  0
LTYPE
  5
13
330
5
100
AcDbSymbolTableRecord
100
AcDbLinetypeTableRecord
  2
ByBlock
 70
     0
  3

 72
    65
 73
     0
 40
0.0
  0
LTYPE
  5
14
330
5
100
AcDbSymbolTableRecord
100
AcDbLinetypeTableRecord
  2
ByLayer
 70
     0
  3

 72
    65
 73
     0
 40
0.0
  0
LTYPE
  5
15
330
5
100
AcDbSymbolTableRecord
100
AcDbLinetypeTableRecord
  2
CONTINUOUS
 70
     0
  3
実線
 72
    65
 73
     0
 40
0.0
  0
LTYPE
  5
28
330
5
100
AcDbSymbolTableRecord
100
AcDbLinetypeTableRecord
  2
CENTER2
 70
     0
  3
----------  --  ----------  --  
 72
    65
 73
     4
 40
20.0
 49
12.5
 74
     0
 49
-2.5
 74
     0
 49
2.5
 74
     0
 49
-2.5
 74
     0
  0
ENDTAB
  0
TABLE
  2
LAYER
  5
2
330
0
100
AcDbSymbolTable
 70
     7
  0
LAYER
  5
10
330
2
100
AcDbSymbolTableRecord
100
AcDbLayerTableRecord
  2
0
 70
     0
 62
     2
  6
CONTINUOUS
370
    -3
390
F
  0
LAYER
  5
540
330
2
100
AcDbSymbolTableRecord
100
AcDbLayerTableRecord
  2
Defpoints
 70
     0
 62
   113
  6
CONTINUOUS
290
     0
370
    -3
390
F
  0
LAYER
  5
57A
330
2
100
AcDbSymbolTableRecord
100
AcDbLayerTableRecord
  2
Dim
 70
     0
 62
     4
  6
CONTINUOUS
370
    -3
390
F
  0
LAYER
  5
676
330
2
100
AcDbSymbolTableRecord
100
AcDbLayerTableRecord
  2
Hach
 70
     0
 62
     6
  6
CONTINUOUS
370
    -3
390
F
  0
LAYER
  5
761
330
2
100
AcDbSymbolTableRecord
100
AcDbLayerTableRecord
  2
waku
 70
     0
 62
     7
  6
CONTINUOUS
370
    -3
390
F
  0
LAYER
  5
762
330
2
100
AcDbSymbolTableRecord
100
AcDbLayerTableRecord
  2
moji
 70
     0
 62
     3
  6
CONTINUOUS
370
    -3
390
F
  0
LAYER
  5
763
330
2
100
AcDbSymbolTableRecord
100
AcDbLayerTableRecord
  2
hyou
 70
     0
 62
     4
  6
CONTINUOUS
370
    -3
390
F
  0
ENDTAB
  0
TABLE
  2
STYLE
  5
3
330
0
100
AcDbSymbolTable
 70
     1
  0
STYLE
  5
11
330
3
100
AcDbSymbolTableRecord
100
AcDbTextStyleTableRecord
  2
STANDARD
 70
     0
 40
0.0
 41
1.0
 50
0.0
 71
     0
 42
0.2
  3
txt
  4
bigfont.shx
  0
ENDTAB
  0
TABLE
  2
VIEW
  5
6
330
0
100
AcDbSymbolTable
 70
     0
  0
ENDTAB
  0
TABLE
  2
UCS
  5
7
330
0
100
AcDbSymbolTable
 70
     0
  0
ENDTAB
  0
TABLE
  2
APPID
  5
9
330
0
100
AcDbSymbolTable
 70
     1
  0
APPID
  5
12
330
9
100
AcDbSymbolTableRecord
100
AcDbRegAppTableRecord
  2
ACAD
 70
     0
  0
ENDTAB
  0
TABLE
  2
DIMSTYLE
  5
A
330
0
100
AcDbSymbolTable
 70
     2
100
AcDbDimStyleTable
 71
     2
340
55E
340
3E8
  0
DIMSTYLE
105
3E8
330
A
100
AcDbSymbolTableRecord
100
AcDbDimStyleTableRecord
  2
Standard
 70
     0
340
11
  0
DIMSTYLE
105
55E
102
{ACAD_REACTORS
330
53F
330
59F
330
5C8
330
5D5
330
5E3
330
670
330
673
330
674
330
675
330
6BD
330
6C0
330
6C2
330
6C4
330
6C6
330
6C8
330
672
330
671
102
}
330
A
100
AcDbSymbolTableRecord
100
AcDbDimStyleTableRecord
  2
1-1
 70
     0
 40
20.0
 44
0.1
 73
     0
 74
     0
 77
     1
140
0.3
147
0.05
340
11
341
558
342
558
  0
ENDTAB
  0
TABLE
  2
BLOCK_RECORD
  5
1
330
0
100
AcDbSymbolTable
 70
     6
  0
BLOCK_RECORD
  5
20
330
1
100
AcDbSymbolTableRecord
100
AcDbBlockTableRecord
  2
*Model_Space
340
23
  0
BLOCK_RECORD
  5
1C
330
1
100
AcDbSymbolTableRecord
100
AcDbBlockTableRecord
  2
*Paper_Space
340
1F
  0
BLOCK_RECORD
  5
541
330
1
100
AcDbSymbolTableRecord
100
AcDbBlockTableRecord
  2
*D0
340
0
  0
BLOCK_RECORD
  5
558
330
1
100
AcDbSymbolTableRecord
100
AcDbBlockTableRecord
  2
_Open30
340
0
102
{BLKREFS
331
711
331
712
331
71A
331
71B
331
723
331
724
331
72C
331
72D
331
735
331
736
331
7A1
331
7A3
331
7A5
331
7A7
331
7A9
331
7AB
331
7AD
331
7AF
331
7B1
331
7B3
331
7B5
331
7B7
102
}
  0
BLOCK_RECORD
  5
5A0
330
1
100
AcDbSymbolTableRecord
100
AcDbBlockTableRecord
  2
*D2
340
0
  0
BLOCK_RECORD
  5
5C9
330
1
100
AcDbSymbolTableRecord
100
AcDbBlockTableRecord
  2
*D3
340
0
  0
BLOCK_RECORD
  5
5D6
330
1
100
AcDbSymbolTableRecord
100
AcDbBlockTableRecord
  2
*D4
340
0
  0
BLOCK_RECORD
  5
5E4
330
1
100
AcDbSymbolTableRecord
100
AcDbBlockTableRecord
  2
*D5
340
0
  0
ENDTAB
  0
ENDSEC
  0
SECTION
  2
BLOCKS
  0
BLOCK
  5
21
330
20
100
AcDbEntity
  8
0
100
AcDbBlockBegin
  2
*Model_Space
 70
     0
 10
0.0
 20
0.0
 30
0.0
  3
*Model_Space
  1

  0
ENDBLK
  5
22
330
20
100
AcDbEntity
  8
0
100
AcDbBlockEnd
  0
BLOCK
  5
1D
330
1C
100
AcDbEntity
 67
     1
  8
0
100
AcDbBlockBegin
  2
*Paper_Space
 70
     0
 10
0.0
 20
0.0
 30
0.0
  3
*Paper_Space
  1

  0
ENDBLK
  5
1E
330
1C
100
AcDbEntity
 67
     1
  8
0
100
AcDbBlockEnd
  0
BLOCK
  5
54C
330
541
100
AcDbEntity
  8
0
100
AcDbBlockBegin
  2
*D0
 70
     1
 10
0.0
 20
0.0
 30
0.0
  3
*D0
  1

  0
LINE
  5
732
330
541
100
AcDbEntity
  8
Dim
  6
Continuous
 62
     0
370
    -2
100
AcDbLine
 10
229.4490499999998
 20
156.16055
 30
0.0
 11
229.4490499999998
 21
263.88777
 31
0.0
  0
LINE
  5
733
330
541
100
AcDbEntity
  8
Dim
  6
Continuous
 62
     0
370
    -2
100
AcDbLine
 10
304.4460699999998
 20
207.01597
 30
0.0
 11
304.4460699999998
 21
263.88777
 31
0.0
  0
LINE
  5
734
330
541
100
AcDbEntity
  8
Dim
  6
Continuous
 62
     0
370
    -2
100
AcDbLine
 10
233.0490499999998
 20
261.88777
 30
0.0
 11
300.8460699999998
 21
261.88777
 31
0.0
  0
INSERT
  5
735
330
541
100
AcDbEntity
  8
Dim
  6
Continuous
 62
     0
370
    -2
100
AcDbBlockReference
  2
_Open30
 10
229.4490499999998
 20
261.88777
 30
0.0
 41
3.599999999999998
 42
3.599999999999998
 43
3.599999999999998
 50
180.0
  0
INSERT
  5
736
330
541
100
AcDbEntity
  8
Dim
  6
Continuous
 62
     0
370
    -2
100
AcDbBlockReference
  2
_Open30
 10
304.4460699999998
 20
261.88777
 30
0.0
 41
3.599999999999998
 42
3.599999999999998
 43
3.599999999999998
  0
MTEXT
  5
737
330
541
100
AcDbEntity
  8
Dim
  6
Continuous
 62
     0
100
AcDbMText
 10
266.9475599999998
 20
265.8877700000001
 30
0.0
 40
6.0
 41
0.0
 71
     5
 72
     1
  1
\A1;Ｃ
 73
     1
 44
1.0
1001
ACAD
1000
MTEXTBEGIN
1070
    73
1070
     1
1070
    44
1040
1.0
1070
    74
1070
     0
1000
MTEXTEND
  0
POINT
  5
738
330
541
100
AcDbEntity
  8
Defpoints
  6
Continuous
 62
     0
100
AcDbPoint
 10
229.4490499999998
 20
154.91055
 30
0.0
  0
POINT
  5
739
330
541
100
AcDbEntity
  8
Defpoints
  6
Continuous
 62
     0
100
AcDbPoint
 10
304.4460699999998
 20
205.76597
 30
0.0
  0
POINT
  5
73A
330
541
100
AcDbEntity
  8
Defpoints
  6
Continuous
 62
     0
100
AcDbPoint
 10
304.4460699999998
 20
261.88777
 30
0.0
  0
ENDBLK
  5
54D
330
541
100
AcDbEntity
  8
0
100
AcDbBlockEnd
  0
BLOCK
  5
55C
330
558
100
AcDbEntity
  8
0
100
AcDbBlockBegin
  2
_Open30
 70
     0
 10
0.0
 20
0.0
 30
0.0
  3
_Open30
  1

  0
LINE
  5
559
330
558
100
AcDbEntity
  8
0
  6
ByBlock
 62
     0
370
    -2
100
AcDbLine
 10
-1.0
 20
0.26794919
 30
0.0
 11
0.0
 21
0.0
 31
0.0
  0
LINE
  5
55A
330
558
100
AcDbEntity
  8
0
  6
ByBlock
 62
     0
370
    -2
100
AcDbLine
 10
0.0
 20
0.0
 30
0.0
 11
-1.0
 21
-0.26794919
 31
0.0
  0
LINE
  5
55B
330
558
100
AcDbEntity
  8
0
  6
ByBlock
 62
     0
370
    -2
100
AcDbLine
 10
0.0
 20
0.0
 30
0.0
 11
-1.0
 21
0.0
 31
0.0
  0
ENDBLK
  5
55D
330
558
100
AcDbEntity
  8
0
100
AcDbBlockEnd
  0
BLOCK
  5
5AA
330
5A0
100
AcDbEntity
  8
0
100
AcDbBlockBegin
  2
*D2
 70
     1
 10
0.0
 20
0.0
 30
0.0
  3
*D2
  1

  0
LINE
  5
729
330
5A0
100
AcDbEntity
  8
Dim
  6
Continuous
 62
     0
370
    -2
100
AcDbLine
 10
304.4460699999998
 20
207.01597
 30
0.0
 11
304.4460699999998
 21
263.88777
 31
0.0
  0
LINE
  5
72A
330
5A0
100
AcDbEntity
  8
Dim
  6
Continuous
 62
     0
370
    -2
100
AcDbLine
 10
357.4460699999999
 20
164.85861
 30
0.0
 11
357.4460699999999
 21
263.88777
 31
0.0
  0
LINE
  5
72B
330
5A0
100
AcDbEntity
  8
Dim
  6
Continuous
 62
     0
370
    -2
100
AcDbLine
 10
308.0460699999999
 20
261.88777
 30
0.0
 11
353.8460699999998
 21
261.88777
 31
0.0
  0
INSERT
  5
72C
330
5A0
100
AcDbEntity
  8
Dim
  6
Continuous
 62
     0
370
    -2
100
AcDbBlockReference
  2
_Open30
 10
304.4460699999998
 20
261.88777
 30
0.0
 41
3.599999999999998
 42
3.599999999999998
 43
3.599999999999998
 50
180.0
  0
INSERT
  5
72D
330
5A0
100
AcDbEntity
  8
Dim
  6
Continuous
 62
     0
370
    -2
100
AcDbBlockReference
  2
_Open30
 10
357.4460699999999
 20
261.88777
 30
0.0
 41
3.599999999999998
 42
3.599999999999998
 43
3.599999999999998
  0
MTEXT
  5
72E
330
5A0
100
AcDbEntity
  8
Dim
  6
Continuous
 62
     0
100
AcDbMText
 10
330.9460699999999
 20
265.8877700000001
 30
0.0
 40
6.0
 41
0.0
 71
     5
 72
     1
  1
\A1;Ｄ
 73
     1
 44
1.0
1001
ACAD
1000
MTEXTBEGIN
1070
    73
1070
     1
1070
    44
1040
1.0
1070
    74
1070
     0
1000
MTEXTEND
  0
POINT
  5
72F
330
5A0
100
AcDbEntity
  8
Defpoints
  6
Continuous
 62
     0
100
AcDbPoint
 10
304.4460699999998
 20
205.76597
 30
0.0
  0
POINT
  5
730
330
5A0
100
AcDbEntity
  8
Defpoints
  6
Continuous
 62
     0
100
AcDbPoint
 10
357.4460699999999
 20
163.60861
 30
0.0
  0
POINT
  5
731
330
5A0
100
AcDbEntity
  8
Defpoints
  6
Continuous
 62
     0
100
AcDbPoint
 10
357.4460699999999
 20
261.88777
 30
0.0
  0
ENDBLK
  5
5AB
330
5A0
100
AcDbEntity
  8
0
100
AcDbBlockEnd
  0
BLOCK
  5
5D3
330
5C9
100
AcDbEntity
  8
0
100
AcDbBlockBegin
  2
*D3
 70
     1
 10
0.0
 20
0.0
 30
0.0
  3
*D3
  1

  0
LINE
  5
720
330
5C9
100
AcDbEntity
  8
Dim
  6
Continuous
 62
     0
370
    -2
100
AcDbLine
 10
304.4460699999998
 20
207.01597
 30
0.0
 11
304.4460699999998
 21
252.59237
 31
0.0
  0
LINE
  5
721
330
5C9
100
AcDbEntity
  8
Dim
  6
Continuous
 62
     0
370
    -2
100
AcDbLine
 10
349.44607
 20
204.25861
 30
0.0
 11
349.44607
 21
252.59237
 31
0.0
  0
LINE
  5
722
330
5C9
100
AcDbEntity
  8
Dim
  6
Continuous
 62
     0
370
    -2
100
AcDbLine
 10
308.0460699999999
 20
250.59237
 30
0.0
 11
345.8460699999998
 21
250.59237
 31
0.0
  0
INSERT
  5
723
330
5C9
100
AcDbEntity
  8
Dim
  6
Continuous
 62
     0
370
    -2
100
AcDbBlockReference
  2
_Open30
 10
304.4460699999998
 20
250.59237
 30
0.0
 41
3.599999999999998
 42
3.599999999999998
 43
3.599999999999998
 50
180.0
  0
INSERT
  5
724
330
5C9
100
AcDbEntity
  8
Dim
  6
Continuous
 62
     0
370
    -2
100
AcDbBlockReference
  2
_Open30
 10
349.44607
 20
250.59237
 30
0.0
 41
3.599999999999998
 42
3.599999999999998
 43
3.599999999999998
  0
MTEXT
  5
725
330
5C9
100
AcDbEntity
  8
Dim
  6
Continuous
 62
     0
100
AcDbMText
 10
326.9460699999999
 20
254.59237
 30
0.0
 40
6.0
 41
0.0
 71
     5
 72
     1
  1
\A1;Ｅ
 73
     1
 44
1.0
1001
ACAD
1000
MTEXTBEGIN
1070
    73
1070
     1
1070
    44
1040
1.0
1070
    74
1070
     0
1000
MTEXTEND
  0
POINT
  5
726
330
5C9
100
AcDbEntity
  8
Defpoints
  6
Continuous
 62
     0
100
AcDbPoint
 10
304.4460699999998
 20
205.76597
 30
0.0
  0
POINT
  5
727
330
5C9
100
AcDbEntity
  8
Defpoints
  6
Continuous
 62
     0
100
AcDbPoint
 10
349.44607
 20
203.0086100000001
 30
0.0
  0
POINT
  5
728
330
5C9
100
AcDbEntity
  8
Defpoints
  6
Continuous
 62
     0
100
AcDbPoint
 10
349.44607
 20
250.59237
 30
0.0
  0
ENDBLK
  5
5D4
330
5C9
100
AcDbEntity
  8
0
100
AcDbBlockEnd
  0
BLOCK
  5
5E0
330
5D6
100
AcDbEntity
  8
0
100
AcDbBlockBegin
  2
*D4
 70
     1
 10
0.0
 20
0.0
 30
0.0
  3
*D4
  1

  0
LINE
  5
717
330
5D6
100
AcDbEntity
  8
Dim
  6
Continuous
 62
     0
370
    -2
100
AcDbLine
 10
350.08225
 20
205.50861
 30
0.0
 11
376.8632599999999
 21
205.50861
 31
0.0
  0
LINE
  5
718
330
5D6
100
AcDbEntity
  8
Dim
  6
Continuous
 62
     0
370
    -2
100
AcDbLine
 10
350.08225
 20
108.50861
 30
0.0
 11
376.8632599999999
 21
108.50861
 31
0.0
  0
LINE
  5
719
330
5D6
100
AcDbEntity
  8
Dim
  6
Continuous
 62
     0
370
    -2
100
AcDbLine
 10
374.8632599999999
 20
201.90861
 30
0.0
 11
374.8632599999999
 21
112.10861
 31
0.0
  0
INSERT
  5
71A
330
5D6
100
AcDbEntity
  8
Dim
  6
Continuous
 62
     0
370
    -2
100
AcDbBlockReference
  2
_Open30
 10
374.8632599999999
 20
205.50861
 30
0.0
 41
3.599999999999998
 42
3.599999999999998
 43
3.599999999999998
 50
90.0
  0
INSERT
  5
71B
330
5D6
100
AcDbEntity
  8
Dim
  6
Continuous
 62
     0
370
    -2
100
AcDbBlockReference
  2
_Open30
 10
374.8632599999999
 20
108.50861
 30
0.0
 41
3.599999999999998
 42
3.599999999999998
 43
3.599999999999998
 50
270.0
  0
MTEXT
  5
71C
330
5D6
100
AcDbEntity
  8
Dim
  6
Continuous
 62
     0
100
AcDbMText
 10
370.8632599999999
 20
157.0086100000001
 30
0.0
 40
6.0
 41
0.0
 71
     5
 72
     1
  1
\A1;φＢ
 11
0.0000000000000001
 21
1.0
 31
0.0
 73
     1
 44
1.0
1001
ACAD
1000
MTEXTBEGIN
1070
    73
1070
     1
1070
    44
1040
1.0
1070
    74
1070
     0
1000
MTEXTEND
  0
POINT
  5
71D
330
5D6
100
AcDbEntity
  8
Defpoints
  6
Continuous
 62
     0
100
AcDbPoint
 10
348.8322500000001
 20
205.50861
 30
0.0
  0
POINT
  5
71E
330
5D6
100
AcDbEntity
  8
Defpoints
  6
Continuous
 62
     0
100
AcDbPoint
 10
348.8322500000001
 20
108.50861
 30
0.0
  0
POINT
  5
71F
330
5D6
100
AcDbEntity
  8
Defpoints
  6
Continuous
 62
     0
100
AcDbPoint
 10
374.8632599999999
 20
108.50861
 30
0.0
  0
ENDBLK
  5
5E1
330
5D6
100
AcDbEntity
  8
0
100
AcDbBlockEnd
  0
BLOCK
  5
5EE
330
5E4
100
AcDbEntity
  8
0
100
AcDbBlockBegin
  2
*D5
 70
     1
 10
0.0
 20
0.0
 30
0.0
  3
*D5
  1

  0
LINE
  5
70E
330
5E4
100
AcDbEntity
  8
Dim
  6
Continuous
 62
     0
370
    -2
100
AcDbLine
 10
302.69607
 20
232.0086100000001
 30
0.0
 11
205.9949400000001
 21
232.0086100000001
 31
0.0
  0
LINE
  5
70F
330
5E4
100
AcDbEntity
  8
Dim
  6
Continuous
 62
     0
370
    -2
100
AcDbLine
 10
302.69607
 20
82.00861000000003
 30
0.0
 11
205.99494
 21
82.00861000000006
 31
0.0
  0
LINE
  5
710
330
5E4
100
AcDbEntity
  8
Dim
  6
Continuous
 62
     0
370
    -2
100
AcDbLine
 10
207.9949400000001
 20
228.4086100000001
 30
0.0
 11
207.99494
 21
85.60861000000008
 31
0.0
  0
INSERT
  5
711
330
5E4
100
AcDbEntity
  8
Dim
  6
Continuous
 62
     0
370
    -2
100
AcDbBlockReference
  2
_Open30
 10
207.9949400000001
 20
232.0086100000001
 30
0.0
 41
3.599999999999998
 42
3.599999999999998
 43
3.599999999999998
 50
90.0
  0
INSERT
  5
712
330
5E4
100
AcDbEntity
  8
Dim
  6
Continuous
 62
     0
370
    -2
100
AcDbBlockReference
  2
_Open30
 10
207.99494
 20
82.00861000000006
 30
0.0
 41
3.599999999999998
 42
3.599999999999998
 43
3.599999999999998
 50
270.0
  0
MTEXT
  5
713
330
5E4
100
AcDbEntity
  8
Dim
  6
Continuous
 62
     0
100
AcDbMText
 10
203.99494
 20
157.0086100000001
 30
0.0
 40
6.0
 41
0.0
 71
     5
 72
     1
  1
\A1;φＡ
 11
0.0000000000000001
 21
1.0
 31
0.0
 73
     1
 44
1.0
1001
ACAD
1000
MTEXTBEGIN
1070
    73
1070
     1
1070
    44
1040
1.0
1070
    74
1070
     0
1000
MTEXTEND
  0
POINT
  5
714
330
5E4
100
AcDbEntity
  8
Defpoints
  6
Continuous
 62
     0
100
AcDbPoint
 10
303.94607
 20
232.0086100000001
 30
0.0
  0
POINT
  5
715
330
5E4
100
AcDbEntity
  8
Defpoints
  6
Continuous
 62
     0
100
AcDbPoint
 10
303.94607
 20
82.00861000000003
 30
0.0
  0
POINT
  5
716
330
5E4
100
AcDbEntity
  8
Defpoints
  6
Continuous
 62
     0
100
AcDbPoint
 10
207.99494
 20
82.00861000000006
 30
0.0
  0
ENDBLK
  5
5EF
330
5E4
100
AcDbEntity
  8
0
100
AcDbBlockEnd
  0
ENDSEC
  0
SECTION
  2
ENTITIES
  0
CIRCLE
  5
1E5
330
20
100
AcDbEntity
  8
0
100
AcDbCircle
 10
299.44607
 20
182.96665
 30
0.0
 40
0.5
  0
CIRCLE
  5
1E6
330
20
100
AcDbEntity
  8
0
100
AcDbCircle
 10
299.44607
 20
208.96665
 30
0.0
 40
0.5
  0
LINE
  5
1E7
330
20
100
AcDbEntity
  8
0
  6
CENTER2
100
AcDbLine
 10
15.50825
 20
157.00861
 30
0.0
 11
385.86058
 21
157.00861
 31
0.0
  0
CIRCLE
  5
1E8
330
20
100
AcDbEntity
  8
0
100
AcDbCircle
 10
299.44607
 20
134.96665
 30
0.0
 40
0.5
  0
LINE
  5
1E9
330
20
100
AcDbEntity
  8
0
100
AcDbLine
 10
349.44607
 20
202.50861
 30
0.0
 11
349.44607
 21
178.27102
 31
0.0
  0
ARC
  5
1EA
330
20
100
AcDbEntity
  8
0
100
AcDbCircle
 10
346.4460699999999
 20
202.50861
 30
0.0
 40
3.0
100
AcDbArc
 50
0.0
 51
90.0
  0
ARC
  5
1EB
330
20
100
AcDbEntity
  8
0
100
AcDbCircle
 10
346.4460699999999
 20
111.50861
 30
0.0
 40
3.0
100
AcDbArc
 50
270.0
 51
0.0
  0
LINE
  5
1EC
330
20
100
AcDbEntity
  8
0
100
AcDbLine
 10
346.4460699999999
 20
108.50861
 30
0.0
 11
305.9460699999998
 21
108.50861
 31
0.0
  0
LINE
  5
1ED
330
20
100
AcDbEntity
  8
0
100
AcDbLine
 10
305.9460699999998
 20
205.50861
 30
0.0
 11
346.4460699999999
 21
205.50861
 31
0.0
  0
LINE
  5
1EE
330
20
100
AcDbEntity
  8
0
100
AcDbLine
 10
297.44607
 20
151.00861
 30
0.0
 11
297.44607
 21
162.38729
 31
0.0
  0
LINE
  5
1EF
330
20
100
AcDbEntity
  8
0
100
AcDbLine
 10
295.9460699999998
 20
220.50861
 30
0.0
 11
295.9460699999998
 21
229.67474
 31
0.0
  0
ARC
  5
1F0
330
20
100
AcDbEntity
  8
0
100
AcDbCircle
 10
294.44607
 20
220.50861
 30
0.0
 40
1.5
100
AcDbArc
 50
270.0
 51
0.0
  0
LINE
  5
1F1
330
20
100
AcDbEntity
  8
0
100
AcDbLine
 10
304.4460699999998
 20
232.0086100000001
 30
0.0
 11
304.4460699999998
 21
205.76597
 31
0.0
  0
LINE
  5
1F2
330
20
100
AcDbEntity
  8
0
100
AcDbLine
 10
229.4460699999998
 20
159.00861
 30
0.0
 11
229.4460699999998
 21
155.00861
 31
0.0
  0
ARC
  5
1F3
330
20
100
AcDbEntity
  8
0
100
AcDbCircle
 10
289.44607
 20
159.00861
 30
0.0
 40
60.0
100
AcDbArc
 50
90.0
 51
180.0
  0
ARC
  5
1F4
330
20
100
AcDbEntity
  8
0
100
AcDbCircle
 10
289.44607
 20
155.00861
 30
0.0
 40
60.0
100
AcDbArc
 50
180.0
 51
180.57111
  0
CIRCLE
  5
1F5
330
20
100
AcDbEntity
  8
0
100
AcDbCircle
 10
101.81913
 20
157.00861
 30
0.0
 40
74.0
  0
CIRCLE
  5
1F6
330
20
100
AcDbEntity
  8
0
100
AcDbCircle
 10
101.81913
 20
157.00861
 30
0.0
 40
62.0
  0
LINE
  5
1F7
330
20
100
AcDbEntity
  8
0
100
AcDbLine
 10
297.44607
 20
124.00861
 30
0.0
 11
290.44607
 21
117.00861
 31
0.0
  0
LINE
  5
1F8
330
20
100
AcDbEntity
  8
0
100
AcDbLine
 10
290.44607
 20
117.00861
 30
0.0
 11
291.50673
 21
115.94795
 31
0.0
  0
LINE
  5
1F9
330
20
100
AcDbEntity
  8
0
100
AcDbLine
 10
291.50673
 20
196.94795
 30
0.0
 11
290.44607
 21
198.00861
 31
0.0
  0
LINE
  5
1FA
330
20
100
AcDbEntity
  8
0
100
AcDbLine
 10
297.2708099999999
 20
231.16446
 30
0.0
 11
304.4460699999998
 21
232.0086100000001
 31
0.0
  0
ARC
  5
1FB
330
20
100
AcDbEntity
  8
0
100
AcDbCircle
 10
297.44607
 20
229.67474
 30
0.0
 40
1.5
100
AcDbArc
 50
96.709837
 51
180.0
  0
CIRCLE
  5
1FC
330
20
100
AcDbEntity
  8
0
100
AcDbCircle
 10
101.81913
 20
157.00861
 30
0.0
 40
75.0
  0
LINE
  5
1FD
330
20
100
AcDbEntity
  8
0
100
AcDbLine
 10
294.44607
 20
219.00861
 30
0.0
 11
289.3837799999998
 21
219.00861
 31
0.0
  0
LINE
  5
1FF
330
20
100
AcDbEntity
  8
waku
  6
Continuous
100
AcDbLine
 10
245.9999999999998
 20
15.0
 30
0.0
 11
406.0
 21
15.0
 31
0.0
  0
LINE
  5
201
330
20
100
AcDbEntity
  8
hyou
  6
Continuous
100
AcDbLine
 10
245.9999999999998
 20
40.0
 30
0.0
 11
406.0
 21
40.0
 31
0.0
  0
LINE
  5
202
330
20
100
AcDbEntity
  8
hyou
  6
Continuous
100
AcDbLine
 10
245.9999999999998
 20
55.0
 30
0.0
 11
406.0
 21
55.0
 31
0.0
  0
LINE
  5
203
330
20
100
AcDbEntity
  8
hyou
  6
Continuous
100
AcDbLine
 10
245.9999999999998
 20
60.0
 30
0.0
 11
406.0
 21
60.0
 31
0.0
  0
LINE
  5
204
330
20
100
AcDbEntity
  8
hyou
  6
Continuous
100
AcDbLine
 10
245.9999999999998
 20
65.0
 30
0.0
 11
406.0
 21
65.0
 31
0.0
  0
LINE
  5
205
330
20
100
AcDbEntity
  8
hyou
  6
Continuous
100
AcDbLine
 10
245.9999999999998
 20
70.0
 30
0.0
 11
406.0
 21
70.0
 31
0.0
  0
LINE
  5
206
330
20
100
AcDbEntity
  8
waku
  6
Continuous
100
AcDbLine
 10
251.0
 20
0.0
 30
0.0
 11
251.0
 21
15.0
 31
0.0
  0
LINE
  5
207
330
20
100
AcDbEntity
  8
waku
  6
Continuous
100
AcDbLine
 10
245.9999999999998
 20
29.0
 30
0.0
 11
306.0
 21
29.0
 31
0.0
  0
LINE
  5
208
330
20
100
AcDbEntity
  8
hyou
  6
Continuous
100
AcDbLine
 10
256.0
 20
40.0
 30
0.0
 11
256.0
 21
75.0
 31
0.0
  0
LINE
  5
209
330
20
100
AcDbEntity
  8
hyou
  6
Continuous
100
AcDbLine
 10
294.0
 20
40.0
 30
0.0
 11
294.0
 21
75.0
 31
0.0
  0
LINE
  5
20A
330
20
100
AcDbEntity
  8
hyou
  6
Continuous
100
AcDbLine
 10
332.0
 20
40.0
 30
0.0
 11
332.0
 21
75.0
 31
0.0
  0
LINE
  5
20B
330
20
100
AcDbEntity
  8
hyou
  6
Continuous
100
AcDbLine
 10
369.9999999999998
 20
40.0
 30
0.0
 11
369.9999999999998
 21
75.0
 31
0.0
  0
LINE
  5
20C
330
20
100
AcDbEntity
  8
hyou
  6
Continuous
100
AcDbLine
 10
380.0
 20
40.0
 30
0.0
 11
380.0
 21
75.0
 31
0.0
  0
LINE
  5
20E
330
20
100
AcDbEntity
  8
waku
  6
Continuous
100
AcDbLine
 10
257.9999999999998
 20
29.0
 30
0.0
 11
257.9999999999998
 21
35.0
 31
0.0
  0
LINE
  5
20F
330
20
100
AcDbEntity
  8
waku
  6
Continuous
100
AcDbLine
 10
270.9999999999998
 20
0.0
 30
0.0
 11
270.9999999999998
 21
15.0
 31
0.0
  0
TEXT
  5
210
330
20
100
AcDbEntity
  8
moji
100
AcDbText
 10
247.5450235614179
 20
70.94075606550269
 30
0.0
 40
2.5
  1
部番
 41
0.9599999999999999
100
AcDbText
  0
TEXT
  5
211
330
20
100
AcDbEntity
  8
moji
100
AcDbText
 10
266.5686848627661
 20
70.94075606550269
 30
0.0
 40
2.5
  1
名　　　称
 41
0.8571429999999999
100
AcDbText
  0
TEXT
  5
212
330
20
100
AcDbEntity
  8
moji
100
AcDbText
 10
304.4118165968717
 20
70.94075606550269
 30
0.0
 40
2.5
  1
材　　　質
 41
0.8571429999999999
100
AcDbText
  0
TEXT
  5
213
330
20
100
AcDbEntity
  8
moji
100
AcDbText
 10
343.6667649278497
 20
70.94075606550269
 30
0.0
 40
2.5
  1
仕　　　上
 41
0.8571429999999999
100
AcDbText
  0
TEXT
  5
214
330
20
100
AcDbEntity
  8
moji
100
AcDbText
 10
371.9412117991898
 20
70.94075606550269
 30
0.0
 40
2.5
  1
数量
 41
0.9599999999999999
100
AcDbText
  0
TEXT
  5
215
330
20
100
AcDbEntity
  8
moji
100
AcDbText
 10
386.72555312866
 20
70.94075606550269
 30
0.0
 40
2.5
  1
備　　考
 41
0.872727
100
AcDbText
  0
TEXT
  5
216
330
20
100
AcDbEntity
  8
moji
100
AcDbText
 10
249.0
 20
65.55390118792852
 30
0.0
 40
2.5
  1
1
 41
1.199999999999999
100
AcDbText
  0
TEXT
  5
217
330
20
100
AcDbEntity
  8
moji
100
AcDbText
 10
249.0
 20
60.55391118792853
 30
0.0
 40
2.5
  1
2
 41
1.199999999999999
100
AcDbText
  0
TEXT
  5
218
330
20
100
AcDbEntity
  8
moji
100
AcDbText
 10
249.0
 20
55.55391118792853
 30
0.0
 40
2.5
  1
3
 41
1.199999999999999
100
AcDbText
  0
TEXT
  5
219
330
20
100
AcDbEntity
  8
moji
100
AcDbText
 10
248.2082073397137
 20
30.08161264247951
 30
0.0
 40
2.5
  1
日 付
 41
0.9
100
AcDbText
  0
TEXT
  5
21A
330
20
100
AcDbEntity
  8
moji
100
AcDbText
 10
307.0
 20
26.5
 30
0.0
 40
2.5
  1
品
 41
1.199999999999999
100
AcDbText
  0
TEXT
  5
21B
330
20
100
AcDbEntity
  8
moji
100
AcDbText
 10
307.0
 20
18.5
 30
0.0
 40
2.5
  1
名
 41
1.199999999999999
100
AcDbText
  0
LINE
  5
21C
330
20
100
AcDbEntity
  8
waku
  6
Continuous
100
AcDbLine
 10
306.0
 20
0.0
 30
0.0
 11
306.0
 21
35.0
 31
0.0
  0
LINE
  5
21D
330
20
100
AcDbEntity
  8
waku
  6
Continuous
100
AcDbLine
 10
311.9999999999999
 20
15.0
 30
0.0
 11
311.9999999999999
 21
35.0
 31
0.0
  0
TEXT
  5
21E
330
20
100
AcDbEntity
  8
moji
100
AcDbText
 10
269.0751795356683
 20
30.02491264247954
 30
0.0
 40
2.5
  1
11
 41
0.9599999999999999
100
AcDbText
  0
TEXT
  5
21F
330
20
100
AcDbEntity
  8
moji
100
AcDbText
 10
275.7484374141697
 20
29.99188264247954
 30
0.0
 40
2.5
  1
7
 41
1.199999999999999
100
AcDbText
  0
TEXT
  5
220
330
20
100
AcDbEntity
  8
moji
100
AcDbText
 10
282.4386439822715
 20
30.06486264247954
 30
0.0
 40
2.5
  1
 1
 41
0.9599999999999999
100
AcDbText
  0
LINE
  5
221
330
20
100
AcDbEntity
  8
moji
100
AcDbLine
 10
276.0226
 20
7.634360000000013
 30
0.0
 11
301.8788500000001
 21
7.634360000000013
 31
0.0
  0
LINE
  5
222
330
20
100
AcDbEntity
  8
moji
100
AcDbLine
 10
281.0123999999998
 20
12.85098000000002
 30
0.0
 11
281.0123999999998
 21
2.64456000000001
 31
0.0
  0
CIRCLE
  5
223
330
20
100
AcDbEntity
  8
moji
100
AcDbCircle
 10
281.0123999999998
 20
7.634360000000013
 30
0.0
 40
3.915333999999998
  0
CIRCLE
  5
224
330
20
100
AcDbEntity
  8
moji
100
AcDbCircle
 10
281.0123999999998
 20
7.634360000000013
 30
0.0
 40
2.740545999999998
  0
LINE
  5
225
330
20
100
AcDbEntity
  8
moji
100
AcDbLine
 10
290.0847699999998
 20
10.37491000000003
 30
0.0
 11
290.0847699999998
 21
4.893820000000005
 31
0.0
  0
LINE
  5
226
330
20
100
AcDbEntity
  8
moji
100
AcDbLine
 10
298.9303299999999
 20
11.5497
 30
0.0
 11
298.9303299999999
 21
3.719030000000003
 31
0.0
  0
LINE
  5
227
330
20
100
AcDbEntity
  8
moji
100
AcDbLine
 10
290.0847699999998
 20
10.37491000000003
 30
0.0
 11
298.9303299999999
 21
11.5497
 31
0.0
  0
LINE
  5
228
330
20
100
AcDbEntity
  8
moji
100
AcDbLine
 10
290.0847699999998
 20
4.893820000000005
 30
0.0
 11
298.9303299999999
 21
3.719030000000003
 31
0.0
  0
TEXT
  5
229
330
20
100
AcDbEntity
  8
moji
100
AcDbText
 10
257.2549472290652
 20
65.55390118792852
 30
0.0
 40
2.5
  1
フード
 41
0.9
100
AcDbText
  0
TEXT
  5
22A
330
20
100
AcDbEntity
  8
moji
100
AcDbText
 10
375.0692693942932
 20
65.55390118792852
 30
0.0
 40
2.5
  1
1
 41
1.199999999999999
100
AcDbText
  0
TEXT
  5
22B
330
20
100
AcDbEntity
  8
moji
100
AcDbText
 10
257.2549472290652
 20
60.55391118792853
 30
0.0
 40
2.5
  1
ルーバー
 41
0.872727
100
AcDbText
  0
TEXT
  5
22C
330
20
100
AcDbEntity
  8
moji
100
AcDbText
 10
375.0692693942932
 20
60.55391118792853
 30
0.0
 40
2.5
  1
1
 41
1.199999999999999
100
AcDbText
  0
TEXT
  5
22D
330
20
100
AcDbEntity
  8
moji
100
AcDbText
 10
257.2549472290652
 20
55.55391118792853
 30
0.0
 40
2.5
  1
本体
 41
0.9599999999999999
100
AcDbText
  0
TEXT
  5
22E
330
20
100
AcDbEntity
  8
moji
100
AcDbText
 10
375.0692693942932
 20
55.55391118792853
 30
0.0
 40
2.5
  1
1
 41
1.199999999999999
100
AcDbText
  0
ARC
  5
235
330
20
100
AcDbEntity
  8
0
100
AcDbCircle
 10
289.44607
 20
159.00861
 30
0.0
 40
58.5
100
AcDbArc
 50
90.0
 51
180.0
  0
LINE
  5
236
330
20
100
AcDbEntity
  8
0
100
AcDbLine
 10
230.94607
 20
159.00861
 30
0.0
 11
230.94607
 21
155.00861
 31
0.0
  0
ARC
  5
237
330
20
100
AcDbEntity
  8
0
100
AcDbCircle
 10
289.44607
 20
155.00861
 30
0.0
 40
58.5
100
AcDbArc
 50
180.0
 51
180.58575
  0
LINE
  5
238
330
20
100
AcDbEntity
  8
0
100
AcDbLine
 10
294.44607
 20
217.5086100000001
 30
0.0
 11
289.44607
 21
217.5086100000001
 31
0.0
  0
ARC
  5
239
330
20
100
AcDbEntity
  8
0
100
AcDbCircle
 10
294.44607
 20
220.50861
 30
0.0
 40
3.0
100
AcDbArc
 50
270.0
 51
0.0
  0
LINE
  5
23A
330
20
100
AcDbEntity
  8
0
100
AcDbLine
 10
297.44607
 20
229.67474
 30
0.0
 11
304.4460699999998
 21
230.49827
 31
0.0
  0
LINE
  5
23B
330
20
100
AcDbEntity
  8
0
100
AcDbLine
 10
297.44607
 20
220.50861
 30
0.0
 11
297.44607
 21
229.67474
 31
0.0
  0
LINE
  5
23C
330
20
100
AcDbEntity
  8
0
100
AcDbLine
 10
298.9460699999998
 20
220.50861
 30
0.0
 11
298.9460699999998
 21
229.65974
 31
0.0
  0
LINE
  5
23D
330
20
100
AcDbEntity
  8
0
100
AcDbLine
 10
298.9460699999998
 20
217.55057
 30
0.0
 11
298.9460699999998
 21
96.46665000000002
 31
0.0
  0
LINE
  5
23E
330
20
100
AcDbEntity
  8
0
100
AcDbLine
 10
301.4460699999998
 20
210.00861
 30
0.0
 11
301.4460699999998
 21
217.55057
 31
0.0
  0
ARC
  5
23F
330
20
100
AcDbEntity
  8
0
100
AcDbCircle
 10
300.4460699999999
 20
220.50861
 30
0.0
 40
3.0
100
AcDbArc
 50
180.0
 51
260.4059299999999
  0
ARC
  5
240
330
20
100
AcDbEntity
  8
0
100
AcDbCircle
 10
300.4460699999999
 20
220.50861
 30
0.0
 40
1.5
100
AcDbArc
 50
180.0
 51
260.4059299999999
  0
ARC
  5
241
330
20
100
AcDbEntity
  8
0
100
AcDbCircle
 10
299.9460699999998
 20
217.55057
 30
0.0
 40
1.5
100
AcDbArc
 50
0.0
 51
80.40593199999998
  0
ARC
  5
242
330
20
100
AcDbEntity
  8
0
100
AcDbCircle
 10
305.9460699999998
 20
210.00861
 30
0.0
 40
4.5
100
AcDbArc
 50
180.0
 51
270.0
  0
ARC
  5
243
330
20
100
AcDbEntity
  8
0
100
AcDbCircle
 10
305.9460699999998
 20
210.00861
 30
0.0
 40
6.0
100
AcDbArc
 50
180.0
 51
270.0
  0
LINE
  5
244
330
20
100
AcDbEntity
  8
0
100
AcDbLine
 10
305.9460699999998
 20
204.00861
 30
0.0
 11
346.4460699999999
 21
204.00861
 31
0.0
  0
LINE
  5
245
330
20
100
AcDbEntity
  8
0
100
AcDbLine
 10
297.44607
 20
229.65974
 30
0.0
 11
298.9460699999998
 21
229.65974
 31
0.0
  0
LINE
  5
246
330
20
100
AcDbEntity
  8
0
100
AcDbLine
 10
297.44607
 20
217.55057
 30
0.0
 11
298.9460699999998
 21
217.55057
 31
0.0
  0
LINE
  5
247
330
20
100
AcDbEntity
  8
0
100
AcDbLine
 10
298.5067299999998
 20
203.94795
 30
0.0
 11
291.50673
 21
196.94795
 31
0.0
  0
ARC
  5
248
330
20
100
AcDbEntity
  8
0
100
AcDbCircle
 10
297.44607
 20
205.0086100000001
 30
0.0
 40
1.5
100
AcDbArc
 50
315.0
 51
0.0
  0
LINE
  5
249
330
20
100
AcDbEntity
  8
0
100
AcDbLine
 10
297.44607
 20
114.00861
 30
0.0
 11
298.9460699999998
 21
114.00861
 31
0.0
  0
LINE
  5
24A
330
20
100
AcDbEntity
  8
0
100
AcDbLine
 10
298.5067299999998
 20
122.94795
 30
0.0
 11
291.50673
 21
115.94795
 31
0.0
  0
LINE
  5
24B
330
20
100
AcDbEntity
  8
0
100
AcDbLine
 10
295.9460699999998
 20
93.50861000000003
 30
0.0
 11
295.9460699999998
 21
84.34248999999999
 31
0.0
  0
ARC
  5
24C
330
20
100
AcDbEntity
  8
0
100
AcDbCircle
 10
294.44607
 20
93.50861000000003
 30
0.0
 40
1.5
100
AcDbArc
 50
0.0
 51
90.0
  0
LINE
  5
24D
330
20
100
AcDbEntity
  8
0
100
AcDbLine
 10
304.4460699999998
 20
82.00861000000003
 30
0.0
 11
304.4460699999998
 21
108.25125
 31
0.0
  0
LINE
  5
24E
330
20
100
AcDbEntity
  8
0
100
AcDbLine
 10
297.2708099999999
 20
82.85276000000001
 30
0.0
 11
304.4460699999998
 21
82.00861000000003
 31
0.0
  0
ARC
  5
24F
330
20
100
AcDbEntity
  8
0
100
AcDbCircle
 10
297.44607
 20
84.34248999999999
 30
0.0
 40
1.5
100
AcDbArc
 50
180.0
 51
263.29016
  0
LINE
  5
250
330
20
100
AcDbEntity
  8
0
100
AcDbLine
 10
294.44607
 20
95.00861000000003
 30
0.0
 11
289.44607
 21
95.00861000000003
 31
0.0
  0
LINE
  5
251
330
20
100
AcDbEntity
  8
0
100
AcDbLine
 10
294.44607
 20
96.50861000000004
 30
0.0
 11
288.84754
 21
96.50861000000004
 31
0.0
  0
ARC
  5
252
330
20
100
AcDbEntity
  8
0
100
AcDbCircle
 10
294.44607
 20
93.50861000000003
 30
0.0
 40
3.0
100
AcDbArc
 50
0.0
 51
90.0
  0
LINE
  5
253
330
20
100
AcDbEntity
  8
0
100
AcDbLine
 10
297.44607
 20
84.34248999999999
 30
0.0
 11
304.4460699999998
 21
83.51895711677221
 31
0.0
  0
LINE
  5
254
330
20
100
AcDbEntity
  8
0
100
AcDbLine
 10
297.44607
 20
93.50861000000003
 30
0.0
 11
297.44607
 21
84.34248999999999
 31
0.0
  0
LINE
  5
255
330
20
100
AcDbEntity
  8
0
100
AcDbLine
 10
298.9460699999998
 20
93.50861000000003
 30
0.0
 11
298.9460699999998
 21
84.34248999999999
 31
0.0
  0
LINE
  5
256
330
20
100
AcDbEntity
  8
0
100
AcDbLine
 10
301.4460699999998
 20
104.00861
 30
0.0
 11
301.4460699999998
 21
96.46665000000002
 31
0.0
  0
ARC
  5
257
330
20
100
AcDbEntity
  8
0
100
AcDbCircle
 10
300.4460699999999
 20
93.50861000000003
 30
0.0
 40
3.0
100
AcDbArc
 50
99.59406800000005
 51
180.0
  0
ARC
  5
258
330
20
100
AcDbEntity
  8
0
100
AcDbCircle
 10
300.4460699999999
 20
93.50861000000003
 30
0.0
 40
1.5
100
AcDbArc
 50
99.59406800000005
 51
180.0
  0
ARC
  5
259
330
20
100
AcDbEntity
  8
0
100
AcDbCircle
 10
299.9460699999998
 20
96.46665000000002
 30
0.0
 40
1.5
100
AcDbArc
 50
279.59406
 51
0.0
  0
ARC
  5
25A
330
20
100
AcDbEntity
  8
0
100
AcDbCircle
 10
305.9460699999998
 20
104.00861
 30
0.0
 40
4.5
100
AcDbArc
 50
90.0
 51
180.0
  0
ARC
  5
25B
330
20
100
AcDbEntity
  8
0
100
AcDbCircle
 10
305.9460699999998
 20
104.00861
 30
0.0
 40
6.0
100
AcDbArc
 50
90.0
 51
180.0
  0
LINE
  5
25C
330
20
100
AcDbEntity
  8
0
100
AcDbLine
 10
297.44607
 20
84.35749000000001
 30
0.0
 11
298.9460699999998
 21
84.35749000000001
 31
0.0
  0
LINE
  5
25D
330
20
100
AcDbEntity
  8
0
100
AcDbLine
 10
297.44607
 20
96.46665000000002
 30
0.0
 11
298.9460699999998
 21
96.46665000000002
 31
0.0
  0
LINE
  5
25E
330
20
100
AcDbEntity
  8
0
100
AcDbLine
 10
299.9460699999998
 20
96.46665000000002
 30
0.0
 11
299.9460699999998
 21
217.55057
 31
0.0
  0
ARC
  5
25F
330
20
100
AcDbEntity
  8
0
100
AcDbCircle
 10
289.44607
 20
155.00861
 30
0.0
 40
60.0
100
AcDbArc
 50
269.4284200000001
 51
270.0
  0
ARC
  5
260
330
20
100
AcDbEntity
  8
0
100
AcDbCircle
 10
297.44607
 20
124.00861
 30
0.0
 40
1.5
100
AcDbArc
 50
315.0
 51
0.0
  0
LINE
  5
261
330
20
100
AcDbEntity
  8
0
100
AcDbLine
 10
297.44607
 20
137.50861
 30
0.0
 11
290.44607
 21
130.50861
 31
0.0
  0
LINE
  5
262
330
20
100
AcDbEntity
  8
0
100
AcDbLine
 10
290.44607
 20
130.50861
 30
0.0
 11
291.50673
 21
129.44795
 31
0.0
  0
LINE
  5
263
330
20
100
AcDbEntity
  8
0
100
AcDbLine
 10
297.44607
 20
127.50861
 30
0.0
 11
298.9460699999998
 21
127.50861
 31
0.0
  0
LINE
  5
264
330
20
100
AcDbEntity
  8
0
100
AcDbLine
 10
298.5067299999998
 20
136.44795
 30
0.0
 11
291.50673
 21
129.44795
 31
0.0
  0
ARC
  5
265
330
20
100
AcDbEntity
  8
0
100
AcDbCircle
 10
297.44607
 20
137.50861
 30
0.0
 40
1.5
100
AcDbArc
 50
315.0
 51
0.0
  0
LINE
  5
266
330
20
100
AcDbEntity
  8
0
100
AcDbLine
 10
297.44607
 20
151.00861
 30
0.0
 11
290.44607
 21
144.00861
 31
0.0
  0
LINE
  5
267
330
20
100
AcDbEntity
  8
0
100
AcDbLine
 10
290.44607
 20
144.00861
 30
0.0
 11
291.50673
 21
142.94795
 31
0.0
  0
LINE
  5
268
330
20
100
AcDbEntity
  8
0
100
AcDbLine
 10
297.44607
 20
141.00861
 30
0.0
 11
298.9460699999998
 21
141.00861
 31
0.0
  0
LINE
  5
269
330
20
100
AcDbEntity
  8
0
100
AcDbLine
 10
298.5067299999998
 20
149.94795
 30
0.0
 11
291.50673
 21
142.94795
 31
0.0
  0
ARC
  5
26A
330
20
100
AcDbEntity
  8
0
100
AcDbCircle
 10
297.44607
 20
151.00861
 30
0.0
 40
1.5
100
AcDbArc
 50
315.0
 51
0.0
  0
LINE
  5
26B
330
20
100
AcDbEntity
  8
0
100
AcDbLine
 10
297.44607
 20
164.50861
 30
0.0
 11
290.44607
 21
157.50861
 31
0.0
  0
LINE
  5
26C
330
20
100
AcDbEntity
  8
0
100
AcDbLine
 10
290.44607
 20
157.50861
 30
0.0
 11
291.50673
 21
156.44795
 31
0.0
  0
LINE
  5
26D
330
20
100
AcDbEntity
  8
0
100
AcDbLine
 10
297.44607
 20
154.50861
 30
0.0
 11
298.9460699999998
 21
154.50861
 31
0.0
  0
LINE
  5
26E
330
20
100
AcDbEntity
  8
0
100
AcDbLine
 10
298.5067299999998
 20
163.44795
 30
0.0
 11
291.50673
 21
156.44795
 31
0.0
  0
ARC
  5
26F
330
20
100
AcDbEntity
  8
0
100
AcDbCircle
 10
297.44607
 20
164.50861
 30
0.0
 40
1.5
100
AcDbArc
 50
315.0
 51
0.0
  0
LINE
  5
270
330
20
100
AcDbEntity
  8
0
100
AcDbLine
 10
297.44607
 20
178.00861
 30
0.0
 11
290.44607
 21
171.00861
 31
0.0
  0
LINE
  5
272
330
20
100
AcDbEntity
  8
0
100
AcDbLine
 10
297.44607
 20
168.00861
 30
0.0
 11
298.9460699999998
 21
168.00861
 31
0.0
  0
LINE
  5
273
330
20
100
AcDbEntity
  8
0
100
AcDbLine
 10
298.5067299999998
 20
176.94795
 30
0.0
 11
291.50673
 21
169.94795
 31
0.0
  0
ARC
  5
274
330
20
100
AcDbEntity
  8
0
100
AcDbCircle
 10
297.44607
 20
178.00861
 30
0.0
 40
1.5
100
AcDbArc
 50
315.0
 51
0.0
  0
LINE
  5
275
330
20
100
AcDbEntity
  8
0
100
AcDbLine
 10
297.44607
 20
191.50861
 30
0.0
 11
290.44607
 21
184.50861
 31
0.0
  0
LINE
  5
276
330
20
100
AcDbEntity
  8
0
100
AcDbLine
 10
290.44607
 20
184.50861
 30
0.0
 11
291.50673
 21
183.44795
 31
0.0
  0
LINE
  5
277
330
20
100
AcDbEntity
  8
0
100
AcDbLine
 10
297.44607
 20
181.50861
 30
0.0
 11
298.9460699999998
 21
181.50861
 31
0.0
  0
LINE
  5
278
330
20
100
AcDbEntity
  8
0
100
AcDbLine
 10
298.5067299999998
 20
190.44795
 30
0.0
 11
291.50673
 21
183.44795
 31
0.0
  0
ARC
  5
279
330
20
100
AcDbEntity
  8
0
100
AcDbCircle
 10
297.44607
 20
191.50861
 30
0.0
 40
1.5
100
AcDbArc
 50
315.0
 51
0.0
  0
LINE
  5
27A
330
20
100
AcDbEntity
  8
0
100
AcDbLine
 10
297.44607
 20
205.0086100000001
 30
0.0
 11
290.44607
 21
198.00861
 31
0.0
  0
LINE
  5
27B
330
20
100
AcDbEntity
  8
0
100
AcDbLine
 10
297.44607
 20
195.00861
 30
0.0
 11
298.9460699999998
 21
195.00861
 31
0.0
  0
LINE
  5
27C
330
20
100
AcDbEntity
  8
0
100
AcDbLine
 10
346.4460699999999
 20
110.00861
 30
0.0
 11
305.9460699999998
 21
110.00861
 31
0.0
  0
LINE
  5
27D
330
20
100
AcDbEntity
  8
0
100
AcDbLine
 10
347.9460699999998
 20
202.50861
 30
0.0
 11
347.9460699999998
 21
180.87993
 31
0.0
  0
ARC
  5
27E
330
20
100
AcDbEntity
  8
0
100
AcDbCircle
 10
346.4460699999999
 20
202.50861
 30
0.0
 40
1.5
100
AcDbArc
 50
0.0
 51
90.0
  0
ARC
  5
27F
330
20
100
AcDbEntity
  8
0
100
AcDbCircle
 10
346.4460699999999
 20
111.50861
 30
0.0
 40
1.5
100
AcDbArc
 50
270.0
 51
0.0
  0
LINE
  5
280
330
20
100
AcDbEntity
  8
0
100
AcDbLine
 10
347.9460699999998
 20
200.50861
 30
0.0
 11
349.44607
 21
200.50861
 31
0.0
  0
LINE
  5
281
330
20
100
AcDbEntity
  8
0
100
AcDbLine
 10
297.44607
 20
205.0086100000001
 30
0.0
 11
297.44607
 21
217.55057
 31
0.0
  0
LINE
  5
282
330
20
100
AcDbEntity
  8
0
100
AcDbLine
 10
297.44607
 20
191.50861
 30
0.0
 11
297.44607
 21
202.88729
 31
0.0
  0
LINE
  5
283
330
20
100
AcDbEntity
  8
0
100
AcDbLine
 10
297.44607
 20
178.00861
 30
0.0
 11
297.44607
 21
189.38729
 31
0.0
  0
LINE
  5
284
330
20
100
AcDbEntity
  8
0
100
AcDbLine
 10
297.44607
 20
164.50861
 30
0.0
 11
297.44607
 21
175.88729
 31
0.0
  0
LINE
  5
285
330
20
100
AcDbEntity
  8
0
100
AcDbLine
 10
297.44607
 20
148.88729
 30
0.0
 11
297.44607
 21
137.50861
 31
0.0
  0
LINE
  5
286
330
20
100
AcDbEntity
  8
0
100
AcDbLine
 10
297.44607
 20
135.38729
 30
0.0
 11
297.44607
 21
124.00861
 31
0.0
  0
LINE
  5
287
330
20
100
AcDbEntity
  8
0
100
AcDbLine
 10
297.44607
 20
121.88729
 30
0.0
 11
297.44607
 21
96.46665000000002
 31
0.0
  0
LINE
  5
288
330
20
100
AcDbEntity
  8
0
100
AcDbLine
 10
297.44607
 20
108.00861
 30
0.0
 11
298.9460699999998
 21
108.00861
 31
0.0
  0
LINE
  5
289
330
20
100
AcDbEntity
  8
0
100
AcDbLine
 10
297.44607
 20
104.50861
 30
0.0
 11
298.9460699999998
 21
104.50861
 31
0.0
  0
CIRCLE
  5
295
330
20
100
AcDbEntity
  8
0
100
AcDbCircle
 10
299.44607
 20
96.96665000000002
 30
0.0
 40
0.5
  0
CIRCLE
  5
296
330
20
100
AcDbEntity
  8
0
100
AcDbCircle
 10
299.44607
 20
98.96665000000002
 30
0.0
 40
0.5
  0
CIRCLE
  5
297
330
20
100
AcDbEntity
  8
0
100
AcDbCircle
 10
299.44607
 20
100.96665
 30
0.0
 40
0.5
  0
CIRCLE
  5
298
330
20
100
AcDbEntity
  8
0
100
AcDbCircle
 10
299.44607
 20
102.96665
 30
0.0
 40
0.5
  0
CIRCLE
  5
299
330
20
100
AcDbEntity
  8
0
100
AcDbCircle
 10
299.44607
 20
104.96665
 30
0.0
 40
0.5
  0
CIRCLE
  5
29A
330
20
100
AcDbEntity
  8
0
100
AcDbCircle
 10
299.44607
 20
106.96665
 30
0.0
 40
0.5
  0
CIRCLE
  5
29B
330
20
100
AcDbEntity
  8
0
100
AcDbCircle
 10
299.44607
 20
108.96665
 30
0.0
 40
0.5
  0
CIRCLE
  5
29C
330
20
100
AcDbEntity
  8
0
100
AcDbCircle
 10
299.44607
 20
110.96665
 30
0.0
 40
0.5
  0
CIRCLE
  5
29D
330
20
100
AcDbEntity
  8
0
100
AcDbCircle
 10
299.44607
 20
112.96665
 30
0.0
 40
0.5
  0
CIRCLE
  5
29E
330
20
100
AcDbEntity
  8
0
100
AcDbCircle
 10
299.44607
 20
114.96665
 30
0.0
 40
0.5
  0
CIRCLE
  5
29F
330
20
100
AcDbEntity
  8
0
100
AcDbCircle
 10
299.44607
 20
116.96665
 30
0.0
 40
0.5
  0
CIRCLE
  5
2A0
330
20
100
AcDbEntity
  8
0
100
AcDbCircle
 10
299.44607
 20
118.96665
 30
0.0
 40
0.5
  0
CIRCLE
  5
2A1
330
20
100
AcDbEntity
  8
0
100
AcDbCircle
 10
299.44607
 20
120.96665
 30
0.0
 40
0.5
  0
CIRCLE
  5
2A2
330
20
100
AcDbEntity
  8
0
100
AcDbCircle
 10
299.44607
 20
122.96665
 30
0.0
 40
0.5
  0
CIRCLE
  5
2A3
330
20
100
AcDbEntity
  8
0
100
AcDbCircle
 10
299.44607
 20
124.96665
 30
0.0
 40
0.5
  0
CIRCLE
  5
2A4
330
20
100
AcDbEntity
  8
0
100
AcDbCircle
 10
299.44607
 20
126.96665
 30
0.0
 40
0.5
  0
CIRCLE
  5
2A5
330
20
100
AcDbEntity
  8
0
100
AcDbCircle
 10
299.44607
 20
128.96665
 30
0.0
 40
0.5
  0
CIRCLE
  5
2A6
330
20
100
AcDbEntity
  8
0
100
AcDbCircle
 10
299.44607
 20
130.96665
 30
0.0
 40
0.5
  0
CIRCLE
  5
2A7
330
20
100
AcDbEntity
  8
0
100
AcDbCircle
 10
299.44607
 20
132.96665
 30
0.0
 40
0.5
  0
CIRCLE
  5
2A8
330
20
100
AcDbEntity
  8
0
100
AcDbCircle
 10
299.44607
 20
136.96665
 30
0.0
 40
0.5
  0
CIRCLE
  5
2A9
330
20
100
AcDbEntity
  8
0
100
AcDbCircle
 10
299.44607
 20
138.96665
 30
0.0
 40
0.5
  0
CIRCLE
  5
2AA
330
20
100
AcDbEntity
  8
0
100
AcDbCircle
 10
299.44607
 20
140.96665
 30
0.0
 40
0.5
  0
CIRCLE
  5
2AB
330
20
100
AcDbEntity
  8
0
100
AcDbCircle
 10
299.44607
 20
142.96665
 30
0.0
 40
0.5
  0
CIRCLE
  5
2AC
330
20
100
AcDbEntity
  8
0
100
AcDbCircle
 10
299.44607
 20
144.96665
 30
0.0
 40
0.5
  0
CIRCLE
  5
2AD
330
20
100
AcDbEntity
  8
0
100
AcDbCircle
 10
299.44607
 20
146.96665
 30
0.0
 40
0.5
  0
CIRCLE
  5
2AE
330
20
100
AcDbEntity
  8
0
100
AcDbCircle
 10
299.44607
 20
148.96665
 30
0.0
 40
0.5
  0
CIRCLE
  5
2AF
330
20
100
AcDbEntity
  8
0
100
AcDbCircle
 10
299.44607
 20
150.9666499999999
 30
0.0
 40
0.5
  0
CIRCLE
  5
2B0
330
20
100
AcDbEntity
  8
0
100
AcDbCircle
 10
299.44607
 20
152.96665
 30
0.0
 40
0.5
  0
CIRCLE
  5
2B1
330
20
100
AcDbEntity
  8
0
100
AcDbCircle
 10
299.44607
 20
154.96665
 30
0.0
 40
0.5
  0
CIRCLE
  5
2B2
330
20
100
AcDbEntity
  8
0
100
AcDbCircle
 10
299.44607
 20
156.96665
 30
0.0
 40
0.5
  0
CIRCLE
  5
2B3
330
20
100
AcDbEntity
  8
0
100
AcDbCircle
 10
299.44607
 20
158.96665
 30
0.0
 40
0.5
  0
CIRCLE
  5
2B4
330
20
100
AcDbEntity
  8
0
100
AcDbCircle
 10
299.44607
 20
160.96665
 30
0.0
 40
0.5
  0
CIRCLE
  5
2B5
330
20
100
AcDbEntity
  8
0
100
AcDbCircle
 10
299.44607
 20
162.96665
 30
0.0
 40
0.5
  0
CIRCLE
  5
2B6
330
20
100
AcDbEntity
  8
0
100
AcDbCircle
 10
299.44607
 20
164.96665
 30
0.0
 40
0.5
  0
CIRCLE
  5
2B7
330
20
100
AcDbEntity
  8
0
100
AcDbCircle
 10
299.44607
 20
166.96665
 30
0.0
 40
0.5
  0
CIRCLE
  5
2B8
330
20
100
AcDbEntity
  8
0
100
AcDbCircle
 10
299.44607
 20
168.96665
 30
0.0
 40
0.5
  0
CIRCLE
  5
2B9
330
20
100
AcDbEntity
  8
0
100
AcDbCircle
 10
299.44607
 20
170.96665
 30
0.0
 40
0.5
  0
CIRCLE
  5
2BA
330
20
100
AcDbEntity
  8
0
100
AcDbCircle
 10
299.44607
 20
172.96665
 30
0.0
 40
0.5
  0
CIRCLE
  5
2BB
330
20
100
AcDbEntity
  8
0
100
AcDbCircle
 10
299.44607
 20
174.96665
 30
0.0
 40
0.5
  0
CIRCLE
  5
2BC
330
20
100
AcDbEntity
  8
0
100
AcDbCircle
 10
299.44607
 20
176.96665
 30
0.0
 40
0.5
  0
CIRCLE
  5
2BD
330
20
100
AcDbEntity
  8
0
100
AcDbCircle
 10
299.44607
 20
178.96665
 30
0.0
 40
0.5
  0
CIRCLE
  5
2BE
330
20
100
AcDbEntity
  8
0
100
AcDbCircle
 10
299.44607
 20
180.96665
 30
0.0
 40
0.5
  0
CIRCLE
  5
2BF
330
20
100
AcDbEntity
  8
0
100
AcDbCircle
 10
299.44607
 20
184.96665
 30
0.0
 40
0.5
  0
CIRCLE
  5
2C0
330
20
100
AcDbEntity
  8
0
100
AcDbCircle
 10
299.44607
 20
186.96665
 30
0.0
 40
0.5
  0
CIRCLE
  5
2C1
330
20
100
AcDbEntity
  8
0
100
AcDbCircle
 10
299.44607
 20
188.96665
 30
0.0
 40
0.5
  0
CIRCLE
  5
2C2
330
20
100
AcDbEntity
  8
0
100
AcDbCircle
 10
299.44607
 20
190.96665
 30
0.0
 40
0.5
  0
CIRCLE
  5
2C3
330
20
100
AcDbEntity
  8
0
100
AcDbCircle
 10
299.44607
 20
192.96665
 30
0.0
 40
0.5
  0
CIRCLE
  5
2C4
330
20
100
AcDbEntity
  8
0
100
AcDbCircle
 10
299.44607
 20
194.96665
 30
0.0
 40
0.5
  0
CIRCLE
  5
2C5
330
20
100
AcDbEntity
  8
0
100
AcDbCircle
 10
299.44607
 20
196.96665
 30
0.0
 40
0.5
  0
CIRCLE
  5
2C6
330
20
100
AcDbEntity
  8
0
100
AcDbCircle
 10
299.44607
 20
198.96665
 30
0.0
 40
0.5
  0
CIRCLE
  5
2C7
330
20
100
AcDbEntity
  8
0
100
AcDbCircle
 10
299.44607
 20
200.96665
 30
0.0
 40
0.5
  0
CIRCLE
  5
2C8
330
20
100
AcDbEntity
  8
0
100
AcDbCircle
 10
299.44607
 20
202.96665
 30
0.0
 40
0.5
  0
CIRCLE
  5
2C9
330
20
100
AcDbEntity
  8
0
100
AcDbCircle
 10
299.44607
 20
204.96665
 30
0.0
 40
0.5
  0
CIRCLE
  5
2CA
330
20
100
AcDbEntity
  8
0
100
AcDbCircle
 10
299.44607
 20
206.96665
 30
0.0
 40
0.5
  0
CIRCLE
  5
2CB
330
20
100
AcDbEntity
  8
0
100
AcDbCircle
 10
299.44607
 20
210.96665
 30
0.0
 40
0.5
  0
CIRCLE
  5
2CC
330
20
100
AcDbEntity
  8
0
100
AcDbCircle
 10
299.44607
 20
212.96665
 30
0.0
 40
0.5
  0
CIRCLE
  5
2CD
330
20
100
AcDbEntity
  8
0
100
AcDbCircle
 10
299.44607
 20
214.96665
 30
0.0
 40
0.5
  0
CIRCLE
  5
2CE
330
20
100
AcDbEntity
  8
0
100
AcDbCircle
 10
299.44607
 20
216.96665
 30
0.0
 40
0.5
  0
TEXT
  5
2CF
330
20
100
AcDbEntity
  8
moji
100
AcDbText
 10
249.0
 20
50.55391118792853
 30
0.0
 40
2.5
  1
4
 41
1.199999999999999
100
AcDbText
  0
TEXT
  5
2D0
330
20
100
AcDbEntity
  8
moji
100
AcDbText
 10
257.2549472290652
 20
50.55391118792853
 30
0.0
 40
2.5
  1
網
 41
1.199999999999999
100
AcDbText
  0
TEXT
  5
2D1
330
20
100
AcDbEntity
  8
moji
100
AcDbText
 10
375.0692693942932
 20
50.55391118792853
 30
0.0
 40
2.5
  1
1
 41
1.199999999999999
100
AcDbText
  0
TEXT
  5
2D2
330
20
100
AcDbEntity
  8
moji
100
AcDbText
 10
381.2034599999998
 20
50.54199118792849
 30
0.0
 40
2.5
  1
MVLAPノミ
 41
0.63
100
AcDbText
  0
LINE
  5
2D3
330
20
100
AcDbEntity
  8
hyou
  6
Continuous
100
AcDbLine
 10
270.9999999999998
 20
40.0
 30
0.0
 11
270.9999999999998
 21
35.0
 31
0.0
  0
TEXT
  5
2D4
330
20
100
AcDbEntity
  8
moji
100
AcDbText
 10
248.3320468798287
 20
36.10843662621849
 30
0.0
 40
2.5
  1
表 面 処 理
 41
0.735
100
AcDbText
  0
TEXT
  5
2D5
330
20
100
AcDbEntity
  8
moji
100
AcDbText
 10
271.969813040476
 20
36.10843662621849
 30
0.0
 40
2.5
  1
　アクリル焼付け塗装
 41
0.7241380000000001
100
AcDbText
  0
LINE
  5
2D6
330
20
100
AcDbEntity
  8
waku
  6
Continuous
100
AcDbLine
 10
261.0
 20
15.0
 30
0.0
 11
261.0
 21
29.0
 31
0.0
  0
LINE
  5
2D7
330
20
100
AcDbEntity
  8
waku
  6
Continuous
100
AcDbLine
 10
276.0
 20
15.0
 30
0.0
 11
276.0
 21
29.0
 31
0.0
  0
LINE
  5
2D8
330
20
100
AcDbEntity
  8
waku
  6
Continuous
100
AcDbLine
 10
290.9999999999998
 20
15.0
 30
0.0
 11
290.9999999999998
 21
29.0
 31
0.0
  0
LINE
  5
2D9
330
20
100
AcDbEntity
  8
waku
  6
Continuous
100
AcDbLine
 10
245.9999999999998
 20
24.0
 30
0.0
 11
306.0
 21
24.0
 31
0.0
  0
TEXT
  5
2DA
330
20
100
AcDbEntity
  8
moji
100
AcDbText
 10
249.3606530416877
 20
25.07963931971841
 30
0.0
 40
2.5
  1
承 認
 41
0.855
100
AcDbText
  0
TEXT
  5
2DB
330
20
100
AcDbEntity
  8
moji
100
AcDbText
 10
294.662128592901
 20
16.99635198070768
 30
0.0
 40
4.5
  1
T,K
 41
0.75
100
AcDbText
  0
TEXT
  5
2DC
330
20
100
AcDbEntity
  8
moji
100
AcDbText
 10
265.2538534106068
 20
25.07963931971841
 30
0.0
 40
2.5
  1
検 図
 41
0.855
100
AcDbText
  0
TEXT
  5
2DD
330
20
100
AcDbEntity
  8
moji
100
AcDbText
 10
279.8072526751908
 20
25.07963931971841
 30
0.0
 40
2.5
  1
製 図
 41
0.855
100
AcDbText
  0
TEXT
  5
2DE
330
20
100
AcDbEntity
  8
moji
100
AcDbText
 10
294.9936713050348
 20
25.07963931971841
 30
0.0
 40
2.5
  1
設 計
 41
0.855
100
AcDbText
  0
LINE
  5
2DF
330
20
100
AcDbEntity
  8
0
100
AcDbLine
 10
347.9460699999998
 20
113.50861
 30
0.0
 11
349.44607
 21
113.50861
 31
0.0
  0
LINE
  5
2E0
330
20
100
AcDbEntity
  8
hyou
  6
Continuous
100
AcDbLine
 10
75.0
 20
4.999999999999912
 30
0.0
 11
75.0
 21
29.0
 31
0.0
  0
LINE
  5
2E1
330
20
100
AcDbEntity
  8
hyou
  6
Continuous
100
AcDbLine
 10
95.0
 20
4.999999999999912
 30
0.0
 11
95.0
 21
29.0
 31
0.0
  0
LINE
  5
2E2
330
20
100
AcDbEntity
  8
hyou
  6
Continuous
100
AcDbLine
 10
115.0
 20
4.999999999999912
 30
0.0
 11
115.0
 21
29.0
 31
0.0
  0
LINE
  5
2E3
330
20
100
AcDbEntity
  8
hyou
  6
Continuous
100
AcDbLine
 10
135.0
 20
4.999999999999912
 30
0.0
 11
135.0
 21
29.0
 31
0.0
  0
LINE
  5
2E4
330
20
100
AcDbEntity
  8
hyou
  6
Continuous
100
AcDbLine
 10
155.0
 20
4.999999999999912
 30
0.0
 11
155.0
 21
29.0
 31
0.0
  0
LINE
  5
2E5
330
20
100
AcDbEntity
  8
hyou
  6
Continuous
100
AcDbLine
 10
5.0
 20
13.0
 30
0.0
 11
235.0
 21
13.0
 31
0.0
  0
LINE
  5
2E6
330
20
100
AcDbEntity
  8
hyou
  6
Continuous
100
AcDbLine
 10
5.0
 20
21.0
 30
0.0
 11
235.0
 21
21.0
 31
0.0
  0
TEXT
  5
2EA
330
20
100
AcDbEntity
  8
moji
100
AcDbText
 10
4.860889999999983
 20
22.44181668464571
 30
0.0
 40
3.0
  1
 型 番
 41
0.727273
100
AcDbText
  0
TEXT
  5
2EB
330
20
100
AcDbEntity
  8
moji
100
AcDbText
 10
67.8358747110451
 20
24.53233147635052
 30
0.0
 40
3.0
  1
寸 法 
 41
0.727273
100
AcDbText
  0
TEXT
  5
2EC
330
20
100
AcDbEntity
  8
moji
100
AcDbText
 10
80.8887227178158
 20
22.77276233950212
 30
0.0
 40
3.0
  1
  A
 41
0.75
100
AcDbText
  0
TEXT
  5
2ED
330
20
100
AcDbEntity
  8
moji
100
AcDbText
 10
100.8887127178158
 20
22.77276233950212
 30
0.0
 40
3.0
  1
  B
 41
0.75
100
AcDbText
  0
TEXT
  5
2EE
330
20
100
AcDbEntity
  8
moji
100
AcDbText
 10
120.8887127178158
 20
22.77276233950212
 30
0.0
 40
3.0
  1
  C
 41
0.75
100
AcDbText
  0
TEXT
  5
2EF
330
20
100
AcDbEntity
  8
moji
100
AcDbText
 10
140.8887127178158
 20
22.77276233950212
 30
0.0
 40
3.0
  1
  D
 41
0.75
100
AcDbText
  0
TEXT
  5
2F0
330
20
100
AcDbEntity
  8
moji
100
AcDbText
 10
82.18192727654828
 20
15.06523100128382
 30
0.0
 40
3.0
  1
150
 41
0.75
100
AcDbText
  0
TEXT
  5
2F1
330
20
100
AcDbEntity
  8
moji
100
AcDbText
 10
82.18192727654828
 20
6.887901456698102
 30
0.0
 40
3.0
  1
214
 41
0.75
100
AcDbText
  0
TEXT
  5
2F2
330
20
100
AcDbEntity
  8
moji
100
AcDbText
 10
101.8713344183833
 20
6.887901456698102
 30
0.0
 40
3.0
  1
145
 41
0.75
100
AcDbText
  0
TEXT
  5
2F3
330
20
100
AcDbEntity
  8
moji
100
AcDbText
 10
121.8263124767711
 20
6.887901456698102
 30
0.0
 40
3.0
  1
106
 41
0.75
100
AcDbText
  0
TEXT
  5
2F4
330
20
100
AcDbEntity
  8
moji
100
AcDbText
 10
103.5490161710583
 20
15.09228100128382
 30
0.0
 40
3.0
  1
97
 41
0.8
100
AcDbText
  0
TEXT
  5
2F5
330
20
100
AcDbEntity
  8
moji
100
AcDbText
 10
122.6172653927377
 20
15.09228100128382
 30
0.0
 40
3.0
  1
75
 41
0.8
100
AcDbText
  0
TEXT
  5
2F6
330
20
100
AcDbEntity
  8
moji
100
AcDbText
 10
142.4619850655678
 20
15.09228100128382
 30
0.0
 40
3.0
  1
53
 41
0.8
100
AcDbText
  0
TEXT
  5
2F7
330
20
100
AcDbEntity
  8
moji
100
AcDbText
 10
142.4619850655678
 20
6.914951456698105
 30
0.0
 40
3.0
  1
77
 41
0.8
100
AcDbText
  0
TEXT
  5
2F8
330
20
100
AcDbEntity
  8
moji
100
AcDbText
 10
254.9640025235238
 20
5.242707426856327
 30
0.0
 40
4.5
  1
NTS
 41
0.84375
100
AcDbText
  0
LINE
  5
2F9
330
20
100
AcDbEntity
  8
0
100
AcDbLine
 10
329.4460699999998
 20
205.50861
 30
0.0
 11
341.44607
 21
205.50861
 31
0.0
  0
LINE
  5
2FA
330
20
100
AcDbEntity
  8
0
100
AcDbLine
 10
315.4460699999999
 20
207.97102
 30
0.0
 11
317.41569
 21
207.62372
 31
0.0
  0
LINE
  5
2FB
330
20
100
AcDbEntity
  8
0
100
AcDbLine
 10
315.4460699999999
 20
207.97102
 30
0.0
 11
315.7239099999998
 21
209.54671
 31
0.0
  0
ARC
  5
2FC
330
20
100
AcDbEntity
  8
0
100
AcDbCircle
 10
322.0859900000001
 20
199.13889
 30
0.0
 40
9.599999999999999
100
AcDbArc
 50
42.607482
 51
117.39251
  0
ARC
  5
2FD
330
20
100
AcDbEntity
  8
0
100
AcDbCircle
 10
329.4460699999998
 20
205.90861
 30
0.0
 40
0.4
100
AcDbArc
 50
222.60748
 51
270.0
  0
ARC
  5
2FE
330
20
100
AcDbEntity
  8
0
100
AcDbCircle
 10
317.4851499999999
 20
208.01765
 30
0.0
 40
0.4
100
AcDbArc
 50
260.0
 51
297.39251
  0
LINE
  5
2FF
330
20
100
AcDbEntity
  8
0
100
AcDbLine
 10
341.44607
 20
206.70861
 30
0.0
 11
341.44607
 21
205.50861
 31
0.0
  0
LINE
  5
300
330
20
100
AcDbEntity
  8
0
100
AcDbLine
 10
330.3406456028464
 20
206.70861
 30
0.0
 11
341.44607
 21
206.70861
 31
0.0
  0
ARC
  5
301
330
20
100
AcDbEntity
  8
0
100
AcDbCircle
 10
322.0859900000001
 20
199.13889
 30
0.0
 40
11.2
100
AcDbArc
 50
42.52158060665201
 51
115.26281
  0
LINE
  5
302
330
20
100
AcDbEntity
  8
0
100
AcDbLine
 10
315.7239099999998
 20
209.54671
 30
0.0
 11
317.3061499999999
 21
209.2677200000002
 31
0.0
  0
LINE
  5
303
330
20
100
AcDbEntity
  8
0
100
AcDbLine
 10
304.4460699999998
 20
202.00861
 30
0.0
 11
304.4460699999998
 21
198.0503
 31
0.0
  0
ARC
  5
304
330
20
100
AcDbEntity
  8
0
100
AcDbCircle
 10
306.4460699999998
 20
202.00861
 30
0.0
 40
2.0
100
AcDbArc
 50
90.0
 51
180.0
  0
LINE
  5
305
330
20
100
AcDbEntity
  8
0
100
AcDbLine
 10
329.4460699999998
 20
204.00861
 30
0.0
 11
329.4460699999998
 21
197.65452
 31
0.0
  0
LINE
  5
306
330
20
100
AcDbEntity
  8
0
100
AcDbLine
 10
314.71054
 20
202.50861
 30
0.0
 11
315.2889299999998
 21
201.93022
 31
0.0
  0
LINE
  5
307
330
20
100
AcDbEntity
  8
0
100
AcDbLine
 10
323.6854499999998
 20
200.01245
 30
0.0
 11
326.1816099999998
 21
202.50861
 31
0.0
  0
LINE
  5
308
330
20
100
AcDbEntity
  8
0
100
AcDbLine
 10
329.4460699999998
 20
204.00861
 30
0.0
 11
306.4460699999998
 21
204.00861
 31
0.0
  0
LINE
  5
309
330
20
100
AcDbEntity
  8
0
100
AcDbLine
 10
305.9460699999998
 20
202.50861
 30
0.0
 11
314.71054
 21
202.50861
 31
0.0
  0
LINE
  5
30A
330
20
100
AcDbEntity
  8
0
100
AcDbLine
 10
306.1960699999998
 20
201.50861
 30
0.0
 11
312.6960699999998
 21
201.50861
 31
0.0
  0
LINE
  5
30B
330
20
100
AcDbEntity
  8
0
100
AcDbLine
 10
305.9460699999998
 20
199.70861
 30
0.0
 11
304.4460699999998
 21
199.70861
 31
0.0
  0
LINE
  5
30C
330
20
100
AcDbEntity
  8
0
100
AcDbLine
 10
322.06672
 20
200.51504
 30
0.0
 11
325.1209499999999
 21
203.56927
 31
0.0
  0
LINE
  5
30D
330
20
100
AcDbEntity
  8
0
100
AcDbLine
 10
315.7712
 20
203.56927
 30
0.0
 11
317.8108499999999
 21
201.52962
 31
0.0
  0
ARC
  5
30E
330
20
100
AcDbEntity
  8
0
100
AcDbCircle
 10
326.1816099999998
 20
202.50861
 30
0.0
 40
1.5
100
AcDbArc
 50
90.0
 51
135.0
  0
ARC
  5
30F
330
20
100
AcDbEntity
  8
0
100
AcDbCircle
 10
314.71054
 20
202.50861
 30
0.0
 40
1.5
100
AcDbArc
 50
45.0
 51
90.0
  0
LINE
  5
310
330
20
100
AcDbEntity
  8
0
100
AcDbLine
 10
304.4460699999998
 20
112.00861
 30
0.0
 11
304.4460699999998
 21
115.96693
 31
0.0
  0
ARC
  5
311
330
20
100
AcDbEntity
  8
0
100
AcDbCircle
 10
306.4460699999998
 20
112.00861
 30
0.0
 40
2.0
100
AcDbArc
 50
180.0
 51
270.0
  0
LINE
  5
312
330
20
100
AcDbEntity
  8
0
100
AcDbLine
 10
329.4460699999998
 20
110.00861
 30
0.0
 11
329.4460699999998
 21
116.3627
 31
0.0
  0
LINE
  5
313
330
20
100
AcDbEntity
  8
0
100
AcDbLine
 10
314.71054
 20
111.50861
 30
0.0
 11
315.2889299999998
 21
112.087
 31
0.0
  0
LINE
  5
314
330
20
100
AcDbEntity
  8
0
100
AcDbLine
 10
323.6854499999998
 20
114.00477
 30
0.0
 11
326.1816099999998
 21
111.50861
 31
0.0
  0
LINE
  5
315
330
20
100
AcDbEntity
  8
0
100
AcDbLine
 10
329.4460699999998
 20
110.00861
 30
0.0
 11
306.4460699999998
 21
110.00861
 31
0.0
  0
LINE
  5
316
330
20
100
AcDbEntity
  8
0
100
AcDbLine
 10
305.9460699999998
 20
111.50861
 30
0.0
 11
314.71054
 21
111.50861
 31
0.0
  0
LINE
  5
317
330
20
100
AcDbEntity
  8
0
100
AcDbLine
 10
306.1960699999998
 20
112.50861
 30
0.0
 11
312.6531700000001
 21
112.50861
 31
0.0
  0
LINE
  5
318
330
20
100
AcDbEntity
  8
0
100
AcDbLine
 10
305.9460699999998
 20
114.30861
 30
0.0
 11
304.4460699999998
 21
114.30861
 31
0.0
  0
LINE
  5
319
330
20
100
AcDbEntity
  8
0
100
AcDbLine
 10
322.06672
 20
113.50218
 30
0.0
 11
325.1209499999999
 21
110.44795
 31
0.0
  0
LINE
  5
31A
330
20
100
AcDbEntity
  8
0
100
AcDbLine
 10
315.7712
 20
110.44795
 30
0.0
 11
317.8108499999999
 21
112.4876
 31
0.0
  0
ARC
  5
31B
330
20
100
AcDbEntity
  8
0
100
AcDbCircle
 10
326.1816099999998
 20
111.50861
 30
0.0
 40
1.5
100
AcDbArc
 50
225.0
 51
270.0
  0
ARC
  5
31C
330
20
100
AcDbEntity
  8
0
100
AcDbCircle
 10
314.71054
 20
111.50861
 30
0.0
 40
1.5
100
AcDbArc
 50
270.0
 51
315.0
  0
LINE
  5
31D
330
20
100
AcDbEntity
  8
0
100
AcDbLine
 10
305.9460699999998
 20
111.50861
 30
0.0
 11
305.9460699999998
 21
115.64463
 31
0.0
  0
LINE
  5
31E
330
20
100
AcDbEntity
  8
0
100
AcDbLine
 10
305.9460699999998
 20
202.50861
 30
0.0
 11
305.9460699999998
 21
198.37259
 31
0.0
  0
LINE
  5
31F
330
20
100
AcDbEntity
  8
0
100
AcDbLine
 10
324.06029
 20
202.50861
 30
0.0
 11
316.8318599999999
 21
202.50861
 31
0.0
  0
LINE
  5
320
330
20
100
AcDbEntity
  8
0
100
AcDbLine
 10
326.1873900000002
 20
111.50861
 30
0.0
 11
329.4460699999998
 21
111.50861
 31
0.0
  0
LINE
  5
321
330
20
100
AcDbEntity
  8
0
100
AcDbLine
 10
316.8318599999999
 20
111.50861
 30
0.0
 11
324.06029
 21
111.50861
 31
0.0
  0
LINE
  5
322
330
20
100
AcDbEntity
  8
0
100
AcDbLine
 10
306.1960699999998
 20
201.50861
 30
0.0
 11
306.1960699999998
 21
198.41856
 31
0.0
  0
ARC
  5
323
330
20
100
AcDbEntity
  8
0
100
AcDbCircle
 10
309.4460699999999
 20
157.00861
 30
0.0
 40
45.3
100
AcDbArc
 50
8.249724
 51
84.73373700000001
  0
ARC
  5
324
330
20
100
AcDbEntity
  8
0
100
AcDbCircle
 10
313.5935299999999
 20
201.6175
 30
0.0
 40
0.5
100
AcDbArc
 50
88.81124399999999
 51
153.82543
  0
ARC
  5
325
330
20
100
AcDbEntity
  8
0
100
AcDbCircle
 10
309.4460699999999
 20
157.00861
 30
0.0
 40
45.3
100
AcDbArc
 50
275.26626
 51
351.75027
  0
ARC
  5
326
330
20
100
AcDbEntity
  8
0
100
AcDbCircle
 10
313.5935299999999
 20
112.39972
 30
0.0
 40
0.5
100
AcDbArc
 50
206.17456
 51
271.18875
  0
LINE
  5
327
330
20
100
AcDbEntity
  8
0
100
AcDbLine
 10
302.49607
 20
116.50861
 30
0.0
 11
302.49607
 21
197.50861
 31
0.0
  0
LINE
  5
328
330
20
100
AcDbEntity
  8
0
100
AcDbLine
 10
320.49607
 20
116.50861
 30
0.0
 11
320.49607
 21
197.50861
 31
0.0
  0
ARC
  5
329
330
20
100
AcDbEntity
  8
0
100
AcDbCircle
 10
311.4960700000001
 20
145.12679
 30
0.0
 40
30.0
100
AcDbArc
 50
252.54239
 51
287.4576
  0
ARC
  5
32A
330
20
100
AcDbEntity
  8
0
100
AcDbCircle
 10
311.4960700000001
 20
168.89044
 30
0.0
 40
30.0
100
AcDbArc
 50
72.54239699999998
 51
107.4576
  0
LINE
  5
32B
330
20
100
AcDbEntity
  8
0
100
AcDbLine
 10
306.1960699999998
 20
112.45861
 30
0.0
 11
306.1960699999998
 21
115.59867
 31
0.0
  0
LINE
  5
32C
330
20
100
AcDbEntity
  8
0
100
AcDbLine
 10
326.1816099999998
 20
202.50861
 30
0.0
 11
329.4460699999998
 21
202.50861
 31
0.0
  0
ARC
  5
32D
330
20
100
AcDbEntity
  8
0
100
AcDbCircle
 10
312.67462
 20
202.00815
 30
0.0
 40
0.5
100
AcDbArc
 50
272.45895
 51
340.11174
  0
ARC
  5
32E
330
20
100
AcDbEntity
  8
0
100
AcDbCircle
 10
312.67462
 20
112.00907
 30
0.0
 40
0.5
100
AcDbArc
 50
19.888252
 51
87.541048
  0
LINE
  5
32F
330
20
100
AcDbEntity
  8
0
100
AcDbLine
 10
349.44607
 20
135.7462
 30
0.0
 11
349.44607
 21
111.50861
 31
0.0
  0
LINE
  5
330
330
20
100
AcDbEntity
  8
0
100
AcDbLine
 10
347.9460699999998
 20
133.13729
 30
0.0
 11
347.9460699999998
 21
111.50861
 31
0.0
  0
LINE
  5
331
330
20
100
AcDbEntity
  8
0
100
AcDbLine
 10
357.4460699999999
 20
163.10861
 30
0.0
 11
357.4460699999999
 21
150.90861
 31
0.0
  0
LINE
  5
332
330
20
100
AcDbEntity
  8
0
100
AcDbLine
 10
338.4460699999999
 20
163.50861
 30
0.0
 11
357.0460699999999
 21
163.50861
 31
0.0
  0
LINE
  5
333
330
20
100
AcDbEntity
  8
0
100
AcDbLine
 10
338.4460699999999
 20
150.50861
 30
0.0
 11
357.0460699999999
 21
150.50861
 31
0.0
  0
ARC
  5
334
330
20
100
AcDbEntity
  8
0
100
AcDbCircle
 10
357.0460699999999
 20
163.10861
 30
0.0
 40
0.4
100
AcDbArc
 50
0.0
 51
90.0
  0
ARC
  5
335
330
20
100
AcDbEntity
  8
0
100
AcDbCircle
 10
357.0460699999999
 20
150.90861
 30
0.0
 40
0.4
100
AcDbArc
 50
270.0
 51
0.0
  0
LINE
  5
336
330
20
100
AcDbEntity
  8
0
100
AcDbLine
 10
338.4460699999999
 20
163.50861
 30
0.0
 11
338.4460699999999
 21
150.50861
 31
0.0
  0
LINE
  5
337
330
20
100
AcDbEntity
  8
hyou
  6
Continuous
100
AcDbLine
 10
245.9999999999998
 20
50.0
 30
0.0
 11
406.0
 21
50.0
 31
0.0
  0
TEXT
  5
338
330
20
100
AcDbEntity
  8
moji
100
AcDbText
 10
249.0
 20
45.55391118792853
 30
0.0
 40
2.5
  1
5
 41
1.199999999999999
100
AcDbText
  0
TEXT
  5
339
330
20
100
AcDbEntity
  8
moji
100
AcDbText
 10
257.2549472290652
 20
45.55391118792853
 30
0.0
 40
2.5
  1
ダンパーユニット
 41
0.834783
100
AcDbText
  0
TEXT
  5
33A
330
20
100
AcDbEntity
  8
moji
100
AcDbText
 10
375.0692693942932
 20
45.55391118792853
 30
0.0
 40
2.5
  1
1
 41
1.199999999999999
100
AcDbText
  0
LINE
  5
33C
330
20
100
AcDbEntity
  8
hyou
  6
Continuous
100
AcDbLine
 10
175.0
 20
4.999999999999912
 30
0.0
 11
175.0
 21
29.0
 31
0.0
  0
TEXT
  5
33D
330
20
100
AcDbEntity
  8
moji
100
AcDbText
 10
162.4835847547226
 20
15.09228100128382
 30
0.0
 40
3.0
  1
45
 41
0.8
100
AcDbText
  0
TEXT
  5
33E
330
20
100
AcDbEntity
  8
moji
100
AcDbText
 10
162.4835847547226
 20
6.914951456698105
 30
0.0
 40
3.0
  1
54
 41
0.8
100
AcDbText
  0
TEXT
  5
33F
330
20
100
AcDbEntity
  8
moji
100
AcDbText
 10
160.8887127178158
 20
22.77276233950212
 30
0.0
 40
3.0
  1
  E
 41
0.75
100
AcDbText
  0
CIRCLE
  5
340
330
20
100
AcDbEntity
  8
0
  6
CENTER2
100
AcDbCircle
 10
101.81913
 20
157.00861
 30
0.0
 40
70.5
  0
CIRCLE
  5
346
330
20
100
AcDbEntity
  8
0
100
AcDbCircle
 10
101.81913
 20
227.50861
 30
0.0
 40
2.1
  0
CIRCLE
  5
347
330
20
100
AcDbEntity
  8
0
100
AcDbCircle
 10
31.31912999999997
 20
157.00861
 30
0.0
 40
2.1
  0
CIRCLE
  5
348
330
20
100
AcDbEntity
  8
0
100
AcDbCircle
 10
40.76434
 20
121.75861
 30
0.0
 40
2.1
  0
CIRCLE
  5
349
330
20
100
AcDbEntity
  8
0
100
AcDbCircle
 10
162.87392
 20
121.75861
 30
0.0
 40
2.1
  0
CIRCLE
  5
34A
330
20
100
AcDbEntity
  8
0
100
AcDbCircle
 10
172.31913
 20
157.00861
 30
0.0
 40
2.1
  0
LINE
  5
34B
330
20
100
AcDbEntity
  8
0
  6
CENTER2
100
AcDbLine
 10
159.13341
 20
123.9182
 30
0.0
 11
166.11241
 21
119.88887
 31
0.0
  0
LINE
  5
34C
330
20
100
AcDbEntity
  8
0
  6
CENTER2
100
AcDbLine
 10
44.50484999999996
 20
123.9182
 30
0.0
 11
37.52584999999999
 21
119.88887
 31
0.0
  0
TEXT
  5
34D
330
20
100
AcDbEntity
  8
moji
100
AcDbText
 10
181.0066188094464
 20
15.04443100128384
 30
0.0
 40
3.0
  1
137
 41
0.75
100
AcDbText
  0
TEXT
  5
34E
330
20
100
AcDbEntity
  8
moji
100
AcDbText
 10
180.8887127178158
 20
22.77276233950212
 30
0.0
 40
3.0
  1
  F
 41
0.75
100
AcDbText
  0
TEXT
  5
34F
330
20
100
AcDbEntity
  8
moji
100
AcDbText
 10
200.8887127178158
 20
22.77276233950212
 30
0.0
 40
3.0
  1
G穴φ4.2
 41
0.529412
100
AcDbText
  0
TEXT
  5
350
330
20
100
AcDbEntity
  8
moji
100
AcDbText
 10
220.8887127178157
 20
22.77276233950212
 30
0.0
 40
3.0
  1
H穴φ4.2
 41
0.529412
100
AcDbText
  0
TEXT
  5
351
330
20
100
AcDbEntity
  8
moji
100
AcDbText
 10
181.0066188094464
 20
6.867101456698092
 30
0.0
 40
3.0
  1
195
 41
0.75
100
AcDbText
  0
LINE
  5
352
330
20
100
AcDbEntity
  8
0
100
AcDbLine
 10
295.9460699999998
 20
229.1856
 30
0.0
 11
298.9460699999998
 21
229.1856
 31
0.0
  0
LINE
  5
353
330
20
100
AcDbEntity
  8
0
100
AcDbLine
 10
295.9460699999998
 20
225.40861
 30
0.0
 11
298.9460699999998
 21
225.40861
 31
0.0
  0
LINE
  5
35C
330
20
100
AcDbEntity
  8
hyou
  6
Continuous
100
AcDbLine
 10
194.9999999999998
 20
4.999999999999912
 30
0.0
 11
194.9999999999998
 21
29.0
 31
0.0
  0
LINE
  5
35D
330
20
100
AcDbEntity
  8
hyou
  6
Continuous
100
AcDbLine
 10
215.0
 20
4.999999999999912
 30
0.0
 11
215.0
 21
29.0
 31
0.0
  0
ARC
  5
35F
330
20
100
AcDbEntity
  8
0
100
AcDbCircle
 10
238.84754
 20
104.41055
 30
0.0
 40
50.0
100
AcDbArc
 50
0.0
 51
90.0
  0
LINE
  5
360
330
20
100
AcDbEntity
  8
0
100
AcDbLine
 10
229.4490499999998
 20
154.41055
 30
0.0
 11
238.84754
 21
154.41055
 31
0.0
  0
LINE
  5
361
330
20
100
AcDbEntity
  8
0
100
AcDbLine
 10
288.84754
 20
95.00861000000003
 30
0.0
 11
288.84754
 21
104.41055
 31
0.0
  0
LINE
  5
362
330
20
100
AcDbEntity
  8
0
100
AcDbLine
 10
73.06170999999998
 20
154.41055
 30
0.0
 11
130.57655
 21
154.41055
 31
0.0
  0
ARC
  5
363
330
20
100
AcDbEntity
  8
0
100
AcDbCircle
 10
101.81913
 20
157.00861
 30
0.0
 40
61.5
100
AcDbArc
 50
221.67347
 51
318.32652
  0
ARC
  5
364
330
20
100
AcDbEntity
  8
0
100
AcDbCircle
 10
73.06170999999998
 20
131.41055
 30
0.0
 40
23.0
100
AcDbArc
 50
90.0
 51
221.67347
  0
ARC
  5
365
330
20
100
AcDbEntity
  8
0
100
AcDbCircle
 10
130.57655
 20
131.41055
 30
0.0
 40
23.0
100
AcDbArc
 50
318.32652
 51
90.0
  0
LINE
  5
366
330
20
100
AcDbEntity
  8
0
100
AcDbLine
 10
144.43575
 20
144.00861
 30
0.0
 11
59.20251000000002
 21
144.00861
 31
0.0
  0
LINE
  5
367
330
20
100
AcDbEntity
  8
0
100
AcDbLine
 10
53.07490000000001
 20
137.50861
 30
0.0
 11
150.56336
 21
137.50861
 31
0.0
  0
LINE
  5
368
330
20
100
AcDbEntity
  8
0
100
AcDbLine
 10
140.98544
 20
130.50861
 30
0.0
 11
62.65282000000002
 21
130.50861
 31
0.0
  0
LINE
  5
369
330
20
100
AcDbEntity
  8
0
100
AcDbLine
 10
60.98716000000002
 20
124.00861
 30
0.0
 11
142.6511
 21
124.00861
 31
0.0
  0
LINE
  5
36A
330
20
100
AcDbEntity
  8
0
100
AcDbLine
 10
143.97515
 20
141.00861
 30
0.0
 11
59.66311999999999
 21
141.00861
 31
0.0
  0
LINE
  5
36B
330
20
100
AcDbEntity
  8
0
100
AcDbLine
 10
64.05672000000009
 20
127.50861
 30
0.0
 11
139.58155
 21
127.50861
 31
0.0
  0
LINE
  5
36C
330
20
100
AcDbEntity
  8
0
100
AcDbLine
 10
75.03761000000003
 20
114.00861
 30
0.0
 11
128.60065
 21
114.00861
 31
0.0
  0
ARC
  5
36D
330
20
100
AcDbEntity
  8
0
100
AcDbCircle
 10
143.97515
 20
151.00861
 30
0.0
 40
10.0
100
AcDbArc
 50
270.0
 51
305.93645
  0
LINE
  5
36E
330
20
100
AcDbEntity
  8
0
100
AcDbLine
 10
71.71513999999993
 20
117.00861
 30
0.0
 11
131.9231200000001
 21
117.00861
 31
0.0
  0
ARC
  5
36F
330
20
100
AcDbEntity
  8
0
100
AcDbCircle
 10
101.81913
 20
157.00861
 30
0.0
 40
52.5
100
AcDbArc
 50
201.80374
 51
207.31121
  0
ARC
  5
370
330
20
100
AcDbEntity
  8
0
100
AcDbCircle
 10
101.81913
 20
157.00861
 30
0.0
 40
52.5
100
AcDbArc
 50
332.68878
 51
338.19625
  0
ARC
  5
371
330
20
100
AcDbEntity
  8
0
100
AcDbCircle
 10
101.81913
 20
157.00861
 30
0.0
 40
52.5
100
AcDbArc
 50
309.06144
 51
321.05519
  0
ARC
  5
372
330
20
100
AcDbEntity
  8
0
100
AcDbCircle
 10
101.81913
 20
157.00861
 30
0.0
 40
52.5
100
AcDbArc
 50
218.9448
 51
230.93855
  0
ARC
  5
373
330
20
100
AcDbEntity
  8
0
100
AcDbCircle
 10
144.43575
 20
154.00861
 30
0.0
 40
10.0
100
AcDbArc
 50
270.0
 51
294.345
  0
ARC
  5
374
330
20
100
AcDbEntity
  8
0
100
AcDbCircle
 10
139.58155
 20
137.50861
 30
0.0
 40
10.0
100
AcDbArc
 50
270.0
 51
332.68878
  0
ARC
  5
375
330
20
100
AcDbEntity
  8
0
100
AcDbCircle
 10
64.05672000000009
 20
137.50861
 30
0.0
 40
10.0
100
AcDbArc
 50
207.31121
 51
270.0
  0
ARC
  5
376
330
20
100
AcDbEntity
  8
0
100
AcDbCircle
 10
128.60065
 20
124.00861
 30
0.0
 40
10.0
100
AcDbArc
 50
270.0
 51
309.06144
  0
ARC
  5
377
330
20
100
AcDbEntity
  8
0
100
AcDbCircle
 10
75.03761000000003
 20
124.00861
 30
0.0
 40
10.0
100
AcDbArc
 50
230.93855
 51
270.0
  0
ARC
  5
378
330
20
100
AcDbEntity
  8
0
100
AcDbCircle
 10
140.98544
 20
140.50861
 30
0.0
 40
10.0
100
AcDbArc
 50
270.0
 51
337.15526
  0
ARC
  5
379
330
20
100
AcDbEntity
  8
0
100
AcDbCircle
 10
62.65282000000002
 20
140.50861
 30
0.0
 40
10.0
100
AcDbArc
 50
202.84473
 51
270.0
  0
ARC
  5
37A
330
20
100
AcDbEntity
  8
0
100
AcDbCircle
 10
71.71513999999993
 20
127.00861
 30
0.0
 40
10.0
100
AcDbArc
 50
224.90087
 51
270.0
  0
ARC
  5
37B
330
20
100
AcDbEntity
  8
0
100
AcDbCircle
 10
131.9231200000001
 20
127.00861
 30
0.0
 40
10.0
100
AcDbArc
 50
270.0
 51
315.09912
  0
LINE
  5
37C
330
20
100
AcDbEntity
  8
0
100
AcDbLine
 10
85.88959999999998
 20
108.00861
 30
0.0
 11
117.74866
 21
108.00861
 31
0.0
  0
ARC
  5
37D
330
20
100
AcDbEntity
  8
0
100
AcDbCircle
 10
101.81913
 20
157.00861
 30
0.0
 40
52.5
100
AcDbArc
 50
252.16137
 51
287.83862
  0
LINE
  5
37E
330
20
100
AcDbEntity
  8
0
100
AcDbLine
 10
144.43575
 20
143.65861
 30
0.0
 11
59.20251000000002
 21
143.65861
 31
0.0
  0
LINE
  5
37F
330
20
100
AcDbEntity
  8
0
100
AcDbLine
 10
140.98544
 20
130.15861
 30
0.0
 11
62.65282000000002
 21
130.15861
 31
0.0
  0
LINE
  5
380
330
20
100
AcDbEntity
  8
0
100
AcDbLine
 10
71.71513999999993
 20
116.65861
 30
0.0
 11
131.9231200000001
 21
116.65861
 31
0.0
  0
ARC
  5
381
330
20
100
AcDbEntity
  8
0
100
AcDbCircle
 10
144.43575
 20
154.00861
 30
0.0
 40
10.35
100
AcDbArc
 50
270.0
 51
294.72434
  0
ARC
  5
382
330
20
100
AcDbEntity
  8
0
100
AcDbCircle
 10
140.98544
 20
140.50861
 30
0.0
 40
10.35
100
AcDbArc
 50
270.0
 51
320.50818
  0
ARC
  5
383
330
20
100
AcDbEntity
  8
0
100
AcDbCircle
 10
62.65282000000002
 20
140.50861
 30
0.0
 40
10.35
100
AcDbArc
 50
220.37919
 51
270.0
  0
ARC
  5
384
330
20
100
AcDbEntity
  8
0
100
AcDbCircle
 10
71.71513999999993
 20
127.00861
 30
0.0
 40
10.35
100
AcDbArc
 50
241.54794
 51
270.0
  0
ARC
  5
385
330
20
100
AcDbEntity
  8
0
100
AcDbCircle
 10
131.9231200000001
 20
127.00861
 30
0.0
 40
10.35
100
AcDbArc
 50
270.0
 51
298.45205
  0
ARC
  5
386
330
20
100
AcDbEntity
  8
0
100
AcDbCircle
 10
85.88959999999998
 20
107.50861
 30
0.0
 40
0.5
100
AcDbArc
 50
90.0
 51
252.16137
  0
ARC
  5
387
330
20
100
AcDbEntity
  8
0
100
AcDbCircle
 10
117.74866
 20
107.50861
 30
0.0
 40
0.5
100
AcDbArc
 50
287.83862
 51
90.0
  0
LINE
  5
388
330
20
100
AcDbEntity
  8
0
100
AcDbLine
 10
61.66411
 20
151.00861
 30
0.0
 11
141.97415
 21
151.00861
 31
0.0
  0
ARC
  5
389
330
20
100
AcDbEntity
  8
0
100
AcDbCircle
 10
59.66311999999999
 20
151.00861
 30
0.0
 40
10.0
100
AcDbArc
 50
234.06354
 51
270.0
  0
ARC
  5
38A
330
20
100
AcDbEntity
  8
0
100
AcDbCircle
 10
59.20251000000002
 20
154.00861
 30
0.0
 40
10.35
100
AcDbArc
 50
245.27565
 51
270.0
  0
ARC
  5
38B
330
20
100
AcDbEntity
  8
0
100
AcDbCircle
 10
59.20251000000002
 20
154.00861
 30
0.0
 40
10.0
100
AcDbArc
 50
245.65499
 51
270.0
  0
ARC
  5
38C
330
20
100
AcDbEntity
  8
0
100
AcDbCircle
 10
101.81913
 20
157.00861
 30
0.0
 40
48.0
100
AcDbArc
 50
195.30961
 51
198.767
  0
ARC
  5
38D
330
20
100
AcDbEntity
  8
0
100
AcDbCircle
 10
101.81913
 20
157.00861
 30
0.0
 40
48.0
100
AcDbArc
 50
213.98453
 51
217.92085
  0
ARC
  5
38E
330
20
100
AcDbEntity
  8
0
100
AcDbCircle
 10
101.81913
 20
157.00861
 30
0.0
 40
48.0
100
AcDbArc
 50
237.20617
 51
243.6156700000001
  0
ARC
  5
38F
330
20
100
AcDbEntity
  8
0
100
AcDbCircle
 10
101.81913
 20
157.00861
 30
0.0
 40
48.0
100
AcDbArc
 50
296.38433
 51
302.79382
  0
ARC
  5
390
330
20
100
AcDbEntity
  8
0
100
AcDbCircle
 10
101.81913
 20
157.00861
 30
0.0
 40
48.0
100
AcDbArc
 50
322.07915
 51
326.01546
  0
ARC
  5
391
330
20
100
AcDbEntity
  8
0
100
AcDbCircle
 10
101.81913
 20
157.00861
 30
0.0
 40
48.0
100
AcDbArc
 50
341.23299
 51
344.69038
  0
ARC
  5
392
330
20
100
AcDbEntity
  8
0
100
AcDbCircle
 10
101.81913
 20
157.00861
 30
0.0
 40
61.0
100
AcDbArc
 50
221.67347
 51
318.32652
  0
ARC
  5
393
330
20
100
AcDbEntity
  8
0
100
AcDbCircle
 10
73.71742000000002
 20
131.4199
 30
0.0
 40
23.0
100
AcDbArc
 50
91.63368400000001
 51
220.60474
  0
ARC
  5
394
330
20
100
AcDbEntity
  8
0
100
AcDbCircle
 10
129.92084
 20
131.4199
 30
0.0
 40
23.0
100
AcDbArc
 50
319.39525
 51
88.366316
  0
TEXT
  5
395
330
20
100
AcDbEntity
  8
moji
100
AcDbText
 10
279.2202385929008
 20
16.99635198070768
 30
0.0
 40
4.5
  1
T,K
 41
0.75
100
AcDbText
  0
TEXT
  5
396
330
20
100
AcDbEntity
  8
moji
100
AcDbText
 10
265.3464636480826
 20
16.99635198070768
 30
0.0
 40
4.5
  1
I,H
 41
0.75
100
AcDbText
  0
TEXT
  5
397
330
20
100
AcDbEntity
  8
moji
100
AcDbText
 10
250.1780628251941
 20
16.99635198070768
 30
0.0
 40
4.5
  1
I,H
 41
0.75
100
AcDbText
  0
LINE
  5
398
330
20
100
AcDbEntity
  8
hyou
  6
Continuous
100
AcDbLine
 10
5.0
 20
29.0
 30
0.0
 11
75.0
 21
21.0
 31
0.0
  0
TEXT
  5
399
330
20
100
AcDbEntity
  8
moji
100
AcDbText
 10
249.0
 20
40.55391118792853
 30
0.0
 40
2.5
  1
6
 41
1.199999999999999
100
AcDbText
  0
TEXT
  5
39A
330
20
100
AcDbEntity
  8
moji
100
AcDbText
 10
257.2549472290652
 20
40.55391118792853
 30
0.0
 40
2.5
  1
温度ヒューズ 72℃
 41
0.7241380000000001
100
AcDbText
  0
TEXT
  5
39B
330
20
100
AcDbEntity
  8
moji
100
AcDbText
 10
375.0692693942932
 20
40.55391118792853
 30
0.0
 40
2.5
  1
1
 41
1.199999999999999
100
AcDbText
  0
TEXT
  5
39E
330
20
100
AcDbEntity
  8
Dim
  6
Continuous
100
AcDbText
 10
321.1137212345763
 20
234.9998715952636
 30
0.0
 40
5.0
  1
3
 41
1.125
100
AcDbText
  0
CIRCLE
  5
3A2
330
20
100
AcDbEntity
  8
Dim
  6
Continuous
100
AcDbCircle
 10
323.27491
 20
238.19733
 30
0.0
 40
5.0
  0
TEXT
  5
3A3
330
20
100
AcDbEntity
  8
Dim
  6
Continuous
100
AcDbText
 10
338.6037418245579
 20
234.414434296432
 30
0.0
 40
5.0
  1
5
 41
1.125
100
AcDbText
  0
CIRCLE
  5
3A7
330
20
100
AcDbEntity
  8
Dim
  6
Continuous
100
AcDbCircle
 10
341.02417
 20
237.77077
 30
0.0
 40
5.0
  0
TEXT
  5
3A8
330
20
100
AcDbEntity
  8
Dim
  6
Continuous
100
AcDbText
 10
347.0168976770676
 20
84.56977698093821
 30
0.0
 40
5.0
  1
4
 41
1.125
100
AcDbText
  0
CIRCLE
  5
3AC
330
20
100
AcDbEntity
  8
Dim
  6
Continuous
100
AcDbCircle
 10
349.8535799999999
 20
87.50865000000002
 30
0.0
 40
5.0
  0
TEXT
  5
3AD
330
20
100
AcDbEntity
  8
moji
100
AcDbText
 10
263.7670677970328
 20
30.08738264247952
 30
0.0
 40
2.5
  1
平成　　年　　月　 　日
 41
0.7
100
AcDbText
  0
TEXT
  5
3AE
330
20
100
AcDbEntity
  8
moji
100
AcDbText
 10
333.8780942305725
 20
65.43812422067991
 30
0.0
 40
2.5
  1
ヘアーライン（カラータイプは、無し）
 41
0.4200000000000001
100
AcDbText
  0
TEXT
  5
3AF
330
20
100
AcDbEntity
  8
moji
100
AcDbText
 10
296.03983
 20
65.55390118792852
 30
0.0
 40
2.5
  1
SUS 304 2B 0.5t
 41
0.8
100
AcDbText
  0
TEXT
  5
3B0
330
20
100
AcDbEntity
  8
moji
100
AcDbText
 10
296.03983
 20
60.55391118792853
 30
0.0
 40
2.5
  1
SUS 304 BA 0.5t
 41
0.8
100
AcDbText
  0
TEXT
  5
3B1
330
20
100
AcDbEntity
  8
moji
100
AcDbText
 10
296.03983
 20
55.55391118792853
 30
0.0
 40
2.5
  1
SUS 304 2B 0.5t
 41
0.8
100
AcDbText
  0
TEXT
  5
3B2
330
20
100
AcDbEntity
  8
moji
100
AcDbText
 10
296.03983
 20
50.55391118792853
 30
0.0
 40
2.5
  1
SUS 304 φ0.23-16M
 41
0.8
100
AcDbText
  0
TEXT
  5
3B3
330
20
100
AcDbEntity
  8
moji
100
AcDbText
 10
296.03983
 20
45.55391118792853
 30
0.0
 40
2.5
  1
SUS 304 2B 1.5t
 41
0.8
100
AcDbText
  0
TEXT
  5
3B4
330
20
100
AcDbEntity
  8
moji
100
AcDbText
 10
296.03983
 20
40.55391118792853
 30
0.0
 40
2.5
  1
C1100P 0.4t
 41
0.8
100
AcDbText
  0
LINE
  5
3B5
330
20
100
AcDbEntity
  8
hyou
  6
Continuous
100
AcDbLine
 10
245.9999999999998
 20
45.0
 30
0.0
 11
406.0
 21
45.0
 31
0.0
  0
TEXT
  5
3B6
330
20
100
AcDbEntity
  8
moji
100
AcDbText
 10
380.78738
 20
40.67943022120283
 30
0.0
 40
2.5
  1
DK24FC-04Sは、120℃
 41
0.625
100
AcDbText
  0
TEXT
  5
3B7
330
20
100
AcDbEntity
  8
moji
100
AcDbText
 10
246.4791846148337
 20
1.995440000000002
 30
0.0
 40
3.5
  1
度
 41
1.199999999999999
100
AcDbText
  0
TEXT
  5
3B8
330
20
100
AcDbEntity
  8
moji
100
AcDbText
 10
246.7103546148337
 20
8.006100000000001
 30
0.0
 40
3.5
  1
尺
 41
1.199999999999999
100
AcDbText
  0
TEXT
  5
3B9
330
20
100
AcDbEntity
  8
moji
100
AcDbText
 10
6.495279999999977
 20
15.12390100128382
 30
0.0
 40
3.0
  1
VC100MVL(A)P-FD , DK24FC-07S
 41
0.6666666000000001
100
AcDbText
  0
TEXT
  5
3BA
330
20
100
AcDbEntity
  8
moji
100
AcDbText
 10
6.495279999999977
 20
6.946571456698109
 30
0.0
 40
3.0
  1
VC150MVL(A)P-FD , DK24FC-04S
 41
0.6666666000000001
100
AcDbText
  0
LINE
  5
3DB
330
20
100
AcDbEntity
  8
0
  6
CENTER2
100
AcDbLine
 10
101.81913
 20
59.64098
 30
0.0
 11
101.81913
 21
269.99608
 31
0.0
  0
LINE
  5
3E1
330
20
100
AcDbEntity
  8
hyou
  6
Continuous
100
AcDbLine
 10
194.9999999999998
 20
4.999999999999912
 30
0.0
 11
235.0
 21
21.0
 31
0.0
  0
TEXT
  5
3E2
330
20
100
AcDbEntity
  8
moji
100
AcDbText
 10
223.6655879487187
 20
6.835791456698102
 30
0.0
 40
3.0
  1
3ヶ
100
AcDbText
  0
TEXT
  5
3E3
330
20
100
AcDbEntity
  8
moji
100
AcDbText
 10
202.0997560923948
 20
15.01312100128382
 30
0.0
 40
3.0
  1
2ヶ
100
AcDbText
  0
TEXT
  5
3E4
330
20
100
AcDbEntity
  8
moji
100
AcDbText
 10
315.1110599999999
 20
30.12244884479094
 30
0.0
 40
2.5
  1
丸型換気口(防火ダンパー付)
 41
0.6666666000000001
100
AcDbText
  0
TEXT
  5
3E5
330
20
100
AcDbEntity
  8
moji
100
AcDbText
 10
310.30704
 20
2.149560000000008
 30
0.0
 40
10.0
  1
マックス株式会社
 41
0.830769
100
AcDbText
  0
TEXT
  5
3E6
330
20
100
AcDbEntity
  8
moji
100
AcDbText
 10
315.1110599999999
 20
16.48287884479092
 30
0.0
 40
2.5
  1
DK24FC-07S , DK24FC-04S
 41
0.9
100
AcDbText
  0
TEXT
  5
3E7
330
20
100
AcDbEntity
  8
moji
100
AcDbText
 10
315.1110599999999
 20
23.10437884479092
 30
0.0
 40
2.5
  1
VC100MVL(A)P-FD,VC150MVL(A)P-FD
 41
0.9166665999999999
100
AcDbText
  0
TEXT
  5
424
330
20
100
AcDbEntity
  8
Dim
  6
Continuous
100
AcDbText
 10
209.9519147228967
 20
241.5545743505435
 30
0.0
 40
5.0
  1
1
 41
1.125
100
AcDbText
  0
CIRCLE
  5
428
330
20
100
AcDbEntity
  8
Dim
  6
Continuous
100
AcDbCircle
 10
210.9217400000001
 20
244.82406
 30
0.0
 40
5.0
  0
TEXT
  5
429
330
20
100
AcDbEntity
  8
Dim
  6
Continuous
100
AcDbText
 10
244.6433881077553
 20
91.88404317931611
 30
0.0
 40
5.0
  1
2
 41
1.125
100
AcDbText
  0
CIRCLE
  5
42D
330
20
100
AcDbEntity
  8
Dim
  6
Continuous
100
AcDbCircle
 10
246.9161777193316
 20
94.79372799999998
 30
0.0
 40
5.0
  0
LINE
  5
444
330
20
100
AcDbEntity
  8
0
100
AcDbLine
 10
297.44607
 20
217.46186
 30
0.0
 11
297.5997199999998
 21
217.55057
 31
0.0
  0
LINE
  5
4B0
330
20
100
AcDbEntity
  8
0
100
AcDbLine
 10
347.9460699999998
 20
200.53754
 30
0.0
 11
347.9961799999998
 21
200.50861
 31
0.0
  0
CIRCLE
  5
537
330
20
100
AcDbEntity
  8
Dim
  6
Continuous
100
AcDbCircle
 10
387.82992
 20
137.4469100000001
 30
0.0
 40
5.0
  0
TEXT
  5
538
330
20
100
AcDbEntity
  8
Dim
  6
Continuous
100
AcDbText
 10
385.4395398769788
 20
134.55804602982
 30
0.0
 40
5.0
  1
6
 41
1.125
100
AcDbText
  0
CIRCLE
  5
53C
330
20
100
AcDbEntity
  8
Dim
  6
Continuous
100
AcDbCircle
 10
387.82992
 20
137.4469100000001
 30
0.0
 40
5.0
  0
DIMENSION
  5
53F
330
20
100
AcDbEntity
  8
Dim
  6
Continuous
100
AcDbDimension
  2
*D0
 10
304.4460699999998
 20
261.88777
 30
0.0
 11
266.9475599999998
 21
265.8877700000001
 31
0.0
 70
    32
  1
Ｃ
 71
     5
 42
74.99702000000002
  3
1-1
100
AcDbAlignedDimension
 13
229.4490499999998
 23
154.91055
 33
0.0
 14
304.4460699999998
 24
205.76597
 34
0.0
100
AcDbRotatedDimension
  0
DIMENSION
  5
59F
330
20
100
AcDbEntity
  8
Dim
  6
Continuous
100
AcDbDimension
  2
*D2
 10
357.4460699999999
 20
261.88777
 30
0.0
 11
330.9460699999999
 21
265.8877700000001
 31
0.0
 70
    32
  1
Ｄ
 71
     5
 42
53.00000000000011
  3
1-1
100
AcDbAlignedDimension
 13
304.4460699999998
 23
205.76597
 33
0.0
 14
357.4460699999999
 24
163.60861
 34
0.0
100
AcDbRotatedDimension
1001
ACAD
1000
DSTYLE
1002
{
1070
   279
1070
     1
1002
}
  0
DIMENSION
  5
5C8
330
20
100
AcDbEntity
  8
Dim
  6
Continuous
100
AcDbDimension
  2
*D3
 10
349.44607
 20
250.59237
 30
0.0
 11
326.9460699999999
 21
254.59237
 31
0.0
 70
    32
  1
Ｅ
 71
     5
 42
45.0000000000001
  3
1-1
100
AcDbAlignedDimension
 13
304.4460699999998
 23
205.76597
 33
0.0
 14
349.44607
 24
203.0086100000001
 34
0.0
100
AcDbRotatedDimension
  0
DIMENSION
  5
5D5
330
20
100
AcDbEntity
  8
Dim
  6
Continuous
100
AcDbDimension
  2
*D4
 10
374.8632599999999
 20
108.50861
 30
0.0
 11
370.8632599999999
 21
157.0086100000001
 31
0.0
 70
    32
  1
φＢ
 71
     5
 42
97.00000000000002
  3
1-1
100
AcDbAlignedDimension
 13
348.8322500000001
 23
205.50861
 33
0.0
 14
348.8322500000001
 24
108.50861
 34
0.0
 50
90.0
100
AcDbRotatedDimension
  0
DIMENSION
  5
5E3
330
20
100
AcDbEntity
  8
Dim
  6
Continuous
100
AcDbDimension
  2
*D5
 10
207.99494
 20
82.00861000000006
 30
0.0
 11
203.99494
 21
157.0086100000001
 31
0.0
 70
    32
  1
φＡ
 71
     5
 42
150.0
  3
1-1
100
AcDbAlignedDimension
 13
303.94607
 23
232.0086100000001
 33
0.0
 14
303.94607
 24
82.00861000000003
 34
0.0
 50
90.0
100
AcDbRotatedDimension
  0
LWPOLYLINE
  5
677
102
{ACAD_REACTORS
330
67B
102
}
330
20
100
AcDbEntity
  8
Defpoints
  6
Continuous
100
AcDbPolyline
 90
        8
 70
     1
 43
0.0
 10
304.4460699999998
 20
232.0086100000001
 10
304.4460699999998
 20
230.49827
 10
297.44607
 20
229.67474
 10
297.44607
 20
229.1856
 10
295.9460699999998
 20
229.1856
 10
295.9460699999998
 20
229.67474
 42
-0.3803161402325334
 10
297.2708099999999
 20
231.16446
 10
304.4460699999998
 20
232.0086100000001
  0
HATCH
  5
67B
330
20
100
AcDbEntity
  8
Hach
  6
Continuous
100
AcDbHatch
 10
0.0
 20
0.0
 30
0.0
210
0.0
220
0.0
230
1.0
  2
ANSI31
 70
     0
 71
     1
 91
        1
 92
        1
 93
        7
 72
     1
 10
304.4460699999998
 20
232.0086100000001
 11
304.4460699999998
 21
230.49827
 72
     1
 10
304.4460699999998
 20
230.49827
 11
297.44607
 21
229.67474
 72
     1
 10
297.44607
 20
229.67474
 11
297.44607
 21
229.1856
 72
     1
 10
297.44607
 20
229.1856
 11
295.9460699999998
 21
229.1856
 72
     1
 10
295.9460699999998
 20
229.1856
 11
295.9460699999998
 21
229.67474
 72
     2
 10
297.4460631103461
 20
229.67474
 40
1.49999311034628
 50
180.0000000000011
 51
263.2904691865817
 73
     0
 72
     1
 10
297.2708099999999
 20
231.16446
 11
304.4460699999998
 21
232.0086100000001
 97
        1
330
677
 75
     0
 76
     1
 52
0.0
 41
5.0
 77
     0
 78
     1
 53
45.0
 43
-213.5
 44
-149.2
 45
-0.4419417382415923
 46
0.4419417382415923
 79
     0
 98
        1
 10
-213.5
 20
-149.2
  0
LWPOLYLINE
  5
67D
330
20
100
AcDbEntity
  8
Defpoints
  6
Continuous
100
AcDbPolyline
 90
        4
 70
     1
 43
0.0
 10
297.44607
 20
229.65974
 10
298.9460699999998
 20
229.65974
 10
298.9460699999998
 20
229.1856
 10
297.44607
 20
229.1856
  0
LWPOLYLINE
  5
67E
102
{ACAD_REACTORS
330
69C
102
}
330
20
100
AcDbEntity
  8
Defpoints
  6
Continuous
100
AcDbPolyline
 90
       20
 70
     1
 43
0.0
 10
297.44607
 20
225.40861
 10
298.9460699999998
 20
225.40861
 10
298.9460699999998
 20
220.50861
 42
0.3659773730899953
 10
300.1960699542284
 20
219.0295900619619
 42
-0.3659773760398841
 10
301.4460699999998
 20
217.55057
 10
301.4460699999998
 20
210.00861
 42
0.4142135623730951
 10
305.9460699999998
 20
205.50861
 10
326.1960699999999
 20
205.50861
 10
346.4460699999999
 20
205.50861
 42
-0.4142135623730952
 10
349.44607
 20
202.50861
 10
349.44607
 20
200.50861
 10
347.9460699999998
 20
200.50861
 10
347.9460699999998
 20
202.50861
 42
0.4142135623730951
 10
346.4460699999999
 20
204.00861
 10
317.9460699999999
 20
204.00861
 10
305.9460699999998
 20
204.00861
 42
-0.4142135623730959
 10
299.9460699999998
 20
210.00861
 10
299.9460699999998
 20
217.55057
 42
-0.3659773559609922
 10
297.4460699999998
 20
220.50861
 10
297.44607
 20
225.40861
  0
LWPOLYLINE
  5
680
102
{ACAD_REACTORS
330
69E
102
}
330
20
100
AcDbEntity
  8
Defpoints
  6
Continuous
100
AcDbPolyline
 90
       11
 70
     1
 43
0.0
 10
315.7239099999998
 20
209.54671
 10
317.3061499999999
 20
209.2677200000002
 42
-0.3284990252557559
 10
330.3406456028462
 20
206.70861
 10
341.44607
 20
206.70861
 10
341.44607
 20
205.50861
 10
329.4460699999998
 20
205.50861
 42
-0.2097935262773531
 10
329.1516734300808
 20
205.637822040411
 42
0.3384209157962165
 10
317.6691862779886
 20
207.6624951575157
 42
-0.1646269046890312
 10
317.41569
 20
207.62372
 10
315.4460699999999
 20
207.97102
 10
315.7239099999998
 20
209.54671
  0
LWPOLYLINE
  5
681
102
{ACAD_REACTORS
330
6A2
102
}
330
20
100
AcDbEntity
  8
Defpoints
  6
Continuous
100
AcDbPolyline
 90
       11
 70
     1
 43
0.0
 10
305.9460699999998
 20
199.70861
 10
304.4460699999998
 20
199.70861
 10
304.4460699999998
 20
202.00861
 42
-0.4142135623730959
 10
306.4460699999998
 20
204.00861
 10
314.71054
 20
204.00861
 42
-0.198912367379663
 10
315.7712001717798
 20
203.5692701717799
 10
317.8108499999999
 20
201.52962
 42
0.0140995127817368
 10
315.2889299999998
 20
201.93022
 10
314.71054
 20
202.50861
 10
305.9460699999998
 20
202.50861
 10
305.9460699999998
 20
199.70861
  0
LWPOLYLINE
  5
683
102
{ACAD_REACTORS
330
6A0
102
}
330
20
100
AcDbEntity
  8
Defpoints
  6
Continuous
100
AcDbPolyline
 90
        8
 70
     1
 43
0.0
 10
322.06672
 20
200.51504
 10
325.1209499999999
 20
203.56927
 42
-0.1989122657632715
 10
326.1816099999998
 20
204.00861
 10
329.4460699999998
 20
204.00861
 10
329.4460699999998
 20
202.50861
 10
326.1816099999998
 20
202.50861
 10
323.6854499999998
 20
200.01245
 42
0.0093519275196018
 10
322.06672
 20
200.51504
  0
LWPOLYLINE
  5
684
102
{ACAD_REACTORS
330
6A4
102
}
330
20
100
AcDbEntity
  8
Defpoints
  6
Continuous
100
AcDbPolyline
 90
        8
 70
     1
 43
0.0
 10
298.9460699999998
 20
217.55057
 10
297.44607
 20
217.55057
 10
297.44607
 20
205.0086100000001
 10
290.44607
 20
198.00861
 10
291.50673
 20
196.94795
 10
298.5067299999998
 20
203.94795
 42
0.1989122657632747
 10
298.9460699999998
 20
205.0086100000001
 10
298.9460699999998
 20
217.55057
  0
LWPOLYLINE
  5
685
102
{ACAD_REACTORS
330
6A6
102
}
330
20
100
AcDbEntity
  8
Defpoints
  6
Continuous
100
AcDbPolyline
 90
        8
 70
     1
 43
0.0
 10
298.9460699999998
 20
195.00861
 10
297.44607
 20
195.00861
 10
297.44607
 20
191.50861
 10
290.44607
 20
184.50861
 10
291.50673
 20
183.44795
 10
298.5067299999998
 20
190.44795
 42
0.1989122657632747
 10
298.9460699999998
 20
191.50861
 10
298.9460699999998
 20
195.00861
  0
LWPOLYLINE
  5
686
102
{ACAD_REACTORS
330
6A8
102
}
330
20
100
AcDbEntity
  8
Defpoints
  6
Continuous
100
AcDbPolyline
 90
        8
 70
     1
 43
0.0
 10
298.9460699999998
 20
181.50861
 10
297.4460699999998
 20
181.50861
 10
297.4460699999998
 20
178.00861
 10
290.4460699999999
 20
171.00861
 10
291.5067299999998
 20
169.94795
 10
298.5067299999998
 20
176.94795
 42
0.1989122657632747
 10
298.9460699999998
 20
178.00861
 10
298.9460699999998
 20
181.50861
  0
LWPOLYLINE
  5
687
102
{ACAD_REACTORS
330
6AA
102
}
330
20
100
AcDbEntity
  8
Defpoints
  6
Continuous
100
AcDbPolyline
 90
        8
 70
     1
 43
0.0
 10
298.9460699999998
 20
168.00861
 10
297.4460699999998
 20
168.00861
 10
297.4460699999998
 20
164.50861
 10
290.4460699999999
 20
157.50861
 10
291.5067299999998
 20
156.44795
 10
298.5067299999998
 20
163.44795
 42
0.1989122657632747
 10
298.9460699999998
 20
164.50861
 10
298.9460699999998
 20
168.00861
  0
LWPOLYLINE
  5
688
102
{ACAD_REACTORS
330
6AC
102
}
330
20
100
AcDbEntity
  8
Defpoints
  6
Continuous
100
AcDbPolyline
 90
        8
 70
     1
 43
0.0
 10
298.9460699999998
 20
154.50861
 10
297.4460699999998
 20
154.50861
 10
297.4460699999998
 20
151.00861
 10
290.4460699999999
 20
144.00861
 10
291.5067299999998
 20
142.94795
 10
298.5067299999998
 20
149.94795
 42
0.1989122657632747
 10
298.9460699999998
 20
151.00861
 10
298.9460699999998
 20
154.50861
  0
LWPOLYLINE
  5
689
102
{ACAD_REACTORS
330
6AE
102
}
330
20
100
AcDbEntity
  8
Defpoints
  6
Continuous
100
AcDbPolyline
 90
        8
 70
     1
 43
0.0
 10
298.9460699999998
 20
141.00861
 10
297.4460699999998
 20
141.00861
 10
297.4460699999998
 20
137.50861
 10
290.4460699999999
 20
130.50861
 10
291.5067299999998
 20
129.44795
 10
298.5067299999998
 20
136.44795
 42
0.1989122657632747
 10
298.9460699999998
 20
137.50861
 10
298.9460699999998
 20
141.00861
  0
LWPOLYLINE
  5
68A
102
{ACAD_REACTORS
330
6B0
102
}
330
20
100
AcDbEntity
  8
Defpoints
  6
Continuous
100
AcDbPolyline
 90
        8
 70
     1
 43
0.0
 10
298.9460699999998
 20
127.50861
 10
297.4460699999998
 20
127.50861
 10
297.4460699999998
 20
124.00861
 10
290.4460699999999
 20
117.00861
 10
291.5067299999998
 20
115.94795
 10
298.5067299999998
 20
122.94795
 42
0.1989122657632747
 10
298.9460699999998
 20
124.00861
 10
298.9460699999998
 20
127.50861
  0
LWPOLYLINE
  5
68B
102
{ACAD_REACTORS
330
6B2
102
}
330
20
100
AcDbEntity
  8
Defpoints
  6
Continuous
100
AcDbPolyline
 90
        4
 70
     1
 43
0.0
 10
297.44607
 20
114.00861
 10
298.9460699999998
 20
114.00861
 10
298.9460699999998
 20
108.00861
 10
297.44607
 20
108.00861
  0
LWPOLYLINE
  5
68C
102
{ACAD_REACTORS
330
6B4
102
}
330
20
100
AcDbEntity
  8
Defpoints
  6
Continuous
100
AcDbPolyline
 90
        4
 70
     1
 43
0.0
 10
297.44607
 20
104.50861
 10
298.9460699999998
 20
104.50861
 10
298.9460699999998
 20
96.46665000000002
 10
297.44607
 20
96.46665000000002
  0
LWPOLYLINE
  5
68D
102
{ACAD_REACTORS
330
6BA
102
}
330
20
100
AcDbEntity
  8
Defpoints
  6
Continuous
100
AcDbPolyline
 90
       11
 70
     1
 43
0.0
 10
305.9460699999998
 20
114.30861
 10
304.4460699999998
 20
114.30861
 10
304.4460699999998
 20
112.00861
 42
0.4142135623730951
 10
306.4460699999998
 20
110.00861
 10
314.71054
 20
110.00861
 42
0.1989123673796628
 10
315.7712001717798
 20
110.4479498282202
 10
317.8108499999999
 20
112.4876
 42
-0.0140954638356402
 10
315.2889299999998
 20
112.087
 10
314.71054
 20
111.50861
 10
305.9460699999998
 20
111.50861
 10
305.9460699999998
 20
114.30861
  0
LWPOLYLINE
  5
68E
102
{ACAD_REACTORS
330
6BC
102
}
330
20
100
AcDbEntity
  8
Defpoints
  6
Continuous
100
AcDbPolyline
 90
        8
 70
     1
 43
0.0
 10
323.6854499999998
 20
114.00477
 10
326.1816099999998
 20
111.50861
 10
329.4460699999998
 20
111.50861
 10
329.4460699999998
 20
110.00861
 10
326.1816099999998
 20
110.00861
 42
-0.1989123673796631
 10
325.1209498282202
 20
110.4479498282202
 10
322.06672
 20
113.50218
 42
0.0093519275193139
 10
323.6854499999998
 20
114.00477
  0
LWPOLYLINE
  5
68F
102
{ACAD_REACTORS
330
6B8
102
}
330
20
100
AcDbEntity
  8
Defpoints
  6
Continuous
100
AcDbPolyline
 90
       18
 70
     1
 43
0.0
 10
347.9460699999998
 20
113.50861
 10
349.44607
 20
113.50861
 10
349.44607
 20
111.50861
 42
-0.4142135623730952
 10
346.4460699999999
 20
108.50861
 10
305.9460699999998
 20
108.50861
 42
0.4142135623730951
 10
301.4460699999998
 20
104.00861
 10
301.4460699999998
 20
96.46665000000002
 42
-0.3659774225674336
 10
300.1960697876336
 20
94.98763001832873
 42
0.3659775244722178
 10
298.9460699999998
 20
93.50861000000003
 10
298.9460699999998
 20
84.35749000000001
 10
297.44607
 20
84.35749000000001
 10
297.44607
 20
93.50861000000003
 42
-0.3659773829854854
 10
299.9460700117122
 20
96.46664989352956
 10
299.9460699999998
 20
103.84334
 42
-0.4062781165932928
 10
305.9460699999998
 20
110.00861
 10
346.4460699999999
 20
110.00861
 42
0.4142135623730951
 10
347.9460699999998
 20
111.50861
 10
347.9460699999998
 20
113.50861
  0
LWPOLYLINE
  5
690
102
{ACAD_REACTORS
330
6B6
102
}
330
20
100
AcDbEntity
  8
Defpoints
  6
Continuous
100
AcDbPolyline
 90
       12
 70
     1
 43
0.0
 10
288.84754
 20
96.50861000000004
 10
294.44607
 20
96.50861000000004
 42
-0.4142135623730952
 10
297.44607
 20
93.50861000000003
 10
297.44607
 20
84.34248999999999
 10
304.4460699999998
 20
83.51895711677221
 10
304.4460699999998
 20
82.00861000000003
 10
297.2708099999999
 20
82.85276000000001
 42
-0.3803148525938838
 10
295.9460699999998
 20
84.34248999999999
 10
295.9460699999998
 20
93.50861000000003
 42
0.4142135623730951
 10
294.44607
 20
95.00861000000003
 10
288.84754
 20
95.00861000000003
 10
288.84754
 20
96.50861000000004
  0
LWPOLYLINE
  5
691
102
{ACAD_REACTORS
330
69B
102
}
330
20
100
AcDbEntity
  8
Defpoints
  6
Continuous
100
AcDbPolyline
 90
       14
 70
     1
 43
0.0
 10
297.4460699999998
 20
225.40861
 10
297.4460699999998
 20
220.50861
 42
-0.4142135623730895
 10
294.44607
 20
217.5086100000001
 10
289.44607
 20
217.5086100000001
 42
0.4142135623730951
 10
230.94607
 20
159.00861
 10
230.94607
 20
154.41055
 10
229.4490499999998
 20
154.41055
 10
229.4490499999998
 20
159.6065992303362
 42
-0.1963233966665318
 10
247.0196631288072
 20
201.4350168711929
 42
-0.1989123673796567
 10
289.44607
 20
219.00861
 10
294.44607
 20
219.00861
 42
0.4142135623730951
 10
295.9460699999998
 20
220.50861
 10
295.9460699999998
 20
225.40861
 10
297.4460699999998
 20
225.40861
  0
HATCH
  5
69B
330
20
100
AcDbEntity
  8
Hach
  6
Continuous
100
AcDbHatch
 10
0.0
 20
0.0
 30
0.0
210
0.0
220
0.0
230
1.0
  2
ANSI31
 70
     0
 71
     1
 91
        1
 92
        1
 93
       13
 72
     1
 10
297.4460699999998
 20
225.40861
 11
297.4460699999998
 21
220.50861
 72
     2
 10
294.44607
 20
220.50861
 40
2.999999999999886
 50
359.9999999999988
 51
449.9999999999988
 73
     0
 72
     1
 10
294.44607
 20
217.5086100000001
 11
289.44607
 21
217.5086100000001
 72
     2
 10
289.44607
 20
159.00861
 40
58.5
 50
90.0
 51
180.0
 73
     1
 72
     1
 10
230.94607
 20
159.00861
 11
230.94607
 21
154.41055
 72
     1
 10
230.94607
 20
154.41055
 11
229.4490499999998
 21
154.41055
 72
     1
 10
229.4490499999998
 20
154.41055
 11
229.4490499999998
 21
159.6065992303362
 72
     2
 10
289.4460700000002
 20
159.0086099999997
 40
60.00000000000039
 50
180.571047105576
 51
225.0000000000001
 73
     0
 72
     2
 10
289.4460700000002
 20
159.0086099999996
 40
60.00000000000039
 50
225.0000000000001
 51
269.9999999999998
 73
     0
 72
     1
 10
289.44607
 20
219.00861
 11
294.44607
 21
219.00861
 72
     2
 10
294.44607
 20
220.5086099999999
 40
1.499999999999914
 50
270.0000000000021
 51
360.0000000000032
 73
     1
 72
     1
 10
295.9460699999998
 20
220.50861
 11
295.9460699999998
 21
225.40861
 72
     1
 10
295.9460699999998
 20
225.40861
 11
297.4460699999998
 21
225.40861
 97
        1
330
691
 75
     0
 76
     1
 52
0.0
 41
5.0
 77
     0
 78
     1
 53
45.0
 43
-213.5
 44
-149.2
 45
-0.4419417382415923
 46
0.4419417382415923
 79
     0
 98
        1
 10
-213.5
 20
-149.2
  0
HATCH
  5
69C
330
20
100
AcDbEntity
  8
Hach
  6
Continuous
100
AcDbHatch
 10
0.0
 20
0.0
 30
0.0
210
0.0
220
0.0
230
1.0
  2
ANSI31
 70
     0
 71
     1
 91
        1
 92
        1
 93
       19
 72
     1
 10
297.44607
 20
225.40861
 11
298.9460699999998
 21
225.40861
 72
     1
 10
298.9460699999998
 20
225.40861
 11
298.9460699999998
 21
220.50861
 72
     2
 10
300.4460699999999
 20
220.50861
 40
1.5
 50
180.0
 51
260.4059299999982
 73
     1
 72
     2
 10
299.9460698901483
 20
217.5505700156088
 40
1.500000109851501
 50
279.5940700000016
 51
360.0000005962091
 73
     0
 72
     1
 10
301.4460699999998
 20
217.55057
 11
301.4460699999998
 21
210.00861
 72
     2
 10
305.9460699999998
 20
210.00861
 40
4.5
 50
180.0
 51
270.0
 73
     1
 72
     1
 10
305.9460699999998
 20
205.50861
 11
326.1960699999999
 21
205.50861
 72
     1
 10
326.1960699999999
 20
205.50861
 11
346.4460699999999
 21
205.50861
 72
     2
 10
346.4460699999999
 20
202.50861
 40
3.000000000000055
 50
269.9999999999989
 51
359.9999999999988
 73
     0
 72
     1
 10
349.44607
 20
202.50861
 11
349.44607
 21
200.50861
 72
     1
 10
349.44607
 20
200.50861
 11
347.9460699999998
 21
200.50861
 72
     1
 10
347.9460699999998
 20
200.50861
 11
347.9460699999998
 21
202.50861
 72
     2
 10
346.4460699999999
 20
202.50861
 40
1.5
 50
0.0
 51
90.0
 73
     1
 72
     1
 10
346.4460699999999
 20
204.00861
 11
317.9460699999999
 21
204.00861
 72
     1
 10
317.9460699999999
 20
204.00861
 11
305.9460699999998
 21
204.00861
 72
     2
 10
305.9460699999998
 20
210.00861
 40
6.0
 50
90.0
 51
180.0
 73
     0
 72
     1
 10
299.9460699999998
 20
210.00861
 11
299.9460699999998
 21
217.55057
 72
     2
 10
300.4460702263258
 20
220.5086100828302
 40
3.000000226325916
 50
99.59407188004544
 51
179.9999984180612
 73
     0
 72
     1
 10
297.4460699999998
 20
220.50861
 11
297.44607
 21
225.40861
 97
        1
330
67E
 75
     0
 76
     1
 52
0.0
 41
5.0
 77
     0
 78
     1
 53
45.0
 43
-213.5
 44
-149.2
 45
-0.4419417382415923
 46
0.4419417382415923
 79
     0
 98
        1
 10
-213.5
 20
-149.2
  0
HATCH
  5
69E
330
20
100
AcDbEntity
  8
Hach
  6
Continuous
100
AcDbHatch
 10
0.0
 20
0.0
 30
0.0
210
0.0
220
0.0
230
1.0
  2
ANSI31
 70
     0
 71
     1
 91
        1
 92
        1
 93
       10
 72
     1
 10
315.7239099999998
 20
209.54671
 11
317.3061499999999
 21
209.2677200000002
 72
     2
 10
322.0859860092612
 20
199.1388828803313
 40
11.20000775322107
 50
244.7372006114624
 51
317.4784063475879
 73
     0
 72
     1
 10
330.3406456028462
 20
206.70861
 11
341.44607
 21
206.70861
 72
     1
 10
341.44607
 20
206.70861
 11
341.44607
 21
205.50861
 72
     1
 10
341.44607
 20
205.50861
 11
329.4460699999998
 21
205.50861
 72
     2
 10
329.4460699999998
 20
205.908592429805
 40
0.399982429804993
 50
90.0
 51
137.3937929935737
 73
     0
 72
     2
 10
322.0860510845058
 20
199.1392364273064
 40
9.599720522032791
 50
42.60620700643685
 51
117.3937849935624
 73
     1
 72
     2
 10
317.4851506127244
 20
208.017630227151
 40
0.3999875545240626
 50
62.60621500642645
 51
100.000509494335
 73
     0
 72
     1
 10
317.41569
 20
207.62372
 11
315.4460699999999
 21
207.97102
 72
     1
 10
315.4460699999999
 20
207.97102
 11
315.7239099999998
 21
209.54671
 97
        1
330
680
 75
     0
 76
     1
 52
90.0
 41
5.0
 77
     0
 78
     1
 53
135.0
 43
-213.5
 44
-149.2
 45
-0.4419417382415923
 46
-0.4419417382415923
 79
     0
 98
        1
 10
-213.5
 20
-149.2
  0
HATCH
  5
6A0
330
20
100
AcDbEntity
  8
Hach
  6
Continuous
100
AcDbHatch
 10
0.0
 20
0.0
 30
0.0
210
0.0
220
0.0
230
1.0
  2
ANSI31
 70
     0
 71
     1
 91
        1
 92
        1
 93
        7
 72
     1
 10
322.06672
 20
200.51504
 11
325.1209499999999
 21
203.56927
 72
     2
 10
326.1816105864931
 20
202.5086094135068
 40
1.500000586493381
 50
225.0
 51
269.9999775976154
 73
     0
 72
     1
 10
326.1816099999998
 20
204.00861
 11
329.4460699999998
 21
204.00861
 72
     1
 10
329.4460699999998
 20
204.00861
 11
329.4460699999998
 21
202.50861
 72
     1
 10
329.4460699999998
 20
202.50861
 11
326.1816099999998
 21
202.50861
 72
     1
 10
326.1816099999998
 20
202.50861
 11
323.6854499999998
 21
200.01245
 72
     2
 10
309.4417944979925
 20
156.9948994911124
 40
45.31436167314462
 50
71.67963914021962
 51
73.82288056882379
 73
     1
 97
        1
330
683
 75
     0
 76
     1
 52
90.0
 41
5.0
 77
     0
 78
     1
 53
135.0
 43
-213.5
 44
-149.2
 45
-0.4419417382415923
 46
-0.4419417382415923
 79
     0
 98
        1
 10
-213.5
 20
-149.2
  0
HATCH
  5
6A2
330
20
100
AcDbEntity
  8
Hach
  6
Continuous
100
AcDbHatch
 10
0.0
 20
0.0
 30
0.0
210
0.0
220
0.0
230
1.0
  2
ANSI31
 70
     0
 71
     1
 91
        1
 92
        1
 93
       10
 72
     1
 10
305.9460699999998
 20
199.70861
 11
304.4460699999998
 21
199.70861
 72
     1
 10
304.4460699999998
 20
199.70861
 11
304.4460699999998
 21
202.00861
 72
     2
 10
306.4460699999998
 20
202.00861
 40
2.0
 50
180.0
 51
270.0
 73
     0
 72
     1
 10
306.4460699999998
 20
204.00861
 11
314.71054
 21
204.00861
 72
     2
 10
314.71054
 20
202.5086100000001
 40
1.499999999999884
 50
270.0
 51
315.0000000000015
 73
     0
 72
     1
 10
315.7712001717798
 20
203.5692701717799
 11
317.8108499999999
 21
201.52962
 72
     2
 10
309.4482197434083
 20
157.0223706902059
 40
45.28607761699649
 50
79.35855688549809
 51
82.58971308526133
 73
     1
 72
     1
 10
315.2889299999998
 20
201.93022
 11
314.71054
 21
202.50861
 72
     1
 10
314.71054
 20
202.50861
 11
305.9460699999998
 21
202.50861
 72
     1
 10
305.9460699999998
 20
202.50861
 11
305.9460699999998
 21
199.70861
 97
        1
330
681
 75
     0
 76
     1
 52
90.0
 41
5.0
 77
     0
 78
     1
 53
135.0
 43
-213.5
 44
-149.2
 45
-0.4419417382415923
 46
-0.4419417382415923
 79
     0
 98
        1
 10
-213.5
 20
-149.2
  0
HATCH
  5
6A4
330
20
100
AcDbEntity
  8
Hach
  6
Continuous
100
AcDbHatch
 10
0.0
 20
0.0
 30
0.0
210
0.0
220
0.0
230
1.0
  2
ANSI31
 70
     0
 71
     1
 91
        1
 92
        1
 93
        7
 72
     1
 10
298.9460699999998
 20
217.55057
 11
297.44607
 21
217.55057
 72
     1
 10
297.44607
 20
217.55057
 11
297.44607
 21
205.0086100000001
 72
     1
 10
297.44607
 20
205.0086100000001
 11
290.44607
 21
198.00861
 72
     1
 10
290.44607
 20
198.00861
 11
291.50673
 21
196.94795
 72
     1
 10
291.50673
 20
196.94795
 11
298.5067299999998
 21
203.94795
 72
     2
 10
297.4460694135065
 20
205.0086105864933
 40
1.500000586493464
 50
315.0
 51
359.9999775976154
 73
     1
 72
     1
 10
298.9460699999998
 20
205.0086100000001
 11
298.9460699999998
 21
217.55057
 97
        1
330
684
 75
     0
 76
     1
 52
0.0
 41
5.0
 77
     0
 78
     1
 53
45.0
 43
-213.5
 44
-149.2
 45
-0.4419417382415923
 46
0.4419417382415923
 79
     0
 98
        1
 10
-213.5
 20
-149.2
  0
HATCH
  5
6A6
330
20
100
AcDbEntity
  8
Hach
  6
Continuous
100
AcDbHatch
 10
0.0
 20
0.0
 30
0.0
210
0.0
220
0.0
230
1.0
  2
ANSI31
 70
     0
 71
     1
 91
        1
 92
        1
 93
        7
 72
     1
 10
298.9460699999998
 20
195.00861
 11
297.44607
 21
195.00861
 72
     1
 10
297.44607
 20
195.00861
 11
297.44607
 21
191.50861
 72
     1
 10
297.44607
 20
191.50861
 11
290.44607
 21
184.50861
 72
     1
 10
290.44607
 20
184.50861
 11
291.50673
 21
183.44795
 72
     1
 10
291.50673
 20
183.44795
 11
298.5067299999998
 21
190.44795
 72
     2
 10
297.4460694135065
 20
191.5086105864933
 40
1.500000586493464
 50
315.0
 51
359.9999775976154
 73
     1
 72
     1
 10
298.9460699999998
 20
191.50861
 11
298.9460699999998
 21
195.00861
 97
        1
330
685
 75
     0
 76
     1
 52
0.0
 41
5.0
 77
     0
 78
     1
 53
45.0
 43
-213.5
 44
-149.2
 45
-0.4419417382415923
 46
0.4419417382415923
 79
     0
 98
        1
 10
-213.5
 20
-149.2
  0
HATCH
  5
6A8
330
20
100
AcDbEntity
  8
Hach
  6
Continuous
100
AcDbHatch
 10
0.0
 20
0.0
 30
0.0
210
0.0
220
0.0
230
1.0
  2
ANSI31
 70
     0
 71
     1
 91
        1
 92
        1
 93
        7
 72
     1
 10
298.9460699999998
 20
181.50861
 11
297.4460699999998
 21
181.50861
 72
     1
 10
297.4460699999998
 20
181.50861
 11
297.4460699999998
 21
178.00861
 72
     1
 10
297.4460699999998
 20
178.00861
 11
290.4460699999999
 21
171.00861
 72
     1
 10
290.4460699999999
 20
171.00861
 11
291.5067299999998
 21
169.94795
 72
     1
 10
291.5067299999998
 20
169.94795
 11
298.5067299999998
 21
176.94795
 72
     2
 10
297.4460694135065
 20
178.0086105864933
 40
1.500000586493464
 50
315.0
 51
359.9999775976154
 73
     1
 72
     1
 10
298.9460699999998
 20
178.00861
 11
298.9460699999998
 21
181.50861
 97
        1
330
686
 75
     0
 76
     1
 52
0.0
 41
5.0
 77
     0
 78
     1
 53
45.0
 43
-213.5
 44
-149.2
 45
-0.4419417382415923
 46
0.4419417382415923
 79
     0
 98
        1
 10
-213.5
 20
-149.2
  0
HATCH
  5
6AA
330
20
100
AcDbEntity
  8
Hach
  6
Continuous
100
AcDbHatch
 10
0.0
 20
0.0
 30
0.0
210
0.0
220
0.0
230
1.0
  2
ANSI31
 70
     0
 71
     1
 91
        1
 92
        1
 93
        7
 72
     1
 10
298.9460699999998
 20
168.00861
 11
297.4460699999998
 21
168.00861
 72
     1
 10
297.4460699999998
 20
168.00861
 11
297.4460699999998
 21
164.50861
 72
     1
 10
297.4460699999998
 20
164.50861
 11
290.4460699999999
 21
157.50861
 72
     1
 10
290.4460699999999
 20
157.50861
 11
291.5067299999998
 21
156.44795
 72
     1
 10
291.5067299999998
 20
156.44795
 11
298.5067299999998
 21
163.44795
 72
     2
 10
297.4460694135065
 20
164.5086105864933
 40
1.500000586493464
 50
315.0
 51
359.9999775976154
 73
     1
 72
     1
 10
298.9460699999998
 20
164.50861
 11
298.9460699999998
 21
168.00861
 97
        1
330
687
 75
     0
 76
     1
 52
0.0
 41
5.0
 77
     0
 78
     1
 53
45.0
 43
-213.5
 44
-149.2
 45
-0.4419417382415923
 46
0.4419417382415923
 79
     0
 98
        1
 10
-213.5
 20
-149.2
  0
HATCH
  5
6AC
330
20
100
AcDbEntity
  8
Hach
  6
Continuous
100
AcDbHatch
 10
0.0
 20
0.0
 30
0.0
210
0.0
220
0.0
230
1.0
  2
ANSI31
 70
     0
 71
     1
 91
        1
 92
        1
 93
        7
 72
     1
 10
298.9460699999998
 20
154.50861
 11
297.4460699999998
 21
154.50861
 72
     1
 10
297.4460699999998
 20
154.50861
 11
297.4460699999998
 21
151.00861
 72
     1
 10
297.4460699999998
 20
151.00861
 11
290.4460699999999
 21
144.00861
 72
     1
 10
290.4460699999999
 20
144.00861
 11
291.5067299999998
 21
142.94795
 72
     1
 10
291.5067299999998
 20
142.94795
 11
298.5067299999998
 21
149.94795
 72
     2
 10
297.4460694135065
 20
151.0086105864933
 40
1.500000586493464
 50
315.0
 51
359.9999775976154
 73
     1
 72
     1
 10
298.9460699999998
 20
151.00861
 11
298.9460699999998
 21
154.50861
 97
        1
330
688
 75
     0
 76
     1
 52
0.0
 41
5.0
 77
     0
 78
     1
 53
45.0
 43
-213.5
 44
-149.2
 45
-0.4419417382415923
 46
0.4419417382415923
 79
     0
 98
        1
 10
-213.5
 20
-149.2
  0
HATCH
  5
6AE
330
20
100
AcDbEntity
  8
Hach
  6
Continuous
100
AcDbHatch
 10
0.0
 20
0.0
 30
0.0
210
0.0
220
0.0
230
1.0
  2
ANSI31
 70
     0
 71
     1
 91
        1
 92
        1
 93
        7
 72
     1
 10
298.9460699999998
 20
141.00861
 11
297.4460699999998
 21
141.00861
 72
     1
 10
297.4460699999998
 20
141.00861
 11
297.4460699999998
 21
137.50861
 72
     1
 10
297.4460699999998
 20
137.50861
 11
290.4460699999999
 21
130.50861
 72
     1
 10
290.4460699999999
 20
130.50861
 11
291.5067299999998
 21
129.44795
 72
     1
 10
291.5067299999998
 20
129.44795
 11
298.5067299999998
 21
136.44795
 72
     2
 10
297.4460694135065
 20
137.5086105864933
 40
1.500000586493464
 50
315.0
 51
359.9999775976154
 73
     1
 72
     1
 10
298.9460699999998
 20
137.50861
 11
298.9460699999998
 21
141.00861
 97
        1
330
689
 75
     0
 76
     1
 52
0.0
 41
5.0
 77
     0
 78
     1
 53
45.0
 43
-213.5
 44
-149.2
 45
-0.4419417382415923
 46
0.4419417382415923
 79
     0
 98
        1
 10
-213.5
 20
-149.2
  0
HATCH
  5
6B0
330
20
100
AcDbEntity
  8
Hach
  6
Continuous
100
AcDbHatch
 10
0.0
 20
0.0
 30
0.0
210
0.0
220
0.0
230
1.0
  2
ANSI31
 70
     0
 71
     1
 91
        1
 92
        1
 93
        7
 72
     1
 10
298.9460699999998
 20
127.50861
 11
297.4460699999998
 21
127.50861
 72
     1
 10
297.4460699999998
 20
127.50861
 11
297.4460699999998
 21
124.00861
 72
     1
 10
297.4460699999998
 20
124.00861
 11
290.4460699999999
 21
117.00861
 72
     1
 10
290.4460699999999
 20
117.00861
 11
291.5067299999998
 21
115.94795
 72
     1
 10
291.5067299999998
 20
115.94795
 11
298.5067299999998
 21
122.94795
 72
     2
 10
297.4460694135065
 20
124.0086105864933
 40
1.500000586493453
 50
315.0000000000003
 51
359.999977597616
 73
     1
 72
     1
 10
298.9460699999998
 20
124.00861
 11
298.9460699999998
 21
127.50861
 97
        1
330
68A
 75
     0
 76
     1
 52
0.0
 41
5.0
 77
     0
 78
     1
 53
45.0
 43
-213.5
 44
-149.2
 45
-0.4419417382415923
 46
0.4419417382415923
 79
     0
 98
        1
 10
-213.5
 20
-149.2
  0
HATCH
  5
6B2
330
20
100
AcDbEntity
  8
Hach
  6
Continuous
100
AcDbHatch
 10
0.0
 20
0.0
 30
0.0
210
0.0
220
0.0
230
1.0
  2
ANSI31
 70
     0
 71
     1
 91
        1
 92
        1
 93
        4
 72
     1
 10
297.44607
 20
114.00861
 11
298.9460699999998
 21
114.00861
 72
     1
 10
298.9460699999998
 20
114.00861
 11
298.9460699999998
 21
108.00861
 72
     1
 10
298.9460699999998
 20
108.00861
 11
297.44607
 21
108.00861
 72
     1
 10
297.44607
 20
108.00861
 11
297.44607
 21
114.00861
 97
        1
330
68B
 75
     0
 76
     1
 52
0.0
 41
5.0
 77
     0
 78
     1
 53
45.0
 43
-213.5
 44
-149.2
 45
-0.4419417382415923
 46
0.4419417382415923
 79
     0
 98
        1
 10
-213.5
 20
-149.2
  0
HATCH
  5
6B4
330
20
100
AcDbEntity
  8
Hach
  6
Continuous
100
AcDbHatch
 10
0.0
 20
0.0
 30
0.0
210
0.0
220
0.0
230
1.0
  2
ANSI31
 70
     0
 71
     1
 91
        1
 92
        1
 93
        4
 72
     1
 10
297.44607
 20
104.50861
 11
298.9460699999998
 21
104.50861
 72
     1
 10
298.9460699999998
 20
104.50861
 11
298.9460699999998
 21
96.46665000000002
 72
     1
 10
298.9460699999998
 20
96.46665000000002
 11
297.44607
 21
96.46665000000002
 72
     1
 10
297.44607
 20
96.46665000000002
 11
297.44607
 21
104.50861
 97
        1
330
68C
 75
     0
 76
     1
 52
0.0
 41
5.0
 77
     0
 78
     1
 53
45.0
 43
-213.5
 44
-149.2
 45
-0.4419417382415923
 46
0.4419417382415923
 79
     0
 98
        1
 10
-213.5
 20
-149.2
  0
HATCH
  5
6B6
330
20
100
AcDbEntity
  8
Hach
  6
Continuous
100
AcDbHatch
 10
0.0
 20
0.0
 30
0.0
210
0.0
220
0.0
230
1.0
  2
ANSI31
 70
     0
 71
     1
 91
        1
 92
        1
 93
       11
 72
     1
 10
288.84754
 20
96.50861000000004
 11
294.44607
 21
96.50861000000004
 72
     2
 10
294.44607
 20
93.50861000000003
 40
3.0
 50
270.0
 51
360.0
 73
     0
 72
     1
 10
297.44607
 20
93.50861000000003
 11
297.44607
 21
84.34248999999999
 72
     1
 10
297.44607
 20
84.34248999999999
 11
304.4460699999998
 21
83.51895711677221
 72
     1
 10
304.4460699999998
 20
83.51895711677221
 11
304.4460699999998
 21
82.00861000000003
 72
     1
 10
304.4460699999998
 20
82.00861000000003
 11
297.2708099999999
 21
82.85276000000001
 72
     2
 10
297.4460725281272
 20
84.34248837478023
 40
1.500002528128169
 50
96.70985070688374
 51
180.0000620787171
 73
     0
 72
     1
 10
295.9460699999998
 20
84.34248999999999
 11
295.9460699999998
 21
93.50861000000003
 72
     2
 10
294.44607
 20
93.50861000000014
 40
1.499999999999884
 50
359.9999999999968
 51
449.9999999999977
 73
     1
 72
     1
 10
294.44607
 20
95.00861000000003
 11
288.84754
 21
95.00861000000003
 72
     1
 10
288.84754
 20
95.00861000000003
 11
288.84754
 21
96.50861000000004
 97
        1
330
690
 75
     0
 76
     1
 52
0.0
 41
5.0
 77
     0
 78
     1
 53
45.0
 43
-213.5
 44
-149.2
 45
-0.4419417382415923
 46
0.4419417382415923
 79
     0
 98
        1
 10
-213.5
 20
-149.2
  0
HATCH
  5
6B8
330
20
100
AcDbEntity
  8
Hach
  6
Continuous
100
AcDbHatch
 10
0.0
 20
0.0
 30
0.0
210
0.0
220
0.0
230
1.0
  2
ANSI31
 70
     0
 71
     1
 91
        1
 92
        1
 93
       17
 72
     1
 10
347.9460699999998
 20
113.50861
 11
349.44607
 21
113.50861
 72
     1
 10
349.44607
 20
113.50861
 11
349.44607
 21
111.50861
 72
     2
 10
346.4460699999999
 20
111.5086100000001
 40
3.000000000000055
 50
0.0000000000010687
 51
90.00000000000106
 73
     0
 72
     1
 10
346.4460699999999
 20
108.50861
 11
305.9460699999998
 21
108.50861
 72
     2
 10
305.9460699999998
 20
104.00861
 40
4.5
 50
90.0
 51
180.0
 73
     1
 72
     1
 10
301.4460699999998
 20
104.00861
 11
301.4460699999998
 21
96.46665000000002
 72
     2
 10
299.9460699999998
 20
96.46665000000005
 40
1.5
 50
0.0000000000010687
 51
80.40593999999792
 73
     0
 72
     2
 10
300.4460694903211
 20
93.50861053920738
 40
1.499999490321308
 50
99.59406000000296
 51
180.0000205962105
 73
     1
 72
     1
 10
298.9460699999998
 20
93.50861000000003
 11
298.9460699999998
 21
84.35749000000001
 72
     1
 10
298.9460699999998
 20
84.35749000000001
 11
297.44607
 21
84.35749000000001
 72
     1
 10
297.44607
 20
84.35749000000001
 11
297.44607
 21
93.50861000000003
 72
     2
 10
300.44607
 20
93.50861
 40
2.999999999999943
 50
180.0000000000003
 51
260.405932
 73
     0
 72
     1
 10
299.9460700117122
 20
96.46664989352956
 11
299.9460699999998
 21
103.84334
 72
     2
 10
306.1136161710127
 20
103.8433400097924
 40
6.167546171012816
 50
179.9999999090293
 51
268.443324244799
 73
     0
 72
     1
 10
305.9460699999998
 20
110.00861
 11
346.4460699999999
 21
110.00861
 72
     2
 10
346.4460699999999
 20
111.50861
 40
1.5
 50
270.0
 51
360.0
 73
     1
 72
     1
 10
347.9460699999998
 20
111.50861
 11
347.9460699999998
 21
113.50861
 97
        1
330
68F
 75
     0
 76
     1
 52
0.0
 41
5.0
 77
     0
 78
     1
 53
45.0
 43
-213.5
 44
-149.2
 45
-0.4419417382415923
 46
0.4419417382415923
 79
     0
 98
        1
 10
-213.5
 20
-149.2
  0
HATCH
  5
6BA
330
20
100
AcDbEntity
  8
Hach
  6
Continuous
100
AcDbHatch
 10
0.0
 20
0.0
 30
0.0
210
0.0
220
0.0
230
1.0
  2
ANSI31
 70
     0
 71
     1
 91
        1
 92
        1
 93
       10
 72
     1
 10
305.9460699999998
 20
114.30861
 11
304.4460699999998
 21
114.30861
 72
     1
 10
304.4460699999998
 20
114.30861
 11
304.4460699999998
 21
112.00861
 72
     2
 10
306.4460699999998
 20
112.00861
 40
2.0
 50
180.0
 51
270.0
 73
     1
 72
     1
 10
306.4460699999998
 20
110.00861
 11
314.71054
 21
110.00861
 72
     2
 10
314.71054
 20
111.5086099999999
 40
1.499999999999899
 50
270.0
 51
315.0000000000012
 73
     1
 72
     1
 10
315.7712001717798
 20
110.4479498282202
 11
317.8108499999999
 21
112.4876
 72
     2
 10
309.4461789653605
 20
157.0076967360965
 40
45.29908094993897
 50
79.35902076835325
 51
82.58924920240863
 73
     0
 72
     1
 10
315.2889299999998
 20
112.087
 11
314.71054
 21
111.50861
 72
     1
 10
314.71054
 20
111.50861
 11
305.9460699999998
 21
111.50861
 72
     1
 10
305.9460699999998
 20
111.50861
 11
305.9460699999998
 21
114.30861
 97
        1
330
68D
 75
     0
 76
     1
 52
90.0
 41
5.0
 77
     0
 78
     1
 53
135.0
 43
-213.5
 44
-149.2
 45
-0.4419417382415923
 46
-0.4419417382415923
 79
     0
 98
        1
 10
-213.5
 20
-149.2
  0
HATCH
  5
6BC
330
20
100
AcDbEntity
  8
Hach
  6
Continuous
100
AcDbHatch
 10
0.0
 20
0.0
 30
0.0
210
0.0
220
0.0
230
1.0
  2
ANSI31
 70
     0
 71
     1
 91
        1
 92
        1
 93
        7
 72
     1
 10
323.6854499999998
 20
114.00477
 11
326.1816099999998
 21
111.50861
 72
     1
 10
326.1816099999998
 20
111.50861
 11
329.4460699999998
 21
111.50861
 72
     1
 10
329.4460699999998
 20
111.50861
 11
329.4460699999998
 21
110.00861
 72
     1
 10
329.4460699999998
 20
110.00861
 11
326.1816099999998
 21
110.00861
 72
     2
 10
326.1816099999998
 20
111.5086099999998
 40
1.499999999999771
 50
90.00000000000211
 51
135.000000000003
 73
     0
 72
     1
 10
325.1209498282202
 20
110.4479498282202
 11
322.06672
 21
113.50218
 72
     2
 10
309.4417944975789
 20
157.0223205102199
 40
45.31436167453938
 50
286.1771194312092
 51
288.3203608597474
 73
     1
 97
        1
330
68E
 75
     0
 76
     1
 52
90.0
 41
5.0
 77
     0
 78
     1
 53
135.0
 43
-213.5
 44
-149.2
 45
-0.4419417382415923
 46
-0.4419417382415923
 79
     0
 98
        1
 10
-213.5
 20
-149.2
  0
MTEXT
  5
6BE
330
20
100
AcDbEntity
  8
Dim
  6
Continuous
100
AcDbMText
 10
161.6823889311239
 20
236.34308
 30
0.0
 40
6.0
 41
0.0
 71
     7
 72
     1
  1
ＰＣＤ φＦ
 73
     1
 44
1.0
1001
ACAD
1000
MTEXTBEGIN
1070
    73
1070
     1
1070
    44
1040
1.0
1070
    74
1070
     0
1000
MTEXTEND
  0
MTEXT
  5
6C1
330
20
100
AcDbEntity
  8
Dim
  6
Continuous
100
AcDbMText
 10
186.5619001346285
 20
176.5559999999999
 30
0.0
 40
6.0
 41
0.0
 71
     7
 72
     1
  1
Ｇ穴
 73
     1
 44
1.0
1001
ACAD
1000
MTEXTBEGIN
1070
    73
1070
     1
1070
    44
1040
1.0
1070
    74
1070
     0
1000
MTEXTEND
  0
MTEXT
  5
6C3
330
20
100
AcDbEntity
  8
Dim
  6
Continuous
100
AcDbMText
 10
176.894808653551
 20
105.81122
 30
0.0
 40
6.0
 41
0.0
 71
     7
 72
     1
  1
Ｈ穴
 73
     1
 44
1.0
1001
ACAD
1000
MTEXTBEGIN
1070
    73
1070
     1
1070
    44
1040
1.0
1070
    74
1070
     0
1000
MTEXTEND
  0
MTEXT
  5
6C5
330
20
100
AcDbEntity
  8
Dim
  6
Continuous
100
AcDbMText
 10
26.96675316157433
 20
105.81122
 30
0.0
 40
6.0
 41
0.0
 71
     9
 72
     1
  1
Ｈ穴
 73
     1
 44
1.0
1001
ACAD
1000
MTEXTBEGIN
1070
    73
1070
     1
1070
    44
1040
1.0
1070
    74
1070
     0
1000
MTEXTEND
  0
MTEXT
  5
6C7
330
20
100
AcDbEntity
  8
Dim
  6
Continuous
100
AcDbMText
 10
16.75147526604252
 20
176.5559999999999
 30
0.0
 40
6.0
 41
0.0
 71
     9
 72
     1
  1
Ｇ穴
 73
     1
 44
1.0
1001
ACAD
1000
MTEXTBEGIN
1070
    73
1070
     1
1070
    44
1040
1.0
1070
    74
1070
     0
1000
MTEXTEND
  0
MTEXT
  5
6C9
330
20
100
AcDbEntity
  8
Dim
  6
Continuous
100
AcDbMText
 10
87.80824865485369
 20
247.056
 30
0.0
 40
6.0
 41
0.0
 71
     9
 72
     1
  1
Ｈ穴
 73
     1
 44
1.0
1001
ACAD
1000
MTEXTBEGIN
1070
    73
1070
     1
1070
    44
1040
1.0
1070
    74
1070
     0
1000
MTEXTEND
  0
LWPOLYLINE
  5
787
330
20
100
AcDbEntity
  8
waku
  6
Continuous
100
AcDbPolyline
 90
        4
 70
     1
 43
0.0
 10
0.0
 20
283.9999999999999
 10
406.0
 20
283.9999999999999
 10
406.0
 20
0.0
 10
0.0
 20
0.0
  0
LWPOLYLINE
  5
788
330
20
100
AcDbEntity
  8
waku
  6
Continuous
100
AcDbPolyline
 90
        4
 70
     1
 43
0.0
 10
405.9999999999998
 20
35.0
 10
245.9999999999998
 20
35.0
 10
245.9999999999998
 20
0.0
 10
405.9999999999998
 20
0.0
  0
LWPOLYLINE
  5
789
330
20
100
AcDbEntity
  8
hyou
  6
Continuous
100
AcDbPolyline
 90
        4
 70
     1
 43
0.0
 10
245.9999999999998
 20
75.0
 10
405.9999999999998
 20
75.0
 10
405.9999999999998
 20
35.0
 10
245.9999999999998
 20
35.0
  0
LWPOLYLINE
  5
78A
330
20
100
AcDbEntity
  8
hyou
  6
Continuous
100
AcDbPolyline
 90
        4
 70
     1
 43
0.0
 10
5.0
 20
29.0
 10
235.0
 20
29.0
 10
235.0
 20
4.999999999999912
 10
5.0
 20
4.999999999999913
  0
INSERT
  5
7A1
330
20
100
AcDbEntity
  8
Dim
  6
Continuous
100
AcDbBlockReference
  2
_Open30
 10
250.04477
 20
208.41791
 30
0.0
 41
3.599999999999999
 42
3.599999999999999
 43
3.599999999999999
 50
317.060105732269
1001
ACAD
1000
DSTYLE
1002
{
1070
   147
1040
0.09
1070
    77
1070
     0
1002
}
  0
LWPOLYLINE
  5
7A2
330
20
100
AcDbEntity
  8
Dim
  6
Continuous
100
AcDbPolyline
 90
        2
 70
     0
 43
0.0
 10
247.409322519368
 20
210.8703407486309
 10
214.58209
 20
241.4179100000002
1001
ACAD
1000
DSTYLE
1002
{
1070
   147
1040
0.09
1070
    77
1070
     0
1002
}
  0
INSERT
  5
7A3
330
20
100
AcDbEntity
  8
Dim
  6
Continuous
100
AcDbBlockReference
  2
_Open30
 10
311.1194000000001
 20
206.94029
 30
0.0
 41
3.599999999999999
 42
3.599999999999999
 43
3.599999999999999
 50
248.7495048885579
1001
ACAD
1000
DSTYLE
1002
{
1070
    77
1070
     0
1070
   147
1040
0.09
1002
}
  0
LWPOLYLINE
  5
7A4
330
20
100
AcDbEntity
  8
Dim
  6
Continuous
100
AcDbPolyline
 90
        2
 70
     0
 43
0.0
 10
312.4242059313906
 20
210.2955070542914
 10
321.46268
 20
233.53731
1001
ACAD
1000
DSTYLE
1002
{
1070
    77
1070
     0
1070
   147
1040
0.09
1002
}
  0
INSERT
  5
7A5
330
20
100
AcDbEntity
  8
Dim
  6
Continuous
100
AcDbBlockReference
  2
_Open30
 10
330.31395
 20
181.98837
 30
0.0
 41
3.599999999999999
 42
3.599999999999999
 43
3.599999999999999
 50
259.1314760502038
1001
ACAD
1000
DSTYLE
1002
{
1070
    77
1070
     0
1070
   147
1040
0.09
1002
}
  0
LWPOLYLINE
  5
7A6
330
20
100
AcDbEntity
  8
Dim
  6
Continuous
100
AcDbPolyline
 90
        2
 70
     0
 43
0.0
 10
330.9927514738043
 20
185.5237948060397
 10
340.0813900000001
 20
232.8604600000001
1001
ACAD
1000
DSTYLE
1002
{
1070
    77
1070
     0
1070
   147
1040
0.09
1002
}
  0
INSERT
  5
7A7
330
20
100
AcDbEntity
  8
Dim
  6
Continuous
100
AcDbBlockReference
  2
_Open30
 10
354.7690700000002
 20
153.97733
 30
0.0
 41
3.599999999999999
 42
3.599999999999999
 43
3.599999999999999
 50
153.4349648560391
1001
ACAD
1000
DSTYLE
1002
{
1070
   147
1040
0.09
1070
    77
1070
     0
1002
}
  0
LWPOLYLINE
  5
7A8
330
20
100
AcDbEntity
  8
Dim
  6
Continuous
100
AcDbPolyline
 90
        2
 70
     0
 43
0.0
 10
357.9890083381184
 20
152.3673619572376
 10
383.35779
 20
139.68298
1001
ACAD
1000
DSTYLE
1002
{
1070
   147
1040
0.09
1070
    77
1070
     0
1002
}
  0
INSERT
  5
7A9
330
20
100
AcDbEntity
  8
Dim
  6
Continuous
100
AcDbBlockReference
  2
_Open30
 10
300.6084799999999
 20
134.0367799999999
 30
0.0
 41
3.599999999999999
 42
3.599999999999999
 43
3.599999999999999
 50
136.6249802939727
1001
ACAD
1000
DSTYLE
1002
{
1070
   147
1040
0.09
1070
    77
1070
     0
1002
}
  0
LWPOLYLINE
  5
7AA
330
20
100
AcDbEntity
  8
Dim
  6
Continuous
100
AcDbPolyline
 90
        2
 70
     0
 43
0.0
 10
303.22522699067
 20
131.5644055973621
 10
346.21921
 20
90.94251000000005
1001
ACAD
1000
DSTYLE
1002
{
1070
   147
1040
0.09
1070
    77
1070
     0
1002
}
  0
INSERT
  5
7AB
330
20
100
AcDbEntity
  8
Dim
  6
Continuous
100
AcDbBlockReference
  2
_Open30
 10
298.3400077193317
 20
129.61194
 30
0.0
 41
3.599999999999999
 42
3.599999999999999
 43
3.599999999999999
 50
34.10126943416375
1001
ACAD
1000
DSTYLE
1002
{
1070
   147
1040
0.09
1070
    77
1070
     0
1002
}
  0
LWPOLYLINE
  5
7AC
330
20
100
AcDbEntity
  8
Dim
  6
Continuous
100
AcDbPolyline
 90
        2
 70
     0
 43
0.0
 10
295.3590352324937
 20
127.5935735732294
 10
251.0564177193316
 20
97.597015
1001
ACAD
1000
DSTYLE
1002
{
1070
   147
1040
0.09
1070
    77
1070
     0
1002
}
  0
INSERT
  5
7AD
330
20
100
AcDbEntity
  8
Dim
  6
Continuous
100
AcDbBlockReference
  2
_Open30
 10
143.42269
 20
213.92428
 30
0.0
 41
3.599999999999999
 42
3.599999999999999
 43
3.599999999999999
 50
234.8672362402478
  0
LWPOLYLINE
  5
7AE
330
20
100
AcDbEntity
  8
Dim
  6
Continuous
100
AcDbPolyline
 90
        4
 70
     0
 43
0.0
 10
145.4943928181601
 20
216.8684347909761
 10
158.49438
 20
235.34308
 10
160.6823889311239
 20
235.34308
 10
198.4823889311239
 20
235.34308
  0
INSERT
  5
7AF
330
20
100
AcDbEntity
  8
Dim
  6
Continuous
100
AcDbBlockReference
  2
_Open30
 10
173.72416
 20
158.66929
 30
0.0
 41
3.599999999999999
 42
3.599999999999999
 43
3.599999999999999
 50
238.9057835759714
  0
LWPOLYLINE
  5
7B0
330
20
100
AcDbEntity
  8
Dim
  6
Continuous
100
AcDbPolyline
 90
        4
 70
     0
 43
0.0
 10
175.583368813157
 20
161.7520391933466
 10
183.90855
 20
175.5559999999999
 10
185.5619001346284
 20
175.5559999999999
 10
200.1619001346285
 20
175.5559999999999
  0
INSERT
  5
7B1
330
20
100
AcDbEntity
  8
Dim
  6
Continuous
100
AcDbBlockReference
  2
_Open30
 10
164.27895
 20
120.09794
 30
0.0
 41
3.599999999999999
 42
3.599999999999999
 43
3.599999999999999
 50
122.3376403272293
  0
LWPOLYLINE
  5
7B2
330
20
100
AcDbEntity
  8
Dim
  6
Continuous
100
AcDbPolyline
 90
        4
 70
     0
 43
0.0
 10
166.2046170965155
 20
117.056261806404
 10
173.9568750939905
 20
104.81122
 10
175.894808653551
 20
104.81122
 10
190.494808653551
 20
104.81122
  0
INSERT
  5
7B3
330
20
100
AcDbEntity
  8
Dim
  6
Continuous
100
AcDbBlockReference
  2
_Open30
 10
39.359319
 20
120.09794
 30
0.0
 41
3.599999999999999
 42
3.599999999999999
 43
3.599999999999999
 50
57.66236475795456
  0
LWPOLYLINE
  5
7B4
330
20
100
AcDbEntity
  8
Dim
  6
Continuous
100
AcDbPolyline
 90
        4
 70
     0
 43
0.0
 10
37.43365217344313
 20
117.0562616354949
 10
29.6813958065485
 20
104.81122
 10
27.96675316157433
 20
104.81122
 10
13.36675316157432
 20
104.81122
  0
INSERT
  5
7B5
330
20
100
AcDbEntity
  8
Dim
  6
Continuous
100
AcDbBlockReference
  2
_Open30
 10
29.91411000000002
 20
158.66929
 30
0.0
 41
3.599999999999999
 42
3.599999999999999
 43
3.599999999999999
 50
301.0942363279601
  0
LWPOLYLINE
  5
7B6
330
20
100
AcDbEntity
  8
Dim
  6
Continuous
100
AcDbPolyline
 90
        4
 70
     0
 43
0.0
 10
28.05490011592949
 20
161.7520385474774
 10
19.729712
 20
175.5559999999999
 10
17.75147526604252
 20
175.5559999999999
 10
3.15147526604252
 20
175.5559999999999
  0
INSERT
  5
7B7
330
20
100
AcDbEntity
  8
Dim
  6
Continuous
100
AcDbBlockReference
  2
_Open30
 10
100.41411
 20
229.16929
 30
0.0
 41
3.599999999999999
 42
3.599999999999999
 43
3.599999999999999
 50
301.0942363279599
  0
LWPOLYLINE
  5
7B8
330
20
100
AcDbEntity
  8
Dim
  6
Continuous
100
AcDbPolyline
 90
        4
 70
     0
 43
0.0
 10
98.55490011592948
 20
232.2520385474775
 10
90.229712
 20
246.056
 10
88.80824865485369
 20
246.056
 10
74.20824865485368
 20
246.056
  0
ENDSEC
  0
SECTION
  2
OBJECTS
  0
DICTIONARY
  5
C
330
0
100
AcDbDictionary
281
     1
  3
ACAD_COLOR
350
1B
  3
ACAD_GROUP
350
D
  3
ACAD_LAYOUT
350
19
  3
ACAD_MATERIAL
350
1A
  3
ACAD_MLINESTYLE
350
16
  3
ACAD_PLOTSETTINGS
350
18
  3
ACAD_PLOTSTYLENAME
350
E
  3
ACDBHEADERROUNDTRIPXREC
350
7BA
  3
AcDbVariableDictionary
350
60B
  0
DICTIONARY
  5
1B
102
{ACAD_REACTORS
330
C
102
}
330
C
100
AcDbDictionary
281
     1
  0
DICTIONARY
  5
D
102
{ACAD_REACTORS
330
C
102
}
330
C
100
AcDbDictionary
281
     1
  0
DICTIONARY
  5
19
102
{ACAD_REACTORS
330
C
102
}
330
C
100
AcDbDictionary
281
     1
  3
Model
350
23
  3
レイアウト1
350
1F
  0
DICTIONARY
  5
1A
102
{ACAD_REACTORS
330
C
102
}
330
C
100
AcDbDictionary
281
     1
  0
DICTIONARY
  5
16
102
{ACAD_REACTORS
330
C
102
}
330
C
100
AcDbDictionary
281
     1
  3
Standard
350
17
  0
DICTIONARY
  5
18
102
{ACAD_REACTORS
330
C
102
}
330
C
100
AcDbDictionary
281
     1
  0
ACDBDICTIONARYWDFLT
  5
E
102
{ACAD_REACTORS
330
C
102
}
330
C
100
AcDbDictionary
281
     1
  3
Normal
350
F
100
AcDbDictionaryWithDefault
340
F
  0
DICTIONARY
  5
7BA
102
{ACAD_REACTORS
330
C
102
}
330
C
100
AcDbDictionary
281
     1
  3
COLORDICT
350
7BC
  3
MATERIALDICT
350
7BB
  0
DICTIONARY
  5
60B
102
{ACAD_REACTORS
330
C
102
}
330
C
100
AcDbDictionary
281
     1
  3
DIMASSOC
350
60C
  3
PROJECTNAME
350
60D
  0
LAYOUT
  5
23
102
{ACAD_XDICTIONARY
360
7BF
102
}
102
{ACAD_REACTORS
330
19
102
}
330
19
100
AcDbPlotSettings
  1

  2
Microsoft Office Document Image Writer
  4

  6

 40
0.0
 41
0.0
 42
0.0
 43
0.0
 44
0.0
 45
0.0
 46
0.0
 47
0.0
 48
0.0
 49
0.0
140
0.0
141
0.0
142
1.0
143
1.0
 70
  1712
 72
     0
 73
     0
 74
     0
  7

 75
     0
147
1.0
148
0.0
149
0.0
100
AcDbLayout
  1
Model
 70
     1
 71
     0
 10
0.0
 20
0.0
 11
12.0
 21
9.0
 12
0.0
 22
0.0
 32
0.0
 14
0.0
 24
0.0
 34
0.0
 15
0.0
 25
0.0
 35
0.0
146
0.0
 13
0.0
 23
0.0
 33
0.0
 16
1.0
 26
0.0
 36
0.0
 17
0.0
 27
1.0
 37
0.0
 76
     0
330
20
  0
LAYOUT
  5
1F
102
{ACAD_XDICTIONARY
360
7BD
102
}
102
{ACAD_REACTORS
330
19
102
}
330
19
100
AcDbPlotSettings
  1

  2
Microsoft Office Document Image Writer
  4

  6

 40
0.0
 41
0.0
 42
0.0
 43
0.0
 44
0.0
 45
0.0
 46
0.0
 47
0.0
 48
0.0
 49
0.0
140
0.0
141
0.0
142
1.0
143
1.0
 70
   688
 72
     0
 73
     0
 74
     5
  7

 75
    16
147
1.0
148
0.0
149
0.0
100
AcDbLayout
  1
レイアウト1
 70
     1
 71
     1
 10
0.0
 20
0.0
 11
12.0
 21
9.0
 12
0.0
 22
0.0
 32
0.0
 14
1.000000000000000E+20
 24
1.000000000000000E+20
 34
1.000000000000000E+20
 15
-1.000000000000000E+20
 25
-1.000000000000000E+20
 35
-1.000000000000000E+20
146
0.0
 13
0.0
 23
0.0
 33
0.0
 16
1.0
 26
0.0
 36
0.0
 17
0.0
 27
1.0
 37
0.0
 76
     0
330
1C
  0
MLINESTYLE
  5
17
102
{ACAD_REACTORS
330
16
102
}
330
16
100
AcDbMlineStyle
  2
STANDARD
 70
     0
  3

 62
   256
 51
90.0
 52
90.0
 71
     2
 49
0.5
 62
   256
  6
BYLAYER
 49
-0.5
 62
   256
  6
BYLAYER
  0
ACDBPLACEHOLDER
  5
F
102
{ACAD_REACTORS
330
E
102
}
330
E
  0
XRECORD
  5
7BC
102
{ACAD_REACTORS
330
7BA
102
}
330
7BA
100
AcDbXrecord
280
     1
340
1B
  0
XRECORD
  5
7BB
102
{ACAD_REACTORS
330
7BA
102
}
330
7BA
100
AcDbXrecord
280
     1
340
1A
  0
DICTIONARYVAR
  5
60C
102
{ACAD_REACTORS
330
60B
102
}
330
60B
100
DictionaryVariables
280
     0
  1
1
  0
DICTIONARYVAR
  5
60D
102
{ACAD_REACTORS
330
60B
102
}
330
60B
100
DictionaryVariables
280
     0
  1

  0
DICTIONARY
  5
7BF
330
23
100
AcDbDictionary
280
     1
281
     1
  3
ACAD_XREC_ROUNDTRIP
360
7C0
  0
DICTIONARY
  5
7BD
330
1F
100
AcDbDictionary
280
     1
281
     1
  3
ACAD_XREC_ROUNDTRIP
360
7BE
  0
XRECORD
  5
7C0
102
{ACAD_REACTORS
330
7BF
102
}
330
7BF
100
AcDbXrecord
280
     1
102
SHADEPLOT
 70
     0
102
SHADEPLOTRESLEVEL
 70
     2
102
SHADEPLOTCUSTOMDPI
 70
   300
  0
XRECORD
  5
7BE
102
{ACAD_REACTORS
330
7BD
102
}
330
7BD
100
AcDbXrecord
280
     1
102
SHADEPLOT
 70
     0
102
SHADEPLOTRESLEVEL
 70
     2
102
SHADEPLOTCUSTOMDPI
 70
   300
  0
ENDSEC
  0
EOF
