  0
SECTION
  2
HEADER
  9
$ACADVER
  1
AC1015
  9
$ACADMAINTVER
 70
    20
  9
$DWGCODEPAGE
  3
ANSI_932
  9
$INSBASE
 10
0.0
 20
0.0
 30
0.0
  9
$EXTMIN
 10
-116.938809711582
 20
-213.1262443540559
 30
-0.0000000000000058
  9
$EXTMAX
 10
642.865500680904
 20
333.0240263319881
 30
0.0000000000000104
  9
$LIMMIN
 10
3.620794999999998
 20
2.42707
  9
$LIMMAX
 10
286.6319439999998
 20
205.942985
  9
$ORTHOMODE
 70
     1
  9
$REGENMODE
 70
     1
  9
$FILLMODE
 70
     1
  9
$QTEXTMODE
 70
     0
  9
$MIRRTEXT
 70
     1
  9
$LTSCALE
 40
0.3
  9
$ATTMODE
 70
     1
  9
$TEXTSIZE
 40
0.0
  9
$TRACEWID
 40
0.05
  9
$TEXTSTYLE
  7
Standard
  9
$CLAYER
  8
Dim
  9
$CELTYPE
  6
ByLayer
  9
$CECOLOR
 62
   256
  9
$CELTSCALE
 40
1.0
  9
$DISPSILH
 70
     0
  9
$DIMSCALE
 40
30.0
  9
$DIMASZ
 40
0.18
  9
$DIMEXO
 40
0.0625
  9
$DIMDLI
 40
0.38
  9
$DIMRND
 40
0.0
  9
$DIMDLE
 40
0.0
  9
$DIMEXE
 40
0.1
  9
$DIMTP
 40
0.0
  9
$DIMTM
 40
0.0
  9
$DIMTXT
 40
0.3
  9
$DIMCEN
 40
0.0
  9
$DIMTSZ
 40
0.0
  9
$DIMTOL
 70
     0
  9
$DIMLIM
 70
     0
  9
$DIMTIH
 70
     0
  9
$DIMTOH
 70
     0
  9
$DIMSE1
 70
     0
  9
$DIMSE2
 70
     0
  9
$DIMTAD
 70
     1
  9
$DIMZIN
 70
     0
  9
$DIMBLK
  1
Open30
  9
$DIMASO
 70
     1
  9
$DIMSHO
 70
     1
  9
$DIMPOST
  1

  9
$DIMAPOST
  1

  9
$DIMALT
 70
     0
  9
$DIMALTD
 70
     2
  9
$DIMALTF
 40
25.4
  9
$DIMLFAC
 40
1.0
  9
$DIMTOFL
 70
     0
  9
$DIMTVP
 40
0.0
  9
$DIMTIX
 70
     0
  9
$DIMSOXD
 70
     0
  9
$DIMSAH
 70
     0
  9
$DIMBLK1
  1

  9
$DIMBLK2
  1

  9
$DIMSTYLE
  2
1-3
  9
$DIMCLRD
 70
     0
  9
$DIMCLRE
 70
     0
  9
$DIMCLRT
 70
     0
  9
$DIMTFAC
 40
1.0
  9
$DIMGAP
 40
0.05
  9
$DIMJUST
 70
     0
  9
$DIMSD1
 70
     0
  9
$DIMSD2
 70
     0
  9
$DIMTOLJ
 70
     1
  9
$DIMTZIN
 70
     0
  9
$DIMALTZ
 70
     0
  9
$DIMALTTZ
 70
     0
  9
$DIMUPT
 70
     0
  9
$DIMDEC
 70
     0
  9
$DIMTDEC
 70
     0
  9
$DIMALTU
 70
     2
  9
$DIMALTTD
 70
     2
  9
$DIMTXSTY
  7
Standard
  9
$DIMAUNIT
 70
     0
  9
$DIMADEC
 70
     0
  9
$DIMALTRND
 40
0.0
  9
$DIMAZIN
 70
     0
  9
$DIMDSEP
 70
    46
  9
$DIMATFIT
 70
     3
  9
$DIMFRAC
 70
     0
  9
$DIMLDRBLK
  1
Open30
  9
$DIMLUNIT
 70
     2
  9
$DIMLWD
 70
    -2
  9
$DIMLWE
 70
    -2
  9
$DIMTMOVE
 70
     0
  9
$LUNITS
 70
     2
  9
$LUPREC
 70
     4
  9
$SKETCHINC
 40
0.1
  9
$FILLETRAD
 40
0.0
  9
$AUNITS
 70
     0
  9
$AUPREC
 70
     0
  9
$MENU
  1
acad
  9
$ELEVATION
 40
0.0
  9
$PELEVATION
 40
0.0
  9
$THICKNESS
 40
0.0
  9
$LIMCHECK
 70
     0
  9
$CHAMFERA
 40
0.0
  9
$CHAMFERB
 40
0.0
  9
$CHAMFERC
 40
0.0
  9
$CHAMFERD
 40
0.0
  9
$SKPOLY
 70
     0
  9
$TDCREATE
 40
2453951.663564109
  9
$TDUCREATE
 40
2453951.288564109
  9
$TDUPDATE
 40
2456434.430139537
  9
$TDUUPDATE
 40
2456434.055139537
  9
$TDINDWG
 40
0.0802987847
  9
$TDUSRTIMER
 40
0.0802938889
  9
$USRTIMER
 70
     1
  9
$ANGBASE
 50
0.0
  9
$ANGDIR
 70
     0
  9
$PDMODE
 70
     3
  9
$PDSIZE
 40
0.0
  9
$PLINEWID
 40
0.0
  9
$SPLFRAME
 70
     0
  9
$SPLINETYPE
 70
     6
  9
$SPLINESEGS
 70
     8
  9
$HANDSEED
  5
82A
  9
$SURFTAB1
 70
     6
  9
$SURFTAB2
 70
     6
  9
$SURFTYPE
 70
     6
  9
$SURFU
 70
     6
  9
$SURFV
 70
     6
  9
$UCSBASE
  2

  9
$UCSNAME
  2

  9
$UCSORG
 10
0.0
 20
0.0
 30
0.0
  9
$UCSXDIR
 10
1.0
 20
0.0
 30
0.0
  9
$UCSYDIR
 10
0.0
 20
1.0
 30
0.0
  9
$UCSORTHOREF
  2

  9
$UCSORTHOVIEW
 70
     0
  9
$UCSORGTOP
 10
0.0
 20
0.0
 30
0.0
  9
$UCSORGBOTTOM
 10
0.0
 20
0.0
 30
0.0
  9
$UCSORGLEFT
 10
0.0
 20
0.0
 30
0.0
  9
$UCSORGRIGHT
 10
0.0
 20
0.0
 30
0.0
  9
$UCSORGFRONT
 10
0.0
 20
0.0
 30
0.0
  9
$UCSORGBACK
 10
0.0
 20
0.0
 30
0.0
  9
$PUCSBASE
  2

  9
$PUCSNAME
  2

  9
$PUCSORG
 10
0.0
 20
0.0
 30
0.0
  9
$PUCSXDIR
 10
1.0
 20
0.0
 30
0.0
  9
$PUCSYDIR
 10
0.0
 20
1.0
 30
0.0
  9
$PUCSORTHOREF
  2

  9
$PUCSORTHOVIEW
 70
     0
  9
$PUCSORGTOP
 10
0.0
 20
0.0
 30
0.0
  9
$PUCSORGBOTTOM
 10
0.0
 20
0.0
 30
0.0
  9
$PUCSORGLEFT
 10
0.0
 20
0.0
 30
0.0
  9
$PUCSORGRIGHT
 10
0.0
 20
0.0
 30
0.0
  9
$PUCSORGFRONT
 10
0.0
 20
0.0
 30
0.0
  9
$PUCSORGBACK
 10
0.0
 20
0.0
 30
0.0
  9
$USERI1
 70
     0
  9
$USERI2
 70
     0
  9
$USERI3
 70
     0
  9
$USERI4
 70
     0
  9
$USERI5
 70
     0
  9
$USERR1
 40
0.0
  9
$USERR2
 40
0.0
  9
$USERR3
 40
0.0
  9
$USERR4
 40
0.0
  9
$USERR5
 40
0.0
  9
$WORLDVIEW
 70
     1
  9
$SHADEDGE
 70
     3
  9
$SHADEDIF
 70
    70
  9
$TILEMODE
 70
     1
  9
$MAXACTVP
 70
    16
  9
$PINSBASE
 10
0.0
 20
0.0
 30
0.0
  9
$PLIMCHECK
 70
     0
  9
$PEXTMIN
 10
1.000000000000000E+20
 20
1.000000000000000E+20
 30
1.000000000000000E+20
  9
$PEXTMAX
 10
-1.000000000000000E+20
 20
-1.000000000000000E+20
 30
-1.000000000000000E+20
  9
$PLIMMIN
 10
0.0
 20
0.0
  9
$PLIMMAX
 10
12.0
 20
9.0
  9
$UNITMODE
 70
     0
  9
$VISRETAIN
 70
     0
  9
$PLINEGEN
 70
     1
  9
$PSLTSCALE
 70
     0
  9
$TREEDEPTH
 70
  3020
  9
$CMLSTYLE
  2
Standard
  9
$CMLJUST
 70
     0
  9
$CMLSCALE
 40
1.0
  9
$PROXYGRAPHICS
 70
     0
  9
$MEASUREMENT
 70
     1
  9
$CELWEIGHT
370
    -1
  9
$ENDCAPS
280
     0
  9
$JOINSTYLE
280
     0
  9
$LWDISPLAY
290
     0
  9
$INSUNITS
 70
     0
  9
$HYPERLINKBASE
  1

  9
$STYLESHEET
  1

  9
$XEDIT
290
     1
  9
$CEPSNTYPE
380
     0
  9
$PSTYLEMODE
290
     1
  9
$FINGERPRINTGUID
  2

  9
$VERSIONGUID
  2
{39ED5F07-1A6B-412F-9C10-C733CA6F4D92}
  9
$EXTNAMES
290
     1
  9
$PSVPSCALE
 40
0.0
  9
$OLESTARTUP
290
     0
  0
ENDSEC
  0
SECTION
  2
CLASSES
  0
CLASS
  1
IMAGE
  2
AcDbRasterImage
  3
ISM
 90
    34943
280
     0
281
     1
  0
CLASS
  1
DICTIONARYVAR
  2
AcDbDictionaryVar
  3
ObjectDBX Classes
 90
        0
280
     0
281
     0
  0
CLASS
  1
RASTERVARIABLES
  2
AcDbRasterVariables
  3
ISM
 90
    32768
280
     0
281
     0
  0
CLASS
  1
IMAGEDEF
  2
AcDbRasterImageDef
  3
ISM
 90
    32768
280
     0
281
     0
  0
CLASS
  1
IMAGEDEF_REACTOR
  2
AcDbRasterImageDefReactor
  3
ISM
 90
    32769
280
     0
281
     0
  0
CLASS
  1
IDBUFFER
  2
AcDbIdBuffer
  3
ObjectDBX Classes
 90
    32768
280
     0
281
     0
  0
CLASS
  1
SPATIAL_FILTER
  2
AcDbSpatialFilter
  3
ObjectDBX Classes
 90
    32768
280
     0
281
     0
  0
CLASS
  1
SORTENTSTABLE
  2
AcDbSortentsTable
  3
ObjectDBX Classes
 90
    32768
280
     0
281
     0
  0
CLASS
  1
LAYER_INDEX
  2
AcDbLayerIndex
  3
ObjectDBX Classes
 90
    32768
280
     0
281
     0
  0
CLASS
  1
SPATIAL_INDEX
  2
AcDbSpatialIndex
  3
ObjectDBX Classes
 90
    32768
280
     0
281
     0
  0
CLASS
  1
OBJECT_PTR
  2
CAseDLPNTableRecord
  3
"ASE-LPNTableRecord"
 90
    32769
280
     0
281
     0
  0
CLASS
  1
PLOTSETTINGS
  2
AcDbPlotSettings
  3
ObjectDBX Classes
 90
    32768
280
     0
281
     0
  0
CLASS
  1
ACDBDICTIONARYWDFLT
  2
AcDbDictionaryWithDefault
  3
ObjectDBX Classes
 90
        0
280
     0
281
     0
  0
CLASS
  1
WIPEOUT
  2
AcDbWipeout
  3
WipeOut|Product Desc: Object Enabler for WipeOut entity | Company: Autodesk, Inc. | WEB Address: www.autodesk.com
 90
    34943
280
     0
281
     1
  0
CLASS
  1
WIPEOUTVARIABLES
  2
AcDbWipeoutVariables
  3
"WipeOut|Product Desc:     WipeOut Dbx Application|Company:          Autodesk, Inc.|WEB Address:      www.autodesk.com"
 90
        0
280
     0
281
     0
  0
CLASS
  1
RTEXT
  2
RText
  3
RText|AutoCAD Express Tool|expresstools@autodesk.com
 90
    32768
280
     0
281
     1
  0
CLASS
  1
ARCALIGNEDTEXT
  2
AcDbArcAlignedText
  3
ATEXT|AutoCAD Express Tool|expresstools@autodesk.com
 90
    32768
280
     0
281
     1
  0
CLASS
  1
ACDBPLACEHOLDER
  2
AcDbPlaceHolder
  3
ObjectDBX Classes
 90
        0
280
     0
281
     0
  0
CLASS
  1
LAYOUT
  2
AcDbLayout
  3
ObjectDBX Classes
 90
        0
280
     0
281
     0
  0
CLASS
  1
MATERIAL
  2
AcDbMaterial
  3
ObjectDBX Classes
 90
     1153
280
     0
281
     0
  0
CLASS
  1
VISUALSTYLE
  2
AcDbVisualStyle
  3
ObjectDBX Classes
 90
     4095
280
     0
281
     0
  0
CLASS
  1
TABLESTYLE
  2
AcDbTableStyle
  3
ObjectDBX Classes
 90
     4095
280
     0
281
     0
  0
CLASS
  1
SCALE
  2
AcDbScale
  3
ObjectDBX Classes
 90
     1153
280
     0
281
     0
  0
CLASS
  1
MLEADERSTYLE
  2
AcDbMLeaderStyle
  3
ACDB_MLEADERSTYLE_CLASS
 90
     4095
280
     0
281
     0
  0
CLASS
  1
ACDBSECTIONVIEWSTYLE
  2
AcDbSectionViewStyle
  3
ObjectDBX Classes
 90
     1025
280
     0
281
     0
  0
CLASS
  1
ACDBDETAILVIEWSTYLE
  2
AcDbDetailViewStyle
  3
ObjectDBX Classes
 90
     1025
280
     0
281
     0
  0
CLASS
  1
CELLSTYLEMAP
  2
AcDbCellStyleMap
  3
ObjectDBX Classes
 90
     1152
280
     0
281
     0
  0
ENDSEC
  0
SECTION
  2
TABLES
  0
TABLE
  2
VPORT
  5
7
330
0
100
AcDbSymbolTable
 70
     1
  0
VPORT
  5
751
330
7
100
AcDbSymbolTableRecord
100
AcDbViewportTableRecord
  2
*Active
 70
     0
 10
0.0
 20
0.0
 11
1.0
 21
1.0
 12
262.9633454846609
 22
59.94889098896615
 13
0.0
 23
0.0
 14
1.0
 24
1.0
 15
0.0
 25
0.0
 16
0.0
 26
0.0
 36
1.0
 17
0.0
 27
0.0
 37
0.0
 40
550.4619833493548
 41
1.472990777338603
 42
50.0
 43
0.0
 44
0.0
 50
0.0
 51
0.0
 71
     0
 72
   100
 73
     1
 74
     1
 75
     0
 76
     0
 77
     0
 78
     0
281
     0
 65
     0
110
0.0
120
0.0
130
0.0
111
1.0
121
0.0
131
0.0
112
0.0
122
1.0
132
0.0
 79
     0
146
0.0
1001
ACAD_NAV_VCDISPLAY
1070
     3
  0
ENDTAB
  0
TABLE
  2
LTYPE
  5
4
330
0
100
AcDbSymbolTable
 70
     4
  0
LTYPE
  5
11
330
4
100
AcDbSymbolTableRecord
100
AcDbLinetypeTableRecord
  2
ByBlock
 70
     0
  3

 72
    65
 73
     0
 40
0.0
  0
LTYPE
  5
12
330
4
100
AcDbSymbolTableRecord
100
AcDbLinetypeTableRecord
  2
ByLayer
 70
     0
  3

 72
    65
 73
     0
 40
0.0
  0
LTYPE
  5
13
330
4
100
AcDbSymbolTableRecord
100
AcDbLinetypeTableRecord
  2
Continuous
 70
     0
  3
Solid line
 72
    65
 73
     0
 40
0.0
  0
LTYPE
  5
5B2
330
4
100
AcDbSymbolTableRecord
100
AcDbLinetypeTableRecord
  2
CENTER2
 70
     0
  3
----------  --  ----------  --  
 72
    65
 73
     4
 40
20.0
 49
12.5
 74
     0
 49
-2.5
 74
     0
 49
2.5
 74
     0
 49
-2.5
 74
     0
  0
LTYPE
  5
60D
330
4
100
AcDbSymbolTableRecord
100
AcDbLinetypeTableRecord
  2
DASHED2
 70
     0
  3
Dashed (.5x) _ _ _ _ _ _ _ _ _ _ _ _ _ _ _ _ _
 72
    65
 73
     2
 40
9.524999999999996
 49
6.349999999999997
 74
     0
 49
-3.174999999999998
 74
     0
  0
ENDTAB
  0
TABLE
  2
LAYER
  5
2
330
0
100
AcDbSymbolTable
 70
     6
  0
LAYER
  5
14
102
{ACAD_XDICTIONARY
360
7D7
102
}
330
2
100
AcDbSymbolTableRecord
100
AcDbLayerTableRecord
  2
0
 70
     0
 62
     2
  6
Continuous
370
    -3
390
1D
  0
LAYER
  5
5B3
102
{ACAD_XDICTIONARY
360
7D9
102
}
330
2
100
AcDbSymbolTableRecord
100
AcDbLayerTableRecord
  2
waku
 70
     0
 62
     7
  6
Continuous
370
    -3
390
1D
  0
LAYER
  5
5B4
102
{ACAD_XDICTIONARY
360
7DB
102
}
330
2
100
AcDbSymbolTableRecord
100
AcDbLayerTableRecord
  2
moji
 70
     0
 62
     3
  6
Continuous
370
    -3
390
1D
  0
LAYER
  5
5B5
102
{ACAD_XDICTIONARY
360
7DD
102
}
330
2
100
AcDbSymbolTableRecord
100
AcDbLayerTableRecord
  2
hyou
 70
     0
 62
     4
  6
Continuous
370
    -3
390
1D
  0
LAYER
  5
5B6
330
2
100
AcDbSymbolTableRecord
100
AcDbLayerTableRecord
  2
Defpoints
 70
     0
 62
   113
  6
Continuous
290
     0
370
    -3
390
1D
  0
LAYER
  5
5B7
102
{ACAD_XDICTIONARY
360
7DF
102
}
330
2
100
AcDbSymbolTableRecord
100
AcDbLayerTableRecord
  2
Dim
 70
     0
 62
     4
  6
Continuous
370
    -3
390
1D
  0
ENDTAB
  0
TABLE
  2
STYLE
  5
3
330
0
100
AcDbSymbolTable
 70
     2
  0
STYLE
  5
17
330
3
100
AcDbSymbolTableRecord
100
AcDbTextStyleTableRecord
  2
Standard
 70
     0
 40
0.0
 41
1.0
 50
0.0
 71
     0
 42
0.0
  3
txt.shx
  4
bigfont.shx
  0
STYLE
  5
24
330
3
100
AcDbSymbolTableRecord
100
AcDbTextStyleTableRecord
  2
STD
 70
     0
 40
0.0
 41
1.0
 50
0.0
 71
     0
 42
0.0
  3
txt
  4

  0
ENDTAB
  0
TABLE
  2
VIEW
  5
5
330
0
100
AcDbSymbolTable
 70
     0
  0
ENDTAB
  0
TABLE
  2
UCS
  5
6
330
0
100
AcDbSymbolTable
 70
     0
  0
ENDTAB
  0
TABLE
  2
APPID
  5
8
330
0
100
AcDbSymbolTable
 70
     4
  0
APPID
  5
16
330
8
100
AcDbSymbolTableRecord
100
AcDbRegAppTableRecord
  2
ACAD
 70
     0
  0
APPID
  5
7AC
330
8
100
AcDbSymbolTableRecord
100
AcDbRegAppTableRecord
  2
ACAD_EXEMPT_FROM_CAD_STANDARDS
 70
     0
  0
APPID
  5
7EB
330
8
100
AcDbSymbolTableRecord
100
AcDbRegAppTableRecord
  2
ACAD_NAV_VCDISPLAY
 70
     0
  0
APPID
  5
829
330
8
100
AcDbSymbolTableRecord
100
AcDbRegAppTableRecord
  2
ACAD_MLEADERVER
 70
     0
  0
ENDTAB
  0
TABLE
  2
DIMSTYLE
  5
9
330
0
100
AcDbSymbolTable
 70
     3
100
AcDbDimStyleTable
 71
     2
340
632
340
18
  0
DIMSTYLE
105
18
330
9
100
AcDbSymbolTableRecord
100
AcDbDimStyleTableRecord
  2
Standard
 70
     0
340
17
  0
DIMSTYLE
105
632
102
{ACAD_REACTORS
330
612
330
64E
330
65B
330
668
330
68D
330
6B8
330
6DB
330
6F1
330
6FE
330
7B3
330
7C0
102
}
330
9
100
AcDbSymbolTableRecord
100
AcDbDimStyleTableRecord
  2
1-3
 70
     0
 40
30.0
 44
0.1
 73
     0
 74
     0
 77
     1
140
0.3
141
0.0
147
0.05
271
     0
272
     0
340
17
341
5A0
342
5A0
  0
ENDTAB
  0
TABLE
  2
BLOCK_RECORD
  5
1
330
0
100
AcDbSymbolTable
 70
    13
  0
BLOCK_RECORD
  5
A
330
1
100
AcDbSymbolTableRecord
100
AcDbBlockTableRecord
  2
*MODEL_SPACE
340
20
  0
BLOCK_RECORD
  5
B
330
1
100
AcDbSymbolTableRecord
100
AcDbBlockTableRecord
  2
*PAPER_SPACE
340
21
  0
BLOCK_RECORD
  5
5A0
330
1
100
AcDbSymbolTableRecord
100
AcDbBlockTableRecord
  2
_Open30
340
0
102
{BLKREFS
331
648
331
649
331
66D
331
66E
331
6F6
331
6F7
331
653
331
654
331
660
331
661
331
6A8
331
6A9
331
6D5
331
6D6
331
703
331
704
331
726
331
728
331
72C
331
72E
331
730
331
732
331
734
331
736
331
738
331
73A
331
73C
331
73E
331
74F
331
7D0
331
7D1
331
7BA
331
7BB
331
7C7
331
7C8
102
}
  0
BLOCK_RECORD
  5
613
330
1
100
AcDbSymbolTableRecord
100
AcDbBlockTableRecord
  2
*D1
340
0
  0
BLOCK_RECORD
  5
64F
330
1
100
AcDbSymbolTableRecord
100
AcDbBlockTableRecord
  2
*D2
340
0
  0
BLOCK_RECORD
  5
65C
330
1
100
AcDbSymbolTableRecord
100
AcDbBlockTableRecord
  2
*D3
340
0
  0
BLOCK_RECORD
  5
669
330
1
100
AcDbSymbolTableRecord
100
AcDbBlockTableRecord
  2
*D4
340
0
  0
BLOCK_RECORD
  5
68E
330
1
100
AcDbSymbolTableRecord
100
AcDbBlockTableRecord
  2
*D5
340
0
  0
BLOCK_RECORD
  5
6B9
330
1
100
AcDbSymbolTableRecord
100
AcDbBlockTableRecord
  2
*D6
340
0
  0
BLOCK_RECORD
  5
6DC
330
1
100
AcDbSymbolTableRecord
100
AcDbBlockTableRecord
  2
*D7
340
0
  0
BLOCK_RECORD
  5
6F2
330
1
100
AcDbSymbolTableRecord
100
AcDbBlockTableRecord
  2
*D8
340
0
  0
BLOCK_RECORD
  5
6FF
330
1
100
AcDbSymbolTableRecord
100
AcDbBlockTableRecord
  2
*D9
340
0
  0
BLOCK_RECORD
  5
7B4
330
1
100
AcDbSymbolTableRecord
100
AcDbBlockTableRecord
  2
*D11
340
0
  0
BLOCK_RECORD
  5
7C1
330
1
100
AcDbSymbolTableRecord
100
AcDbBlockTableRecord
  2
*D12
340
0
  0
ENDTAB
  0
ENDSEC
  0
SECTION
  2
BLOCKS
  0
BLOCK
  5
D
330
A
100
AcDbEntity
  8
0
100
AcDbBlockBegin
  2
*MODEL_SPACE
 70
     0
 10
0.0
 20
0.0
 30
0.0
  3
*MODEL_SPACE
  1

  0
ENDBLK
  5
E
330
A
100
AcDbEntity
  8
0
100
AcDbBlockEnd
  0
BLOCK
  5
F
330
B
100
AcDbEntity
 67
     1
  8
0
100
AcDbBlockBegin
  2
*PAPER_SPACE
 70
     0
 10
0.0
 20
0.0
 30
0.0
  3
*PAPER_SPACE
  1

  0
ENDBLK
  5
10
330
B
100
AcDbEntity
 67
     1
  8
0
100
AcDbBlockEnd
  0
BLOCK
  5
5A1
330
5A0
100
AcDbEntity
  8
0
100
AcDbBlockBegin
  2
_Open30
 70
     0
 10
0.0
 20
0.0
 30
0.0
  3
_Open30
  1

  0
LINE
  5
5A2
330
5A0
100
AcDbEntity
  8
0
  6
ByBlock
 62
     0
370
    -2
100
AcDbLine
 10
-1.0
 20
0.26794919
 30
0.0
 11
0.0
 21
0.0
 31
0.0
  0
LINE
  5
5A3
330
5A0
100
AcDbEntity
  8
0
  6
ByBlock
 62
     0
370
    -2
100
AcDbLine
 10
0.0
 20
0.0
 30
0.0
 11
-1.0
 21
-0.26794919
 31
0.0
  0
LINE
  5
5A4
330
5A0
100
AcDbEntity
  8
0
  6
ByBlock
 62
     0
370
    -2
100
AcDbLine
 10
0.0
 20
0.0
 30
0.0
 11
-1.0
 21
0.0
 31
0.0
  0
ENDBLK
  5
5A5
330
5A0
100
AcDbEntity
  8
0
100
AcDbBlockEnd
  0
BLOCK
  5
61E
330
613
100
AcDbEntity
  8
0
100
AcDbBlockBegin
  2
*D1
 70
     1
 10
0.0
 20
0.0
 30
0.0
  3
*D1
  1

  0
LINE
  5
645
330
613
100
AcDbEntity
  8
Dim
 62
     0
370
    -2
100
AcDbLine
 10
74.87210775612794
 20
116.8415446859605
 30
0.0
 11
108.7610015551785
 21
116.8415446859605
 31
0.0
  0
LINE
  5
646
330
613
100
AcDbEntity
  8
Dim
 62
     0
370
    -2
100
AcDbLine
 10
74.87210775612794
 20
-1.17614768507289
 30
0.0
 11
108.7610015551785
 21
-1.1761476850729
 31
0.0
  0
LINE
  5
647
330
613
100
AcDbEntity
  8
Dim
 62
     0
370
    -2
100
AcDbLine
 10
105.7610015551785
 20
111.4415446859605
 30
0.0
 11
105.7610015551785
 21
4.2238523149271
 31
0.0
  0
INSERT
  5
648
330
613
100
AcDbEntity
  8
Dim
 62
     0
370
    -2
100
AcDbBlockReference
  2
_Open30
 10
105.7610015551785
 20
116.8415446859605
 30
0.0
 41
5.399999999999997
 42
5.399999999999997
 43
5.399999999999997
 50
90.0
  0
INSERT
  5
649
330
613
100
AcDbEntity
  8
Dim
 62
     0
370
    -2
100
AcDbBlockReference
  2
_Open30
 10
105.7610015551785
 20
-1.176147685072899
 30
0.0
 41
5.399999999999997
 42
5.399999999999997
 43
5.399999999999997
 50
270.0
  0
MTEXT
  5
64A
330
613
100
AcDbEntity
  8
Dim
 62
     0
100
AcDbMText
 10
99.76100155517849
 20
57.83269850044381
 30
0.0
 40
9.0
 41
0.0
 71
     5
 72
     1
  1
\A1;118
 11
0.0000000000000001
 21
1.0
 31
0.0
 73
     1
 44
1.0
1001
ACAD
1000
MTEXTBEGIN
1070
    73
1070
     1
1070
    44
1040
1.0
1070
    74
1070
     0
1000
MTEXTEND
  0
POINT
  5
64B
330
613
100
AcDbEntity
  8
Defpoints
 62
     0
100
AcDbPoint
 10
72.99710775612794
 20
116.8415446859605
 30
0.0
  0
POINT
  5
64C
330
613
100
AcDbEntity
  8
Defpoints
 62
     0
100
AcDbPoint
 10
72.99710775612794
 20
-1.17614768507289
 30
0.0
  0
POINT
  5
64D
330
613
100
AcDbEntity
  8
Defpoints
 62
     0
100
AcDbPoint
 10
105.7610015551785
 20
-1.176147685072899
 30
0.0
  0
ENDBLK
  5
61F
330
613
100
AcDbEntity
  8
0
100
AcDbBlockEnd
  0
BLOCK
  5
659
330
64F
100
AcDbEntity
  8
0
100
AcDbBlockBegin
  2
*D2
 70
     1
 10
0.0
 20
0.0
 30
0.0
  3
*D2
  1

  0
LINE
  5
650
330
64F
100
AcDbEntity
  8
Dim
 62
     0
370
    -2
100
AcDbLine
 10
77.11468
 20
130.3667199999999
 30
0.0
 11
132.4593318026314
 21
130.3667199999999
 31
0.0
  0
LINE
  5
651
330
64F
100
AcDbEntity
  8
Dim
 62
     0
370
    -2
100
AcDbLine
 10
77.11468
 20
-14.64716540752975
 30
0.0
 11
132.4593318026314
 21
-14.64716540752976
 31
0.0
  0
LINE
  5
652
330
64F
100
AcDbEntity
  8
Dim
 62
     0
370
    -2
100
AcDbLine
 10
129.4593318026314
 20
124.9667199999999
 30
0.0
 11
129.4593318026314
 21
-9.247165407529767
 31
0.0
  0
INSERT
  5
653
330
64F
100
AcDbEntity
  8
Dim
 62
     0
370
    -2
100
AcDbBlockReference
  2
_Open30
 10
129.4593318026314
 20
130.3667199999999
 30
0.0
 41
5.399999999999997
 42
5.399999999999997
 43
5.399999999999997
 50
90.0
  0
INSERT
  5
654
330
64F
100
AcDbEntity
  8
Dim
 62
     0
370
    -2
100
AcDbBlockReference
  2
_Open30
 10
129.4593318026314
 20
-14.64716540752976
 30
0.0
 41
5.399999999999997
 42
5.399999999999997
 43
5.399999999999997
 50
270.0
  0
MTEXT
  5
655
330
64F
100
AcDbEntity
  8
Dim
 62
     0
100
AcDbMText
 10
123.4593318026314
 20
57.85977729623509
 30
0.0
 40
9.0
 41
0.0
 71
     5
 72
     1
  1
\A1;145
 11
0.0000000000000001
 21
1.0
 31
0.0
 73
     1
 44
1.0
1001
ACAD
1000
MTEXTBEGIN
1070
    73
1070
     1
1070
    44
1040
1.0
1070
    74
1070
     0
1000
MTEXTEND
  0
POINT
  5
656
330
64F
100
AcDbEntity
  8
Defpoints
 62
     0
100
AcDbPoint
 10
75.23968
 20
130.3667199999999
 30
0.0
  0
POINT
  5
657
330
64F
100
AcDbEntity
  8
Defpoints
 62
     0
100
AcDbPoint
 10
75.23968
 20
-14.64716540752975
 30
0.0
  0
POINT
  5
658
330
64F
100
AcDbEntity
  8
Defpoints
 62
     0
100
AcDbPoint
 10
129.4593318026314
 20
-14.64716540752976
 30
0.0
  0
ENDBLK
  5
65A
330
64F
100
AcDbEntity
  8
0
100
AcDbBlockEnd
  0
BLOCK
  5
666
330
65C
100
AcDbEntity
  8
0
100
AcDbBlockBegin
  2
*D3
 70
     1
 10
0.0
 20
0.0
 30
0.0
  3
*D3
  1

  0
LINE
  5
65D
330
65C
100
AcDbEntity
  8
Dim
 62
     0
370
    -2
100
AcDbLine
 10
-52.52070917005076
 20
-10.55127492727303
 30
0.0
 11
-52.52070917005076
 21
-68.37825950871732
 31
0.0
  0
LINE
  5
65E
330
65C
100
AcDbEntity
  8
Dim
 62
     0
370
    -2
100
AcDbLine
 10
65.4969805139278
 20
-10.55127492727303
 30
0.0
 11
65.4969805139278
 21
-68.37825950871732
 31
0.0
  0
LINE
  5
65F
330
65C
100
AcDbEntity
  8
Dim
 62
     0
370
    -2
100
AcDbLine
 10
-47.12070917005075
 20
-65.37825950871732
 30
0.0
 11
60.0969805139278
 21
-65.37825950871732
 31
0.0
  0
INSERT
  5
660
330
65C
100
AcDbEntity
  8
Dim
 62
     0
370
    -2
100
AcDbBlockReference
  2
_Open30
 10
-52.52070917005076
 20
-65.37825950871732
 30
0.0
 41
5.399999999999997
 42
5.399999999999997
 43
5.399999999999997
 50
180.0
  0
INSERT
  5
661
330
65C
100
AcDbEntity
  8
Dim
 62
     0
370
    -2
100
AcDbBlockReference
  2
_Open30
 10
65.4969805139278
 20
-65.37825950871732
 30
0.0
 41
5.399999999999997
 42
5.399999999999997
 43
5.399999999999997
  0
MTEXT
  5
662
330
65C
100
AcDbEntity
  8
Dim
 62
     0
100
AcDbMText
 10
6.488135671938517
 20
-59.37825950871732
 30
0.0
 40
9.0
 41
0.0
 71
     5
 72
     1
  1
\A1;118
 73
     1
 44
1.0
1001
ACAD
1000
MTEXTBEGIN
1070
    73
1070
     1
1070
    44
1040
1.0
1070
    74
1070
     0
1000
MTEXTEND
  0
POINT
  5
663
330
65C
100
AcDbEntity
  8
Defpoints
 62
     0
100
AcDbPoint
 10
-52.52070917005076
 20
-8.676274927273045
 30
0.0
  0
POINT
  5
664
330
65C
100
AcDbEntity
  8
Defpoints
 62
     0
100
AcDbPoint
 10
65.4969805139278
 20
-8.676274927273045
 30
0.0
  0
POINT
  5
665
330
65C
100
AcDbEntity
  8
Defpoints
 62
     0
100
AcDbPoint
 10
65.4969805139278
 20
-65.37825950871732
 30
0.0
  0
ENDBLK
  5
667
330
65C
100
AcDbEntity
  8
0
100
AcDbBlockEnd
  0
BLOCK
  5
673
330
669
100
AcDbEntity
  8
0
100
AcDbBlockBegin
  2
*D4
 70
     1
 10
0.0
 20
0.0
 30
0.0
  3
*D4
  1

  0
LINE
  5
66A
330
669
100
AcDbEntity
  8
Dim
 62
     0
370
    -2
100
AcDbLine
 10
-65.76354219009174
 20
-12.52307264850674
 30
0.0
 11
-65.76354219009174
 21
-85.55584644516896
 31
0.0
  0
LINE
  5
66B
330
669
100
AcDbEntity
  8
Dim
 62
     0
370
    -2
100
AcDbLine
 10
79.24016196640825
 20
-12.51196436353511
 30
0.0
 11
79.24016196640825
 21
-85.55584644516896
 31
0.0
  0
LINE
  5
66C
330
669
100
AcDbEntity
  8
Dim
 62
     0
370
    -2
100
AcDbLine
 10
-60.36354219009174
 20
-82.55584644516895
 30
0.0
 11
73.84016196640825
 21
-82.55584644516895
 31
0.0
  0
INSERT
  5
66D
330
669
100
AcDbEntity
  8
Dim
 62
     0
370
    -2
100
AcDbBlockReference
  2
_Open30
 10
-65.76354219009174
 20
-82.55584644516895
 30
0.0
 41
5.399999999999997
 42
5.399999999999997
 43
5.399999999999997
 50
180.0
  0
INSERT
  5
66E
330
669
100
AcDbEntity
  8
Dim
 62
     0
370
    -2
100
AcDbBlockReference
  2
_Open30
 10
79.24016196640825
 20
-82.55584644516895
 30
0.0
 41
5.399999999999997
 42
5.399999999999997
 43
5.399999999999997
  0
MTEXT
  5
66F
330
669
100
AcDbEntity
  8
Dim
 62
     0
100
AcDbMText
 10
6.738309888158251
 20
-76.55584644516896
 30
0.0
 40
9.0
 41
0.0
 71
     5
 72
     1
  1
\A1;145
 73
     1
 44
1.0
1001
ACAD
1000
MTEXTBEGIN
1070
    73
1070
     1
1070
    44
1040
1.0
1070
    74
1070
     0
1000
MTEXTEND
  0
POINT
  5
670
330
669
100
AcDbEntity
  8
Defpoints
 62
     0
100
AcDbPoint
 10
-65.76354219009174
 20
-10.64807264850674
 30
0.0
  0
POINT
  5
671
330
669
100
AcDbEntity
  8
Defpoints
 62
     0
100
AcDbPoint
 10
79.24016196640825
 20
-10.6369643635351
 30
0.0
  0
POINT
  5
672
330
669
100
AcDbEntity
  8
Defpoints
 62
     0
100
AcDbPoint
 10
79.24016196640825
 20
-82.55584644516895
 30
0.0
  0
ENDBLK
  5
674
330
669
100
AcDbEntity
  8
0
100
AcDbBlockEnd
  0
BLOCK
  5
698
330
68E
100
AcDbEntity
  8
0
100
AcDbBlockBegin
  2
*D5
 70
     1
 10
0.0
 20
0.0
 30
0.0
  3
*D5
  1

  0
LINE
  5
6A4
330
68E
100
AcDbEntity
  8
Dim
 62
     0
370
    -2
100
AcDbLine
 10
168.8217061968608
 20
134.8314094691928
 30
0.0
 11
168.8217061968608
 21
172.7304809145596
 31
0.0
  0
LINE
  5
6A5
330
68E
100
AcDbEntity
  8
Dim
 62
     0
370
    -2
100
AcDbLine
 10
185.4105379074889
 20
134.8314094691928
 30
0.0
 11
185.4105379074889
 21
172.7304809145596
 31
0.0
  0
LINE
  5
6A6
330
68E
100
AcDbEntity
  8
Dim
 62
     0
370
    -2
100
AcDbLine
 10
174.2217061968608
 20
169.7304809145596
 30
0.0
 11
180.0105379074889
 21
169.7304809145596
 31
0.0
  0
LINE
  5
6A7
330
68E
100
AcDbEntity
  8
Dim
 62
     0
370
    -2
100
AcDbLine
 10
185.4105379074889
 20
169.7304809145596
 30
0.0
 11
217.8105379074889
 21
169.7304809145596
 31
0.0
  0
INSERT
  5
6A8
330
68E
100
AcDbEntity
  8
Dim
 62
     0
370
    -2
100
AcDbBlockReference
  2
_Open30
 10
168.8217061968608
 20
169.7304809145596
 30
0.0
 41
5.399999999999997
 42
5.399999999999997
 43
5.399999999999997
 50
180.0
  0
INSERT
  5
6A9
330
68E
100
AcDbEntity
  8
Dim
 62
     0
370
    -2
100
AcDbBlockReference
  2
_Open30
 10
185.4105379074889
 20
169.7304809145596
 30
0.0
 41
5.399999999999997
 42
5.399999999999997
 43
5.399999999999997
  0
MTEXT
  5
6AA
330
68E
100
AcDbEntity
  8
Dim
 62
     0
100
AcDbMText
 10
204.3105379074889
 20
175.7304809145596
 30
0.0
 40
9.0
 41
0.0
 71
     5
 72
     1
  1
\A1;(17)
 73
     1
 44
1.0
1001
ACAD
1000
MTEXTBEGIN
1070
    73
1070
     1
1070
    44
1040
1.0
1070
    74
1070
     0
1000
MTEXTEND
  0
POINT
  5
6AB
330
68E
100
AcDbEntity
  8
Defpoints
 62
     0
100
AcDbPoint
 10
168.8217061968608
 20
132.9564094691928
 30
0.0
  0
POINT
  5
6AC
330
68E
100
AcDbEntity
  8
Defpoints
 62
     0
100
AcDbPoint
 10
185.4105379074889
 20
132.9564094691928
 30
0.0
  0
POINT
  5
6AD
330
68E
100
AcDbEntity
  8
Defpoints
 62
     0
100
AcDbPoint
 10
185.4105379074889
 20
169.7304809145596
 30
0.0
  0
ENDBLK
  5
699
330
68E
100
AcDbEntity
  8
0
100
AcDbBlockEnd
  0
BLOCK
  5
6C4
330
6B9
100
AcDbEntity
  8
0
100
AcDbBlockBegin
  2
*D6
 70
     1
 10
0.0
 20
0.0
 30
0.0
  3
*D6
  1

  0
LINE
  5
6D0
330
6B9
100
AcDbEntity
  8
Dim
 62
     0
370
    -2
100
AcDbLine
 10
333.7630191693463
 20
132.2370902044009
 30
0.0
 11
333.7630191693463
 21
148.3170339973851
 31
0.0
  0
LINE
  5
6D1
330
6B9
100
AcDbEntity
  8
Dim
 62
     0
370
    -2
100
AcDbLine
 10
336.2300499562985
 20
132.2417199999999
 30
0.0
 11
336.2300499562985
 21
148.3170339973851
 31
0.0
  0
LINE
  5
6D2
330
6B9
100
AcDbEntity
  8
Dim
 62
     0
370
    -2
100
AcDbLine
 10
328.3630191693463
 20
145.3170339973851
 30
0.0
 11
322.9630191693463
 21
145.3170339973851
 31
0.0
  0
LINE
  5
6D3
330
6B9
100
AcDbEntity
  8
Dim
 62
     0
370
    -2
100
AcDbLine
 10
341.6300499562985
 20
145.3170339973851
 30
0.0
 11
368.0300499562985
 21
145.3170339973851
 31
0.0
  0
LINE
  5
6D4
330
6B9
100
AcDbEntity
  8
Dim
 62
     0
370
    -2
100
AcDbLine
 10
333.7630191693463
 20
145.3170339973851
 30
0.0
 11
336.2300499562985
 21
145.3170339973851
 31
0.0
  0
INSERT
  5
6D5
330
6B9
100
AcDbEntity
  8
Dim
 62
     0
370
    -2
100
AcDbBlockReference
  2
_Open30
 10
333.7630191693463
 20
145.3170339973851
 30
0.0
 41
5.399999999999997
 42
5.399999999999997
 43
5.399999999999997
  0
INSERT
  5
6D6
330
6B9
100
AcDbEntity
  8
Dim
 62
     0
370
    -2
100
AcDbBlockReference
  2
_Open30
 10
336.2300499562985
 20
145.3170339973851
 30
0.0
 41
5.399999999999997
 42
5.399999999999997
 43
5.399999999999997
 50
180.0
  0
MTEXT
  5
6D7
330
6B9
100
AcDbEntity
  8
Dim
 62
     0
100
AcDbMText
 10
357.5300499562985
 20
151.3170339973851
 30
0.0
 40
9.0
 41
0.0
 71
     5
 72
     1
  1
\A1;2.5
 73
     1
 44
1.0
1001
ACAD
1000
MTEXTBEGIN
1070
    73
1070
     1
1070
    44
1040
1.0
1070
    74
1070
     0
1000
MTEXTEND
  0
POINT
  5
6D8
330
6B9
100
AcDbEntity
  8
Defpoints
 62
     0
100
AcDbPoint
 10
333.7630191693463
 20
130.3620902044009
 30
0.0
  0
POINT
  5
6D9
330
6B9
100
AcDbEntity
  8
Defpoints
 62
     0
100
AcDbPoint
 10
336.2300499562985
 20
130.3667199999999
 30
0.0
  0
POINT
  5
6DA
330
6B9
100
AcDbEntity
  8
Defpoints
 62
     0
100
AcDbPoint
 10
336.2300499562985
 20
145.3170339973851
 30
0.0
  0
ENDBLK
  5
6C5
330
6B9
100
AcDbEntity
  8
0
100
AcDbBlockEnd
  0
BLOCK
  5
6E6
330
6DC
100
AcDbEntity
  8
0
100
AcDbBlockBegin
  2
*D7
 70
     1
 10
0.0
 20
0.0
 30
0.0
  3
*D7
  1

  0
LINE
  5
7CD
330
6DC
100
AcDbEntity
  8
Dim
 62
     0
370
    -2
100
AcDbLine
 10
255.1636671308739
 20
106.3656768953242
 30
0.0
 11
301.0211207499994
 21
106.3656768953242
 31
0.0
  0
LINE
  5
7CE
330
6DC
100
AcDbEntity
  8
Dim
 62
     0
370
    -2
100
AcDbLine
 10
255.1636671308739
 20
9.364056261120893
 30
0.0
 11
301.0211207499994
 21
9.364056261120879
 31
0.0
  0
LINE
  5
7CF
330
6DC
100
AcDbEntity
  8
Dim
 62
     0
370
    -2
100
AcDbLine
 10
298.0211207499994
 20
100.9656768953242
 30
0.0
 11
298.0211207499994
 21
14.76405626112088
 31
0.0
  0
INSERT
  5
7D0
330
6DC
100
AcDbEntity
  8
Dim
 62
     0
370
    -2
100
AcDbBlockReference
  2
_Open30
 10
298.0211207499994
 20
106.3656768953242
 30
0.0
 41
5.399999999999999
 42
5.399999999999999
 43
5.399999999999999
 50
90.0
  0
INSERT
  5
7D1
330
6DC
100
AcDbEntity
  8
Dim
 62
     0
370
    -2
100
AcDbBlockReference
  2
_Open30
 10
298.0211207499994
 20
9.364056261120881
 30
0.0
 41
5.399999999999999
 42
5.399999999999999
 43
5.399999999999999
 50
270.0
  0
MTEXT
  5
7D2
330
6DC
100
AcDbEntity
  8
Dim
 62
     0
100
AcDbMText
 10
292.0211207499994
 20
57.86486657822258
 30
0.0
 40
9.0
 41
0.0
 71
     5
 72
     1
  1
\A1;\U+03C697
 11
0.0000000000000001
 21
1.0
 31
0.0
 73
     1
 44
1.0
1001
ACAD
1000
MTEXTBEGIN
1070
    73
1070
     1
1070
    44
1040
1.0
1070
    74
1070
     0
1000
MTEXTEND
  0
POINT
  5
7D3
330
6DC
100
AcDbEntity
  8
Defpoints
 62
     0
100
AcDbPoint
 10
253.2886671308739
 20
106.3656768953242
 30
0.0
  0
POINT
  5
7D4
330
6DC
100
AcDbEntity
  8
Defpoints
 62
     0
100
AcDbPoint
 10
253.2886671308739
 20
9.364056261120893
 30
0.0
  0
POINT
  5
7D5
330
6DC
100
AcDbEntity
  8
Defpoints
 62
     0
100
AcDbPoint
 10
298.0211207499994
 20
9.364056261120881
 30
0.0
  0
ENDBLK
  5
6E7
330
6DC
100
AcDbEntity
  8
0
100
AcDbBlockEnd
  0
BLOCK
  5
6FC
330
6F2
100
AcDbEntity
  8
0
100
AcDbBlockBegin
  2
*D8
 70
     1
 10
0.0
 20
0.0
 30
0.0
  3
*D8
  1

  0
LINE
  5
6F3
330
6F2
100
AcDbEntity
  8
Dim
 62
     0
370
    -2
100
AcDbLine
 10
163.2868487041096
 20
-12.52307264850674
 30
0.0
 11
163.2868487041096
 21
-83.32857350610263
 31
0.0
  0
LINE
  5
6F4
330
6F2
100
AcDbEntity
  8
Dim
 62
     0
370
    -2
100
AcDbLine
 10
203.2879656065349
 20
-16.51105712255818
 30
0.0
 11
203.2879656065349
 21
-83.32857350610263
 31
0.0
  0
LINE
  5
6F5
330
6F2
100
AcDbEntity
  8
Dim
 62
     0
370
    -2
100
AcDbLine
 10
168.6868487041096
 20
-80.32857350610262
 30
0.0
 11
197.8879656065349
 21
-80.32857350610262
 31
0.0
  0
INSERT
  5
6F6
330
6F2
100
AcDbEntity
  8
Dim
 62
     0
370
    -2
100
AcDbBlockReference
  2
_Open30
 10
163.2868487041096
 20
-80.32857350610262
 30
0.0
 41
5.399999999999997
 42
5.399999999999997
 43
5.399999999999997
 50
180.0
  0
INSERT
  5
6F7
330
6F2
100
AcDbEntity
  8
Dim
 62
     0
370
    -2
100
AcDbBlockReference
  2
_Open30
 10
203.2879656065349
 20
-80.32857350610262
 30
0.0
 41
5.399999999999997
 42
5.399999999999997
 43
5.399999999999997
  0
MTEXT
  5
6F8
330
6F2
100
AcDbEntity
  8
Dim
 62
     0
100
AcDbMText
 10
183.2874071553222
 20
-74.32857350610262
 30
0.0
 40
9.0
 41
0.0
 71
     5
 72
     1
  1
\A1;40
 73
     1
 44
1.0
1001
ACAD
1000
MTEXTBEGIN
1070
    73
1070
     1
1070
    44
1040
1.0
1070
    74
1070
     0
1000
MTEXTEND
  0
POINT
  5
6F9
330
6F2
100
AcDbEntity
  8
Defpoints
 62
     0
100
AcDbPoint
 10
163.2868487041096
 20
-10.64807264850674
 30
0.0
  0
POINT
  5
6FA
330
6F2
100
AcDbEntity
  8
Defpoints
 62
     0
100
AcDbPoint
 10
203.2879656065349
 20
-14.63605712255818
 30
0.0
  0
POINT
  5
6FB
330
6F2
100
AcDbEntity
  8
Defpoints
 62
     0
100
AcDbPoint
 10
203.2879656065349
 20
-80.32857350610262
 30
0.0
  0
ENDBLK
  5
6FD
330
6F2
100
AcDbEntity
  8
0
100
AcDbBlockEnd
  0
BLOCK
  5
709
330
6FF
100
AcDbEntity
  8
0
100
AcDbBlockBegin
  2
*D9
 70
     1
 10
0.0
 20
0.0
 30
0.0
  3
*D9
  1

  0
LINE
  5
700
330
6FF
100
AcDbEntity
  8
Dim
 62
     0
370
    -2
100
AcDbLine
 10
203.2879656065349
 20
-16.51105712255818
 30
0.0
 11
203.2879656065349
 21
-83.32857350610263
 31
0.0
  0
LINE
  5
701
330
6FF
100
AcDbEntity
  8
Dim
 62
     0
370
    -2
100
AcDbLine
 10
253.2886671308739
 20
7.489056261120892
 30
0.0
 11
253.2886671308739
 21
-83.32857350610263
 31
0.0
  0
LINE
  5
702
330
6FF
100
AcDbEntity
  8
Dim
 62
     0
370
    -2
100
AcDbLine
 10
208.6879656065349
 20
-80.32857350610262
 30
0.0
 11
247.8886671308739
 21
-80.32857350610262
 31
0.0
  0
INSERT
  5
703
330
6FF
100
AcDbEntity
  8
Dim
 62
     0
370
    -2
100
AcDbBlockReference
  2
_Open30
 10
203.2879656065349
 20
-80.32857350610262
 30
0.0
 41
5.399999999999997
 42
5.399999999999997
 43
5.399999999999997
 50
180.0
  0
INSERT
  5
704
330
6FF
100
AcDbEntity
  8
Dim
 62
     0
370
    -2
100
AcDbBlockReference
  2
_Open30
 10
253.2886671308739
 20
-80.32857350610262
 30
0.0
 41
5.399999999999997
 42
5.399999999999997
 43
5.399999999999997
  0
MTEXT
  5
705
330
6FF
100
AcDbEntity
  8
Dim
 62
     0
100
AcDbMText
 10
228.2883163687044
 20
-74.32857350610262
 30
0.0
 40
9.0
 41
0.0
 71
     5
 72
     1
  1
\A1;50
 73
     1
 44
1.0
1001
ACAD
1000
MTEXTBEGIN
1070
    73
1070
     1
1070
    44
1040
1.0
1070
    74
1070
     0
1000
MTEXTEND
  0
POINT
  5
706
330
6FF
100
AcDbEntity
  8
Defpoints
 62
     0
100
AcDbPoint
 10
203.2879656065349
 20
-14.63605712255818
 30
0.0
  0
POINT
  5
707
330
6FF
100
AcDbEntity
  8
Defpoints
 62
     0
100
AcDbPoint
 10
253.2886671308739
 20
9.364056261120893
 30
0.0
  0
POINT
  5
708
330
6FF
100
AcDbEntity
  8
Defpoints
 62
     0
100
AcDbPoint
 10
253.2886671308739
 20
-80.32857350610262
 30
0.0
  0
ENDBLK
  5
70A
330
6FF
100
AcDbEntity
  8
0
100
AcDbBlockEnd
  0
BLOCK
  5
7B5
330
7B4
100
AcDbEntity
  8
0
100
AcDbBlockBegin
  2
*D11
 70
     1
 10
0.0
 20
0.0
 30
0.0
  3
*D11
  1

  0
LINE
  5
7B7
330
7B4
100
AcDbEntity
  8
Dim
 62
     0
370
    -2
100
AcDbLine
 10
205.152784355505
 20
130.3667199999999
 30
0.0
 11
301.0211207499994
 21
130.3667199999999
 31
0.0
  0
LINE
  5
7B8
330
7B4
100
AcDbEntity
  8
Dim
 62
     0
370
    -2
100
AcDbLine
 10
205.1629656065349
 20
106.3656768953242
 30
0.0
 11
301.0211207499994
 21
106.3656768953242
 31
0.0
  0
LINE
  5
7B9
330
7B4
100
AcDbEntity
  8
Dim
 62
     0
370
    -2
100
AcDbLine
 10
298.0211207499994
 20
124.9667199999999
 30
0.0
 11
298.0211207499994
 21
111.7656768953242
 31
0.0
  0
INSERT
  5
7BA
330
7B4
100
AcDbEntity
  8
Dim
 62
     0
370
    -2
100
AcDbBlockReference
  2
_Open30
 10
298.0211207499995
 20
130.3667199999999
 30
0.0
 41
5.399999999999999
 42
5.399999999999999
 43
5.399999999999999
 50
90.0
  0
INSERT
  5
7BB
330
7B4
100
AcDbEntity
  8
Dim
 62
     0
370
    -2
100
AcDbBlockReference
  2
_Open30
 10
298.0211207499994
 20
106.3656768953242
 30
0.0
 41
5.399999999999999
 42
5.399999999999999
 43
5.399999999999999
 50
270.0
  0
MTEXT
  5
7BC
330
7B4
100
AcDbEntity
  8
Dim
 62
     0
100
AcDbMText
 10
292.0211207499994
 20
118.3661984476621
 30
0.0
 40
9.0
 41
0.0
 71
     5
 72
     1
  1
\A1;24
 11
0.0000000000000001
 21
1.0
 31
0.0
 73
     1
 44
1.0
1001
ACAD
1000
MTEXTBEGIN
1070
    73
1070
     1
1070
    44
1040
1.0
1070
    74
1070
     0
1000
MTEXTEND
  0
POINT
  5
7BD
330
7B4
100
AcDbEntity
  8
Defpoints
 62
     0
100
AcDbPoint
 10
203.277784355505
 20
130.3667199999999
 30
0.0
  0
POINT
  5
7BE
330
7B4
100
AcDbEntity
  8
Defpoints
 62
     0
100
AcDbPoint
 10
203.2879656065349
 20
106.3656768953242
 30
0.0
  0
POINT
  5
7BF
330
7B4
100
AcDbEntity
  8
Defpoints
 62
     0
100
AcDbPoint
 10
298.0211207499994
 20
106.3656768953242
 30
0.0
  0
ENDBLK
  5
7B6
330
7B4
100
AcDbEntity
  8
0
100
AcDbBlockEnd
  0
BLOCK
  5
7C2
330
7C1
100
AcDbEntity
  8
0
100
AcDbBlockBegin
  2
*D12
 70
     1
 10
0.0
 20
0.0
 30
0.0
  3
*D12
  1

  0
LINE
  5
7C4
330
7C1
100
AcDbEntity
  8
Dim
 62
     0
370
    -2
100
AcDbLine
 10
205.1629656065349
 20
-14.63605712255818
 30
0.0
 11
301.0211207499994
 21
-14.6360571225582
 31
0.0
  0
LINE
  5
7C5
330
7C1
100
AcDbEntity
  8
Dim
 62
     0
370
    -2
100
AcDbLine
 10
205.1629656065349
 20
9.364056261120891
 30
0.0
 11
301.0211207499994
 21
9.364056261120865
 31
0.0
  0
LINE
  5
7C6
330
7C1
100
AcDbEntity
  8
Dim
 62
     0
370
    -2
100
AcDbLine
 10
298.0211207499994
 20
-9.236057122558205
 30
0.0
 11
298.0211207499994
 21
3.964056261120866
 31
0.0
  0
INSERT
  5
7C7
330
7C1
100
AcDbEntity
  8
Dim
 62
     0
370
    -2
100
AcDbBlockReference
  2
_Open30
 10
298.0211207499994
 20
-14.6360571225582
 30
0.0
 41
5.399999999999999
 42
5.399999999999999
 43
5.399999999999999
 50
270.0
  0
INSERT
  5
7C8
330
7C1
100
AcDbEntity
  8
Dim
 62
     0
370
    -2
100
AcDbBlockReference
  2
_Open30
 10
298.0211207499994
 20
9.364056261120866
 30
0.0
 41
5.399999999999999
 42
5.399999999999999
 43
5.399999999999999
 50
90.0
  0
MTEXT
  5
7C9
330
7C1
100
AcDbEntity
  8
Dim
 62
     0
100
AcDbMText
 10
292.0211207499994
 20
-2.63600043071862
 30
0.0
 40
9.0
 41
0.0
 71
     5
 72
     1
  1
\A1;24
 11
0.0000000000000001
 21
1.0
 31
0.0
 73
     1
 44
1.0
1001
ACAD
1000
MTEXTBEGIN
1070
    73
1070
     1
1070
    44
1040
1.0
1070
    74
1070
     0
1000
MTEXTEND
  0
POINT
  5
7CA
330
7C1
100
AcDbEntity
  8
Defpoints
 62
     0
100
AcDbPoint
 10
203.2879656065349
 20
-14.63605712255818
 30
0.0
  0
POINT
  5
7CB
330
7C1
100
AcDbEntity
  8
Defpoints
 62
     0
100
AcDbPoint
 10
203.2879656065349
 20
9.364056261120893
 30
0.0
  0
POINT
  5
7CC
330
7C1
100
AcDbEntity
  8
Defpoints
 62
     0
100
AcDbPoint
 10
298.0211207499994
 20
9.364056261120866
 30
0.0
  0
ENDBLK
  5
7C3
330
7C1
100
AcDbEntity
  8
0
100
AcDbBlockEnd
  0
ENDSEC
  0
SECTION
  2
ENTITIES
  0
CIRCLE
  5
36A
330
A
100
AcDbEntity
  8
0
  6
DASHED2
100
AcDbCircle
 10
65.4969805139278
 20
116.8415446859605
 30
0.0
 40
2.500127242200139
  0
CIRCLE
  5
369
330
A
100
AcDbEntity
  8
0
  6
DASHED2
100
AcDbCircle
 10
65.4969805139278
 20
-1.17614768507289
 30
0.0
 40
2.500127242200139
  0
CIRCLE
  5
368
330
A
100
AcDbEntity
  8
0
  6
DASHED2
100
AcDbCircle
 10
-52.52070917005076
 20
-1.176147685072904
 30
0.0
 40
2.500127242200139
  0
CIRCLE
  5
367
330
A
100
AcDbEntity
  8
0
  6
DASHED2
100
AcDbCircle
 10
-52.52070917005076
 20
116.8415446859605
 30
0.0
 40
2.500127242200139
  0
LINE
  5
365
330
A
100
AcDbEntity
  8
0
100
AcDbLine
 10
333.7741274543178
 20
3.413554367657296
 30
0.0
 11
333.864847801974
 21
2.724821890034461
 31
0.0
  0
LINE
  5
364
330
A
100
AcDbEntity
  8
0
100
AcDbLine
 10
336.2309769902402
 20
5.261283488641423
 30
0.0
 11
336.2300499562985
 21
2.26011186678181
 31
0.0
  0
LINE
  5
35F
330
A
100
AcDbEntity
  8
0
100
AcDbLine
 10
-61.76306022368351
 20
130.3667199999999
 30
0.0
 11
75.23968
 21
130.3667199999999
 31
0.0
  0
LINE
  5
35C
330
A
100
AcDbEntity
  8
0
100
AcDbLine
 10
1.238400231483652
 20
-19.63677646745678
 30
0.0
 11
-0.7574447298981255
 21
-14.64716540752975
 31
0.0
  0
LINE
  5
35B
330
A
100
AcDbEntity
  8
0
100
AcDbLine
 10
14.23406450621463
 20
-14.64716540752975
 30
0.0
 11
12.23868440533115
 21
-19.63677646745678
 31
0.0
  0
LINE
  5
35A
330
A
100
AcDbEntity
  8
0
100
AcDbLine
 10
12.23868440533115
 20
-19.63677646745678
 30
0.0
 11
1.238400231483652
 21
-19.63677646745678
 31
0.0
  0
LINE
  5
354
330
A
100
AcDbEntity
  8
0
100
AcDbLine
 10
79.24016196640825
 20
125.253063737502
 30
0.0
 11
79.24016196640825
 21
-10.64807264850674
 31
0.0
  0
LINE
  5
353
330
A
100
AcDbEntity
  8
0
100
AcDbLine
 10
-65.76354219009174
 20
-10.64807264850674
 30
0.0
 11
-65.76354219009174
 21
125.253063737502
 31
0.0
  0
LINE
  5
335
330
A
100
AcDbEntity
  8
0
100
AcDbLine
 10
75.23968
 20
-14.64716540752975
 30
0.0
 11
-61.76306022368351
 21
-14.64716540752975
 31
0.0
  0
LINE
  5
333
330
A
100
AcDbEntity
  8
0
100
AcDbLine
 10
403.2306031704886
 20
106.3656768953242
 30
0.0
 11
403.2306031704886
 21
9.364056261120893
 31
0.0
  0
LINE
  5
332
330
A
100
AcDbEntity
  8
0
100
AcDbLine
 10
333.9314975118036
 20
6.285123957405263
 30
0.0
 11
333.9314975118036
 21
8.362432362300282
 31
0.0
  0
LINE
  5
331
330
A
100
AcDbEntity
  8
0
100
AcDbLine
 10
334.2305049203143
 20
6.860919517428667
 30
0.0
 11
334.2305049203143
 21
6.246244960004672
 31
0.0
  0
LINE
  5
330
330
A
100
AcDbEntity
  8
0
100
AcDbLine
 10
334.2314292672011
 20
8.362432362300282
 30
0.0
 11
334.2305049203143
 21
6.860919517428667
 31
0.0
  0
LINE
  5
32F
330
A
100
AcDbEntity
  8
0
100
AcDbLine
 10
333.7620921354043
 20
129.3650934141245
 30
0.0
 11
336.2300499562985
 21
129.3641690672375
 31
0.0
  0
LINE
  5
32E
330
A
100
AcDbEntity
  8
0
100
AcDbLine
 10
333.7315430082051
 20
8.362432362300282
 30
0.0
 11
336.231901337127
 21
8.362432362300282
 31
0.0
  0
LINE
  5
32D
330
A
100
AcDbEntity
  8
0
100
AcDbLine
 10
333.7620921354043
 20
126.3842869813794
 30
0.0
 11
333.7630191693463
 21
130.3620902044009
 31
0.0
  0
LINE
  5
32B
330
A
100
AcDbEntity
  8
0
100
AcDbLine
 10
325.2297657824509
 20
-10.64807264850674
 30
0.0
 11
325.2297657824509
 21
-14.64716540752975
 31
0.0
  0
LINE
  5
329
330
A
100
AcDbEntity
  8
0
100
AcDbLine
 10
333.7611651014628
 20
125.2188118486454
 30
0.0
 11
333.7296916273766
 21
-0.6373797416214302
 31
0.0
  0
LINE
  5
328
330
A
100
AcDbEntity
  8
0
100
AcDbLine
 10
325.2297657824509
 20
-9.135454205718499
 30
0.0
 11
325.2297657824509
 21
-10.64807264850674
 31
0.0
  0
LINE
  5
327
330
A
100
AcDbEntity
  8
0
100
AcDbLine
 10
333.7611651014628
 20
125.2188118486454
 30
0.0
 11
333.7620921354043
 21
126.3842869813794
 31
0.0
  0
LINE
  5
326
330
A
100
AcDbEntity
  8
0
100
AcDbLine
 10
312.0383119392221
 20
-8.872550066892841
 30
0.0
 11
329.9462914525224
 21
126.8878786890875
 31
0.0
  0
LINE
  5
325
330
A
100
AcDbEntity
  8
0
100
AcDbLine
 10
339.2293701973294
 20
-14.63605712255818
 30
0.0
 11
339.2293701973294
 21
-19.63677646745678
 31
0.0
  0
LINE
  5
324
330
A
100
AcDbEntity
  8
0
100
AcDbLine
 10
341.2298449543101
 20
-19.63677646745678
 30
0.0
 11
339.2293701973294
 21
-19.63677646745678
 31
0.0
  0
LINE
  5
323
330
A
100
AcDbEntity
  8
0
100
AcDbLine
 10
341.2298449543101
 20
-14.63605712255818
 30
0.0
 11
341.2298449543101
 21
-19.63677646745678
 31
0.0
  0
LINE
  5
322
330
A
100
AcDbEntity
  8
0
100
AcDbLine
 10
336.2309769902402
 20
5.981489440350442
 30
0.0
 11
333.7315430082051
 21
6.311045976060539
 31
0.0
  0
LINE
  5
321
330
A
100
AcDbEntity
  8
0
100
AcDbLine
 10
353.2299016461498
 20
126.3667002070351
 30
0.0
 11
353.2299016461498
 21
-10.63696436353511
 31
0.0
  0
LINE
  5
320
330
A
100
AcDbEntity
  8
0
100
AcDbLine
 10
336.2300499562985
 20
-0.9521225436478175
 30
0.0
 11
336.2300499562985
 21
126.0505681976235
 31
0.0
  0
LINE
  5
31E
330
A
100
AcDbEntity
  8
0
100
AcDbLine
 10
353.2299016461498
 20
130.3667199999999
 30
0.0
 11
353.2299016461498
 21
126.3667002070351
 31
0.0
  0
LINE
  5
31D
330
A
100
AcDbEntity
  8
0
100
AcDbLine
 10
336.2300499562985
 20
130.3667199999999
 30
0.0
 11
353.2299016461498
 21
130.3667199999999
 31
0.0
  0
LINE
  5
31C
330
A
100
AcDbEntity
  8
0
100
AcDbLine
 10
336.2300499562985
 20
126.3667002070351
 30
0.0
 11
336.2300499562985
 21
130.3667199999999
 31
0.0
  0
LINE
  5
31B
330
A
100
AcDbEntity
  8
0
100
AcDbLine
 10
353.2299016461498
 20
-14.63605712255818
 30
0.0
 11
325.2297657824509
 21
-14.63605712255818
 31
0.0
  0
LINE
  5
31A
330
A
100
AcDbEntity
  8
0
100
AcDbLine
 10
353.2299016461498
 20
-10.63696436353511
 30
0.0
 11
353.2299016461498
 21
-14.63605712255818
 31
0.0
  0
LINE
  5
313
330
A
100
AcDbEntity
  8
0
100
AcDbLine
 10
403.2306031704886
 20
106.3656768953242
 30
0.0
 11
353.2299016461498
 21
106.3656768953242
 31
0.0
  0
LINE
  5
312
330
A
100
AcDbEntity
  8
0
100
AcDbLine
 10
353.2299016461498
 20
9.364056261120893
 30
0.0
 11
403.2306031704886
 21
9.364056261120893
 31
0.0
  0
LINE
  5
311
330
A
100
AcDbEntity
  8
0
100
AcDbLine
 10
325.2297657824509
 20
-14.64716540752975
 30
0.0
 11
315.4801256335626
 21
-13.36227218076891
 31
0.0
  0
LINE
  5
30F
330
A
100
AcDbEntity
  8
Dim
100
AcDbLine
 10
7.673050303372745
 20
149.2707665825802
 30
0.0
 11
7.673050303372745
 21
145.0800491901599
 31
0.0
  0
LINE
  5
30D
330
A
100
AcDbEntity
  8
0
100
AcDbLine
 10
197.2874737436441
 20
123.3664529320624
 30
0.0
 11
201.2884205705509
 21
123.3664529320624
 31
0.0
  0
LINE
  5
30C
330
A
100
AcDbEntity
  8
0
100
AcDbLine
 10
198.2872489486913
 20
-11.63673688152718
 30
0.0
 11
197.2874737436441
 21
-11.63673688152718
 31
0.0
  0
LINE
  5
30B
330
A
100
AcDbEntity
  8
0
100
AcDbLine
 10
203.2879656065349
 20
-9.640894607200293
 30
0.0
 11
203.2879656065349
 21
-11.63673688152718
 31
0.0
  0
LINE
  5
30A
330
A
100
AcDbEntity
  8
0
100
AcDbLine
 10
198.7880595545742
 20
-11.63673688152718
 30
0.0
 11
198.2872489486913
 21
-11.63673688152718
 31
0.0
  0
LINE
  5
309
330
A
100
AcDbEntity
  8
0
100
AcDbLine
 10
203.2879656065349
 20
-11.63673688152718
 30
0.0
 11
200.7876072776131
 21
-11.63673688152718
 31
0.0
  0
LINE
  5
308
330
A
100
AcDbEntity
  8
0
100
AcDbLine
 10
201.2884205705509
 20
104.3665940327835
 30
0.0
 11
201.2884205705509
 21
11.3636039841599
 31
0.0
  0
LINE
  5
307
330
A
100
AcDbEntity
  8
0
100
AcDbLine
 10
253.2886671308739
 20
11.3636039841599
 30
0.0
 11
253.2886671308739
 21
104.3665940327835
 31
0.0
  0
LINE
  5
306
330
A
100
AcDbEntity
  8
0
100
AcDbLine
 10
253.2886671308739
 20
11.3636039841599
 30
0.0
 11
253.2886671308739
 21
9.364056261120893
 31
0.0
  0
LINE
  5
305
330
A
100
AcDbEntity
  8
0
100
AcDbLine
 10
253.2886671308739
 20
11.3636039841599
 30
0.0
 11
201.2884205705509
 21
11.3636039841599
 31
0.0
  0
LINE
  5
304
330
A
100
AcDbEntity
  8
0
100
AcDbLine
 10
201.2884205705509
 20
11.3636039841599
 30
0.0
 11
201.2884205705509
 21
-7.635792741675487
 31
0.0
  0
LINE
  5
303
330
A
100
AcDbEntity
  8
0
100
AcDbLine
 10
197.2874737436441
 20
-7.635792741675487
 30
0.0
 11
201.2884205705509
 21
-7.635792741675487
 31
0.0
  0
LINE
  5
302
330
A
100
AcDbEntity
  8
0
100
AcDbLine
 10
197.2874737436441
 20
-7.635792741675487
 30
0.0
 11
197.2874737436441
 21
-9.6371918455431
 31
0.0
  0
LINE
  5
301
330
A
100
AcDbEntity
  8
0
100
AcDbLine
 10
198.2872489486913
 20
-11.63673688152718
 30
0.0
 11
197.2874737436441
 21
-9.6371918455431
 31
0.0
  0
LINE
  5
300
330
A
100
AcDbEntity
  8
0
100
AcDbLine
 10
199.2879458135701
 20
-9.640894607200293
 30
0.0
 11
198.2872489486913
 21
-11.63673688152718
 31
0.0
  0
LINE
  5
2FF
330
A
100
AcDbEntity
  8
0
100
AcDbLine
 10
203.2879656065349
 20
-9.640894607200293
 30
0.0
 11
199.2879458135701
 21
-9.640894607200293
 31
0.0
  0
LINE
  5
2FE
330
A
100
AcDbEntity
  8
0
100
AcDbLine
 10
203.2879656065349
 20
9.364056261120893
 30
0.0
 11
203.2879656065349
 21
-9.640894607200293
 31
0.0
  0
LINE
  5
2FD
330
A
100
AcDbEntity
  8
0
100
AcDbLine
 10
203.2879656065349
 20
9.364056261120893
 30
0.0
 11
253.2886671308739
 21
9.364056261120893
 31
0.0
  0
LINE
  5
2FC
330
A
100
AcDbEntity
  8
0
100
AcDbLine
 10
197.2874737436441
 20
127.3664727250271
 30
0.0
 11
203.2879656065349
 21
127.3664727250271
 31
0.0
  0
LINE
  5
2FB
330
A
100
AcDbEntity
  8
0
100
AcDbLine
 10
197.2874737436441
 20
127.3664727250271
 30
0.0
 11
197.2874737436441
 21
125.3660006551014
 31
0.0
  0
LINE
  5
2FA
330
A
100
AcDbEntity
  8
0
100
AcDbLine
 10
197.2874737436441
 20
125.3660006551014
 30
0.0
 11
201.2884205705509
 21
125.3660006551014
 31
0.0
  0
LINE
  5
2F9
330
A
100
AcDbEntity
  8
0
100
AcDbLine
 10
201.2884205705509
 20
125.3660006551014
 30
0.0
 11
201.2884205705509
 21
104.3665940327835
 31
0.0
  0
LINE
  5
2F8
330
A
100
AcDbEntity
  8
0
100
AcDbLine
 10
201.2884205705509
 20
104.3665940327835
 30
0.0
 11
253.1877655321877
 21
104.3665940327835
 31
0.0
  0
LINE
  5
2F7
330
A
100
AcDbEntity
  8
0
100
AcDbLine
 10
253.2886671308739
 20
106.3656768953242
 30
0.0
 11
253.2886671308739
 21
104.3665940327835
 31
0.0
  0
LINE
  5
2F6
330
A
100
AcDbEntity
  8
0
100
AcDbLine
 10
253.2886671308739
 20
106.3656768953242
 30
0.0
 11
203.2879656065349
 21
106.3656768953242
 31
0.0
  0
LINE
  5
2F5
330
A
100
AcDbEntity
  8
0
100
AcDbLine
 10
203.2879656065349
 20
127.3664727250271
 30
0.0
 11
203.2879656065349
 21
106.3656768953242
 31
0.0
  0
LINE
  5
2F4
330
A
100
AcDbEntity
  8
0
100
AcDbLine
 10
185.8113712615726
 20
2.411927781781756
 30
0.0
 11
195.0315057452621
 21
21.08547342061914
 31
0.0
  0
LINE
  5
2F3
330
A
100
AcDbEntity
  8
0
100
AcDbLine
 10
194.3048186171255
 20
23.96074845907921
 30
0.0
 11
195.0102135222058
 21
23.15722499597344
 31
0.0
  0
LINE
  5
2F2
330
A
100
AcDbEntity
  8
0
100
AcDbLine
 10
194.0798691288135
 20
23.76449671713801
 30
0.0
 11
194.3048186171255
 21
23.96074845907921
 31
0.0
  0
LINE
  5
2F1
330
A
100
AcDbEntity
  8
0
100
AcDbLine
 10
194.7852640338938
 20
22.95912187320364
 30
0.0
 11
194.0798691288135
 21
23.76449671713801
 31
0.0
  0
LINE
  5
2EE
330
A
100
AcDbEntity
  8
0
100
AcDbLine
 10
180.8300954459566
 20
26.21764349140315
 30
0.0
 11
183.9229117623593
 21
2.724821890034461
 31
0.0
  0
LINE
  5
2ED
330
A
100
AcDbEntity
  8
0
100
AcDbLine
 10
180.5329394182745
 20
26.17876449400257
 30
0.0
 11
180.8300954459566
 21
26.21764349140315
 31
0.0
  0
LINE
  5
2EC
330
A
100
AcDbEntity
  8
0
100
AcDbLine
 10
183.6257557346771
 20
2.684088824750404
 30
0.0
 11
180.5329394182745
 21
26.17876449400257
 31
0.0
  0
LINE
  5
2E9
330
A
100
AcDbEntity
  8
0
100
AcDbLine
 10
195.2999613395187
 20
20.95402269473378
 30
0.0
 11
186.0798295428839
 21
2.278625675067786
 31
0.0
  0
LINE
  5
2E7
330
A
100
AcDbEntity
  8
0
100
AcDbLine
 10
182.5426683923433
 20
10.91000224587878
 30
0.0
 11
178.874056515917
 21
10.42677841434018
 31
0.0
  0
LINE
  5
2E6
330
A
100
AcDbEntity
  8
0
100
AcDbLine
 10
179.2387892873706
 20
22.98134113020172
 30
0.0
 11
178.8342504845748
 21
26.0565679852053
 31
0.0
  0
LINE
  5
2E5
330
A
100
AcDbEntity
  8
0
100
AcDbLine
 10
178.8342504845748
 20
26.0565679852053
 30
0.0
 11
179.8256931323656
 21
26.18617001731697
 31
0.0
  0
LINE
  5
2E4
330
A
100
AcDbEntity
  8
0
100
AcDbLine
 10
172.4634717077448
 20
89.7717559027088
 30
0.0
 11
170.4805890992182
 21
89.50885176388316
 31
0.0
  0
LINE
  5
2E3
330
A
100
AcDbEntity
  8
0
100
AcDbLine
 10
170.4805890992182
 20
89.50885176388316
 30
0.0
 11
169.6965064783401
 21
95.45750227651812
 31
0.0
  0
LINE
  5
2E2
330
A
100
AcDbEntity
  8
0
100
AcDbLine
 10
169.6965064783401
 20
95.45750227651812
 30
0.0
 11
171.6803161208086
 21
95.71855503451521
 31
0.0
  0
LINE
  5
2E1
330
A
100
AcDbEntity
  8
0
100
AcDbLine
 10
166.4740881298258
 20
104.616538505809
 30
0.0
 11
178.874056515917
 21
10.42677841434018
 31
0.0
  0
LINE
  5
2E0
330
A
100
AcDbEntity
  8
0
100
AcDbLine
 10
165.7159275276031
 20
125.6983329185269
 30
0.0
 11
167.6988128231846
 21
125.959385676524
 31
0.0
  0
LINE
  5
2DF
330
A
100
AcDbEntity
  8
0
100
AcDbLine
 10
165.7159275276031
 20
125.6983329185269
 30
0.0
 11
165.9769802856001
 21
123.7154476229452
 31
0.0
  0
LINE
  5
2DE
330
A
100
AcDbEntity
  8
0
100
AcDbLine
 10
169.4206426737143
 20
128.2033210430477
 30
0.0
 11
169.9427481897084
 21
124.2366261049975
 31
0.0
  0
LINE
  5
2DD
330
A
100
AcDbEntity
  8
0
100
AcDbLine
 10
167.4368330312459
 20
127.9422682850507
 30
0.0
 11
167.9598628941269
 21
123.9755760340555
 31
0.0
  0
LINE
  5
2DC
330
A
100
AcDbEntity
  8
0
100
AcDbLine
 10
167.4368330312459
 20
127.9422682850507
 30
0.0
 11
169.4206426737143
 21
128.2033210430477
 31
0.0
  0
LINE
  5
2DB
330
A
100
AcDbEntity
  8
0
100
AcDbLine
 10
171.9654368295774
 20
108.8697406729582
 30
0.0
 11
172.4227413295156
 21
105.3996940927452
 31
0.0
  0
LINE
  5
2DA
330
A
100
AcDbEntity
  8
0
100
AcDbLine
 10
169.9427481897084
 20
124.2366261049975
 30
0.0
 11
171.5747847265236
 21
111.8431388953339
 31
0.0
  0
LINE
  5
2D9
330
A
100
AcDbEntity
  8
0
100
AcDbLine
 10
168.4569734254075
 20
104.8775885767512
 30
0.0
 11
170.4398560339341
 21
105.1386413347482
 31
0.0
  0
LINE
  5
2D8
330
A
100
AcDbEntity
  8
0
100
AcDbLine
 10
167.6080924755285
 20
111.3219631003364
 30
0.0
 11
165.9769802856001
 21
123.7154476229452
 31
0.0
  0
LINE
  5
2D7
330
A
100
AcDbEntity
  8
0
100
AcDbLine
 10
183.8571863994165
 20
18.54716044118359
 30
0.0
 11
183.2045571914789
 21
23.50344395914093
 31
0.0
  0
LINE
  5
2D6
330
A
100
AcDbEntity
  8
0
100
AcDbLine
 10
167.9996689254692
 20
108.347635156964
 30
0.0
 11
173.949246472046
 21
109.1307934309551
 31
0.0
  0
LINE
  5
2D5
330
A
100
AcDbEntity
  8
0
100
AcDbLine
 10
173.5576700221051
 20
112.1051186872727
 30
0.0
 11
173.949246472046
 21
109.1307934309551
 31
0.0
  0
LINE
  5
2D4
330
A
100
AcDbEntity
  8
0
100
AcDbLine
 10
173.5576700221051
 20
112.1051186872727
 30
0.0
 11
165.6252071799469
 21
111.0609103423394
 31
0.0
  0
LINE
  5
2D3
330
A
100
AcDbEntity
  8
0
100
AcDbLine
 10
166.4740881298258
 20
104.616538505809
 30
0.0
 11
165.6252071799469
 21
111.0609103423394
 31
0.0
  0
LINE
  5
2D2
330
A
100
AcDbEntity
  8
0
100
AcDbLine
 10
166.4740881298258
 20
104.616538505809
 30
0.0
 11
168.4569734254075
 21
104.8775885767512
 31
0.0
  0
LINE
  5
2D1
330
A
100
AcDbEntity
  8
0
100
AcDbLine
 10
168.4569734254075
 20
104.8775885767512
 30
0.0
 11
167.9996689254692
 21
108.347635156964
 31
0.0
  0
LINE
  5
2D0
330
A
100
AcDbEntity
  8
0
100
AcDbLine
 10
179.8914184953082
 20
18.02505761224437
 30
0.0
 11
181.5771477632076
 21
18.24722868578598
 31
0.0
  0
LINE
  5
2CF
330
A
100
AcDbEntity
  8
0
100
AcDbLine
 10
179.8914184953082
 20
18.02505761224437
 30
0.0
 11
179.2387892873706
 21
22.98134113020172
 31
0.0
  0
LINE
  5
2CE
330
A
100
AcDbEntity
  8
0
100
AcDbLine
 10
181.5771477632076
 20
18.24722868578598
 30
0.0
 11
180.9235915213282
 21
23.20351220374333
 31
0.0
  0
LINE
  5
2CD
330
A
100
AcDbEntity
  8
0
100
AcDbLine
 10
180.9235915213282
 20
23.20351220374333
 30
0.0
 11
179.2387892873706
 21
22.98134113020172
 31
0.0
  0
LINE
  5
2CC
330
A
100
AcDbEntity
  8
0
100
AcDbLine
 10
183.2045571914789
 20
23.50344395914093
 30
0.0
 11
172.4227413295156
 21
105.3996940927452
 31
0.0
  0
LINE
  5
2CB
330
A
100
AcDbEntity
  8
0
100
AcDbLine
 10
170.4398560339341
 20
105.1386413347482
 30
0.0
 11
180.6338437040153
 21
27.70434260259101
 31
0.0
  0
LINE
  5
2CA
330
A
100
AcDbEntity
  8
0
100
AcDbLine
 10
180.8300954459566
 20
26.21764349140315
 30
0.0
 11
181.2216718958973
 21
23.24239120114389
 31
0.0
  0
LINE
  5
2C9
330
A
100
AcDbEntity
  8
0
100
AcDbLine
 10
180.6338437040153
 20
27.70434260259101
 30
0.0
 11
179.6424010562246
 21
27.57474325753423
 31
0.0
  0
LINE
  5
2C8
330
A
100
AcDbEntity
  8
0
100
AcDbLine
 10
179.8386527981658
 20
26.08619276551775
 30
0.0
 11
179.6424010562246
 21
27.57474325753423
 31
0.0
  0
LINE
  5
2C7
330
A
100
AcDbEntity
  8
0
100
AcDbLine
 10
179.8386527981658
 20
26.08619276551775
 30
0.0
 11
180.8300954459566
 21
26.21764349140315
 31
0.0
  0
LINE
  5
2C6
330
A
100
AcDbEntity
  8
0
100
AcDbLine
 10
181.2216718958973
 20
23.24239120114389
 30
0.0
 11
183.2045571914789
 21
23.50344395914093
 31
0.0
  0
LINE
  5
2C5
330
A
100
AcDbEntity
  8
0
100
AcDbLine
 10
172.4227413295156
 20
105.3996940927452
 30
0.0
 11
170.4398560339341
 21
105.1386413347482
 31
0.0
  0
LINE
  5
2C4
330
A
100
AcDbEntity
  8
0
100
AcDbLine
 10
183.8571863994165
 20
18.54716044118359
 30
0.0
 11
181.874301103835
 21
18.28610768318651
 31
0.0
  0
LINE
  5
2C3
330
A
100
AcDbEntity
  8
0
100
AcDbLine
 10
181.874301103835
 20
18.28610768318651
 30
0.0
 11
183.8321914147029
 21
3.413554367657296
 31
0.0
  0
LINE
  5
2C2
330
A
100
AcDbEntity
  8
0
100
AcDbLine
 10
185.8150740232296
 20
3.674607125654333
 30
0.0
 11
183.8321914147029
 21
3.413554367657296
 31
0.0
  0
LINE
  5
2C1
330
A
100
AcDbEntity
  8
0
100
AcDbLine
 10
185.8150740232296
 20
3.674607125654333
 30
0.0
 11
183.8571863994165
 21
18.54716044118359
 31
0.0
  0
LINE
  5
2C0
330
A
100
AcDbEntity
  8
0
100
AcDbLine
 10
182.8074239119974
 20
7.364511225136808
 30
0.0
 11
182.5408170115147
 21
9.397383803090576
 31
0.0
  0
LINE
  5
2BF
330
A
100
AcDbEntity
  8
0
100
AcDbLine
 10
170.192689975679
 20
95.52230329257401
 30
0.0
 11
170.8453218706717
 21
90.56601977461665
 31
0.0
  0
LINE
  5
2BE
330
A
100
AcDbEntity
  8
0
100
AcDbLine
 10
170.8453218706717
 20
90.56601977461665
 30
0.0
 11
172.3320209818595
 21
90.76227151655784
 31
0.0
  0
LINE
  5
2BD
330
A
100
AcDbEntity
  8
0
100
AcDbLine
 10
179.3304339819136
 20
26.12136900126113
 30
0.0
 11
179.7340457507675
 21
23.04799084003127
 31
0.0
  0
LINE
  5
2BC
330
A
100
AcDbEntity
  8
0
100
AcDbLine
 10
165.3502704092629
 20
8.6457016902405
 30
0.0
 11
178.874056515917
 21
10.42677841434018
 31
0.0
  0
LINE
  5
2BB
330
A
100
AcDbEntity
  8
0
100
AcDbLine
 10
165.3502704092629
 20
7.133080560397317
 30
0.0
 11
182.7389201342844
 21
9.423303134690966
 31
0.0
  0
LINE
  5
2BA
330
A
100
AcDbEntity
  8
0
100
AcDbLine
 10
169.3558443447134
 20
128.6985775064447
 30
0.0
 11
169.4206426737143
 21
128.2033210430477
 31
0.0
  0
LINE
  5
2B9
330
A
100
AcDbEntity
  8
0
100
AcDbLine
 10
166.7027403797949
 20
102.8817463024243
 30
0.0
 11
166.5037129101383
 21
102.8558269708238
 31
0.0
  0
LINE
  5
2B8
330
A
100
AcDbEntity
  8
0
100
AcDbLine
 10
165.2863964271488
 20
101.1821303347829
 30
0.0
 11
166.6999646520794
 21
101.3672737917524
 31
0.0
  0
LINE
  5
2B7
330
A
100
AcDbEntity
  8
0
100
AcDbLine
 10
165.2863964271488
 20
102.694751464626
 30
0.0
 11
166.5037129101383
 21
102.8558269708238
 31
0.0
  0
LINE
  5
2B6
330
A
100
AcDbEntity
  8
0
100
AcDbLine
 10
166.6999646520794
 20
101.3672737917524
 30
0.0
 11
166.5037129101383
 21
102.8558269708238
 31
0.0
  0
LINE
  5
2B5
330
A
100
AcDbEntity
  8
0
100
AcDbLine
 10
166.6999646520794
 20
101.3672737917524
 30
0.0
 11
167.2877928439613
 21
96.90532239030549
 31
0.0
  0
LINE
  5
2B4
330
A
100
AcDbEntity
  8
0
100
AcDbLine
 10
165.2863964271488
 20
57.30504152901882
 30
0.0
 11
172.3783055025745
 21
58.23816165012644
 31
0.0
  0
LINE
  5
2B3
330
A
100
AcDbEntity
  8
0
100
AcDbLine
 10
165.2863964271488
 20
55.79242039917568
 30
0.0
 11
172.5736328976288
 21
56.75146253893854
 31
0.0
  0
LINE
  5
2B2
330
A
100
AcDbEntity
  8
0
100
AcDbLine
 10
172.5736328976288
 20
56.75146253893854
 30
0.0
 11
172.3783055025745
 21
58.23816165012644
 31
0.0
  0
LINE
  5
2B1
330
A
100
AcDbEntity
  8
0
100
AcDbLine
 10
165.3502704092629
 20
8.6457016902405
 30
0.0
 11
165.3502704092629
 21
7.133080560397317
 31
0.0
  0
LINE
  5
2B0
330
A
100
AcDbEntity
  8
0
100
AcDbLine
 10
177.7946719352405
 20
17.09378618491048
 30
0.0
 11
177.5984201932993
 21
18.58048529609838
 31
0.0
  0
LINE
  5
2AF
330
A
100
AcDbEntity
  8
0
100
AcDbLine
 10
165.2863964271488
 20
15.44601156752476
 30
0.0
 11
177.7946719352405
 21
17.09378618491048
 31
0.0
  0
LINE
  5
2AE
330
A
100
AcDbEntity
  8
0
100
AcDbLine
 10
165.2863964271488
 20
16.9604840781965
 30
0.0
 11
177.5984201932993
 21
18.58048529609838
 31
0.0
  0
CIRCLE
  5
2AD
330
A
100
AcDbEntity
  8
0
100
AcDbCircle
 10
175.287832429891
 20
-0.6355283607928186
 30
0.0
 40
1.49965877698806
  0
LINE
  5
2AC
330
A
100
AcDbEntity
  8
0
100
AcDbLine
 10
169.2253179657149
 20
129.6900201542355
 30
0.0
 11
169.3558443447134
 21
128.6985775064447
 31
0.0
  0
LINE
  5
2AB
330
A
100
AcDbEntity
  8
0
100
AcDbLine
 10
169.2253179657149
 20
129.6900201542355
 30
0.0
 11
166.7462491727945
 21
129.3641690672375
 31
0.0
  0
LINE
  5
2AA
330
A
100
AcDbEntity
  8
0
100
AcDbLine
 10
166.615722793796
 20
130.3528333002579
 30
0.0
 11
166.7462491727945
 21
129.3641690672375
 31
0.0
  0
LINE
  5
2A8
330
A
100
AcDbEntity
  8
0
100
AcDbLine
 10
163.2868487041096
 20
-10.64807264850674
 30
0.0
 11
163.2868487041096
 21
126.4092819660929
 31
0.0
  0
LINE
  5
2A6
330
A
100
AcDbEntity
  8
0
100
AcDbLine
 10
175.2869053959493
 20
-14.64716540752975
 30
0.0
 11
167.2877928439613
 21
-14.64716540752975
 31
0.0
  0
LINE
  5
2A5
330
A
100
AcDbEntity
  8
0
100
AcDbLine
 10
175.2869053959493
 20
-13.14750663054174
 30
0.0
 11
175.2869053959493
 21
-14.64716540752975
 31
0.0
  0
LINE
  5
2A4
330
A
100
AcDbEntity
  8
0
100
AcDbLine
 10
175.2869053959493
 20
-13.14750663054174
 30
0.0
 11
176.8689546503923
 21
-12.94755212694332
 31
0.0
  0
LINE
  5
2A3
330
A
100
AcDbEntity
  8
0
100
AcDbLine
 10
176.8689546503923
 20
-12.94755212694332
 30
0.0
 11
176.8689546503923
 21
-12.64762037154568
 31
0.0
  0
LINE
  5
2A2
330
A
100
AcDbEntity
  8
0
100
AcDbLine
 10
176.8689546503923
 20
-12.64762037154568
 30
0.0
 11
167.2877928439613
 21
-12.64762037154568
 31
0.0
  0
LINE
  5
2A0
330
A
100
AcDbEntity
  8
0
100
AcDbLine
 10
165.2863964271488
 20
-10.64807264850674
 30
0.0
 11
165.2863964271488
 21
126.4092819660929
 31
0.0
  0
LINE
  5
29E
330
A
100
AcDbEntity
  8
0
100
AcDbLine
 10
167.0267427730191
 20
128.3921672616745
 30
0.0
 11
169.3558443447134
 21
128.6985775064447
 31
0.0
  0
LINE
  5
29D
330
A
100
AcDbEntity
  8
0
100
AcDbLine
 10
200.2886453655039
 20
106.8664901882619
 30
0.0
 11
185.2874170518048
 21
106.8664901882619
 31
0.0
  0
LINE
  5
29C
330
A
100
AcDbEntity
  8
0
100
AcDbLine
 10
200.2886453655039
 20
113.8667545691447
 30
0.0
 11
200.2886453655039
 21
106.8664901882619
 31
0.0
  0
LINE
  5
29B
330
A
100
AcDbEntity
  8
0
100
AcDbLine
 10
200.2886453655039
 20
113.8667545691447
 30
0.0
 11
185.2874170518048
 21
113.8667545691447
 31
0.0
  0
LINE
  5
29A
330
A
100
AcDbEntity
  8
0
100
AcDbLine
 10
185.2874170518048
 20
106.8664901882619
 30
0.0
 11
185.2874170518048
 21
113.8667545691447
 31
0.0
  0
LINE
  5
299
330
A
100
AcDbEntity
  8
0
100
AcDbLine
 10
186.2871895697968
 20
106.8664901882619
 30
0.0
 11
186.2871895697968
 21
7.364511225136808
 31
0.0
  0
LINE
  5
298
330
A
100
AcDbEntity
  8
0
100
AcDbLine
 10
186.2871895697968
 20
126.3667002070351
 30
0.0
 11
186.2871895697968
 21
113.8667545691447
 31
0.0
  0
LINE
  5
297
330
A
100
AcDbEntity
  8
0
100
AcDbLine
 10
188.2885886736644
 20
104.8664802917796
 30
0.0
 11
188.2885886736644
 21
7.427458173309147
 31
0.0
  0
LINE
  5
296
330
A
100
AcDbEntity
  8
0
100
AcDbLine
 10
188.2885886736644
 20
126.3667002070351
 30
0.0
 11
188.2885886736644
 21
115.8663022921837
 31
0.0
  0
LINE
  5
295
330
A
100
AcDbEntity
  8
0
100
AcDbLine
 10
186.2871895697968
 20
129.366944794953
 30
0.0
 11
186.2871895697968
 21
126.3667002070351
 31
0.0
  0
LINE
  5
294
330
A
100
AcDbEntity
  8
0
100
AcDbLine
 10
175.2869053959493
 20
-12.64762037154568
 30
0.0
 11
175.2869053959493
 21
-8.635565259667572
 31
0.0
  0
CIRCLE
  5
293
330
A
100
AcDbEntity
  8
0
100
AcDbCircle
 10
175.287832429891
 20
-0.6355283607928186
 30
0.0
 40
1.49965877698806
  0
LINE
  5
292
330
A
100
AcDbEntity
  8
0
100
AcDbLine
 10
188.5903718098905
 20
7.364511225136808
 30
0.0
 11
195.2879287076601
 21
7.364511225136808
 31
0.0
  0
LINE
  5
291
330
A
100
AcDbEntity
  8
0
100
AcDbLine
 10
185.3290744639756
 20
7.364511225136808
 30
0.0
 11
188.2561881656364
 21
7.364511225136808
 31
0.0
  0
LINE
  5
290
330
A
100
AcDbEntity
  8
0
100
AcDbLine
 10
175.2869053959493
 20
7.364511225136808
 30
0.0
 11
183.0092297964244
 21
7.364511225136808
 31
0.0
  0
LINE
  5
28E
330
A
100
AcDbEntity
  8
0
100
AcDbLine
 10
188.2885886736644
 20
128.3662452430193
 30
0.0
 11
188.2885886736644
 21
126.3667002070351
 31
0.0
  0
LINE
  5
28D
330
A
100
AcDbEntity
  8
0
100
AcDbLine
 10
203.2879656065349
 20
127.3664727250271
 30
0.0
 11
203.2879656065349
 21
127.8663589840232
 31
0.0
  0
LINE
  5
28C
330
A
100
AcDbEntity
  8
0
100
AcDbLine
 10
203.2879656065349
 20
-12.1366258275781
 30
0.0
 11
203.2879656065349
 21
-11.63673688152718
 31
0.0
  0
LINE
  5
28A
330
A
100
AcDbEntity
  8
0
100
AcDbLine
 10
203.2879656065349
 20
128.3662452430193
 30
0.0
 11
203.2879656065349
 21
127.8663589840232
 31
0.0
  0
LINE
  5
289
330
A
100
AcDbEntity
  8
0
100
AcDbLine
 10
203.2879656065349
 20
-12.1366258275781
 30
0.0
 11
203.2879656065349
 21
-12.63651208657409
 31
0.0
  0
LINE
  5
288
330
A
100
AcDbEntity
  8
0
100
AcDbLine
 10
202.288193088543
 20
128.3662452430193
 30
0.0
 11
200.7876072776131
 21
127.3664727250271
 31
0.0
  0
LINE
  5
287
330
A
100
AcDbEntity
  8
0
100
AcDbLine
 10
198.7880595545742
 20
127.3664727250271
 30
0.0
 11
198.2872489486913
 21
128.3662452430193
 31
0.0
  0
LINE
  5
286
330
A
100
AcDbEntity
  8
0
100
AcDbLine
 10
199.2879458135701
 20
-10.63696436353511
 30
0.0
 11
202.288193088543
 21
-12.63651208657409
 31
0.0
  0
LINE
  5
285
330
A
100
AcDbEntity
  8
0
100
AcDbLine
 10
198.2872489486913
 20
-12.63651208657409
 30
0.0
 11
199.2879458135701
 21
-10.63696436353511
 31
0.0
  0
LINE
  5
284
330
A
100
AcDbEntity
  8
0
100
AcDbLine
 10
197.2874737436441
 20
128.3662452430193
 30
0.0
 11
203.2879656065349
 21
128.3662452430193
 31
0.0
  0
LINE
  5
283
330
A
100
AcDbEntity
  8
0
100
AcDbLine
 10
203.2879656065349
 20
130.3667199999999
 30
0.0
 11
203.2879656065349
 21
128.3662452430193
 31
0.0
  0
LINE
  5
282
330
A
100
AcDbEntity
  8
0
100
AcDbLine
 10
186.2871895697968
 20
130.3667199999999
 30
0.0
 11
203.2879656065349
 21
130.3667199999999
 31
0.0
  0
LINE
  5
281
330
A
100
AcDbEntity
  8
0
100
AcDbLine
 10
195.2879287076601
 20
115.8663022921837
 30
0.0
 11
195.2879287076601
 21
128.3662452430193
 31
0.0
  0
LINE
  5
280
330
A
100
AcDbEntity
  8
0
100
AcDbLine
 10
195.2879287076601
 20
115.8663022921837
 30
0.0
 11
188.2885886736644
 21
115.8663022921837
 31
0.0
  0
LINE
  5
27F
330
A
100
AcDbEntity
  8
0
100
AcDbLine
 10
188.2885886736644
 20
115.8663022921837
 30
0.0
 11
188.2885886736644
 21
113.9167445385717
 31
0.0
  0
LINE
  5
27E
330
A
100
AcDbEntity
  8
0
100
AcDbLine
 10
188.2885886736644
 20
113.9167445385717
 30
0.0
 11
197.2874737436441
 21
113.9167445385717
 31
0.0
  0
LINE
  5
27D
330
A
100
AcDbEntity
  8
0
100
AcDbLine
 10
197.2874737436441
 20
128.3662452430193
 30
0.0
 11
197.2874737436441
 21
113.9167445385717
 31
0.0
  0
LINE
  5
27C
330
A
100
AcDbEntity
  8
0
100
AcDbLine
 10
186.2871895697968
 20
130.3667199999999
 30
0.0
 11
186.2871895697968
 21
129.366944794953
 31
0.0
  0
LINE
  5
27B
330
A
100
AcDbEntity
  8
0
100
AcDbLine
 10
186.2871895697968
 20
129.366944794953
 30
0.0
 11
188.2885886736644
 21
129.366944794953
 31
0.0
  0
LINE
  5
27A
330
A
100
AcDbEntity
  8
0
100
AcDbLine
 10
188.2885886736644
 20
128.3662452430193
 30
0.0
 11
188.2885886736644
 21
129.366944794953
 31
0.0
  0
LINE
  5
279
330
A
100
AcDbEntity
  8
0
100
AcDbLine
 10
188.2885886736644
 20
128.3662452430193
 30
0.0
 11
195.2879287076601
 21
128.3662452430193
 31
0.0
  0
LINE
  5
278
330
A
100
AcDbEntity
  8
0
100
AcDbLine
 10
203.2879656065349
 20
-12.63651208657409
 30
0.0
 11
197.2874737436441
 21
-12.63651208657409
 31
0.0
  0
LINE
  5
277
330
A
100
AcDbEntity
  8
0
100
AcDbLine
 10
203.2879656065349
 20
-12.63651208657409
 30
0.0
 11
203.2879656065349
 21
-14.63605712255818
 31
0.0
  0
LINE
  5
276
330
A
100
AcDbEntity
  8
0
100
AcDbLine
 10
203.2879656065349
 20
-14.63605712255818
 30
0.0
 11
191.2879089146954
 21
-14.63605712255818
 31
0.0
  0
LINE
  5
275
330
A
100
AcDbEntity
  8
0
100
AcDbLine
 10
197.2874737436441
 20
106.8165029058897
 30
0.0
 11
197.2874737436441
 21
-12.63651208657409
 31
0.0
  0
LINE
  5
274
330
A
100
AcDbEntity
  8
0
100
AcDbLine
 10
197.2874737436441
 20
106.8165029058897
 30
0.0
 11
188.2885886736644
 21
106.8165029058897
 31
0.0
  0
LINE
  5
273
330
A
100
AcDbEntity
  8
0
100
AcDbLine
 10
188.2885886736644
 20
106.8165029058897
 30
0.0
 11
188.2885886736644
 21
104.8664802917796
 31
0.0
  0
LINE
  5
272
330
A
100
AcDbEntity
  8
0
100
AcDbLine
 10
188.2885886736644
 20
104.8664802917796
 30
0.0
 11
195.2879287076601
 21
104.8664802917796
 31
0.0
  0
LINE
  5
271
330
A
100
AcDbEntity
  8
0
100
AcDbLine
 10
195.2879287076601
 20
-0.0356648499975734
 30
0.0
 11
195.2879287076601
 21
104.8664802917796
 31
0.0
  0
LINE
  5
270
330
A
100
AcDbEntity
  8
0
100
AcDbLine
 10
195.2879287076601
 20
-0.0356648499975734
 30
0.0
 11
184.2876445338126
 21
-0.0356648499975734
 31
0.0
  0
LINE
  5
26F
330
A
100
AcDbEntity
  8
0
100
AcDbLine
 10
184.2876445338126
 20
-1.237243252416617
 30
0.0
 11
184.2876445338126
 21
-0.0356648499975734
 31
0.0
  0
LINE
  5
26E
330
A
100
AcDbEntity
  8
0
100
AcDbLine
 10
184.2876445338126
 20
-1.237243252416617
 30
0.0
 11
195.2879287076601
 21
-6.236111216486647
 31
0.0
  0
LINE
  5
26D
330
A
100
AcDbEntity
  8
0
100
AcDbLine
 10
195.2879287076601
 20
-13.13639834557013
 30
0.0
 11
195.2879287076601
 21
-6.236111216486647
 31
0.0
  0
LINE
  5
26C
330
A
100
AcDbEntity
  8
0
100
AcDbLine
 10
195.2879287076601
 20
-13.13639834557013
 30
0.0
 11
175.2869053959493
 21
-13.13639834557013
 31
0.0
  0
LINE
  5
26B
330
A
100
AcDbEntity
  8
0
100
AcDbLine
 10
175.2869053959493
 20
-13.13639834557013
 30
0.0
 11
175.2869053959493
 21
-14.63605712255818
 31
0.0
  0
LINE
  5
26A
330
A
100
AcDbEntity
  8
0
100
AcDbLine
 10
189.2883611916564
 20
-14.63605712255818
 30
0.0
 11
175.2869053959493
 21
-14.63605712255818
 31
0.0
  0
LINE
  5
269
330
A
100
AcDbEntity
  8
0
100
AcDbLine
 10
189.2883611916564
 20
-14.63605712255818
 30
0.0
 11
189.2883611916564
 21
-19.63677646745678
 31
0.0
  0
LINE
  5
268
330
A
100
AcDbEntity
  8
0
100
AcDbLine
 10
189.2883611916564
 20
-19.63677646745678
 30
0.0
 11
191.2879089146954
 21
-19.63677646745678
 31
0.0
  0
LINE
  5
267
330
A
100
AcDbEntity
  8
0
100
AcDbLine
 10
191.2879089146954
 20
-19.63677646745678
 30
0.0
 11
191.2879089146954
 21
-14.63605712255818
 31
0.0
  0
LINE
  5
266
330
A
100
AcDbEntity
  8
0
100
AcDbLine
 10
253.2886671308739
 20
9.749154221688954
 30
0.0
 11
252.9035691703059
 21
9.364056261120893
 31
0.0
  0
LINE
  5
265
330
A
100
AcDbEntity
  8
0
100
AcDbLine
 10
245.9227456316509
 20
11.3636039841599
 30
0.0
 11
243.923197908612
 21
9.364056261120893
 31
0.0
  0
LINE
  5
264
330
A
100
AcDbEntity
  8
0
100
AcDbLine
 10
236.942374369957
 20
11.3636039841599
 30
0.0
 11
234.9428266469179
 21
9.364056261120893
 31
0.0
  0
LINE
  5
263
330
A
100
AcDbEntity
  8
0
100
AcDbLine
 10
227.9620031082631
 20
11.3636039841599
 30
0.0
 11
225.962455385224
 21
9.364056261120893
 31
0.0
  0
LINE
  5
262
330
A
100
AcDbEntity
  8
0
100
AcDbLine
 10
218.982556193456
 20
11.3636039841599
 30
0.0
 11
216.9811570895884
 21
9.364056261120893
 31
0.0
  0
LINE
  5
261
330
A
100
AcDbEntity
  8
0
100
AcDbLine
 10
203.2879656065349
 20
-4.329135221932488
 30
0.0
 11
201.2884205705509
 21
-6.330534325800044
 31
0.0
  0
LINE
  5
260
330
A
100
AcDbEntity
  8
0
100
AcDbLine
 10
199.9813080867919
 20
-7.635792741675487
 30
0.0
 11
197.5189044083838
 21
-10.09819910713855
 31
0.0
  0
LINE
  5
25F
330
A
100
AcDbEntity
  8
0
100
AcDbLine
 10
210.0012578978202
 20
11.3636039841599
 30
0.0
 11
208.0017128618361
 21
9.364056261120893
 31
0.0
  0
LINE
  5
25E
330
A
100
AcDbEntity
  8
0
100
AcDbLine
 10
203.2879656065349
 20
4.650311692874595
 30
0.0
 11
201.2884205705509
 21
2.650763969835622
 31
0.0
  0
LINE
  5
25D
330
A
100
AcDbEntity
  8
0
100
AcDbLine
 10
251.1206410653775
 20
106.3656768953242
 30
0.0
 11
249.1201689954517
 21
104.3665940327835
 31
0.0
  0
LINE
  5
25C
330
A
100
AcDbEntity
  8
0
100
AcDbLine
 10
242.1411941505704
 20
106.3656768953242
 30
0.0
 11
240.1397977337578
 21
104.3665940327835
 31
0.0
  0
LINE
  5
25B
330
A
100
AcDbEntity
  8
0
100
AcDbLine
 10
233.1598985419896
 20
106.3656768953242
 30
0.0
 11
231.1603508189506
 21
104.3665940327835
 31
0.0
  0
LINE
  5
25A
330
A
100
AcDbEntity
  8
0
100
AcDbLine
 10
224.1795272802955
 20
106.3656768953242
 30
0.0
 11
222.1799795572568
 21
104.3665940327835
 31
0.0
  0
LINE
  5
259
330
A
100
AcDbEntity
  8
0
100
AcDbLine
 10
215.1991560186018
 20
106.3656768953242
 30
0.0
 11
213.198681261621
 21
104.3665940327835
 31
0.0
  0
LINE
  5
258
330
A
100
AcDbEntity
  8
0
100
AcDbLine
 10
206.217857722966
 20
106.3656768953242
 30
0.0
 11
204.2183099999271
 21
104.3665940327835
 31
0.0
  0
LINE
  5
257
330
A
100
AcDbEntity
  8
0
100
AcDbLine
 10
203.2879656065349
 20
112.416158727642
 30
0.0
 11
201.2884205705509
 21
110.416611004603
 31
0.0
  0
LINE
  5
256
330
A
100
AcDbEntity
  8
0
100
AcDbLine
 10
203.2879656065349
 20
121.3965299893358
 30
0.0
 11
201.2884205705509
 21
119.3969822662969
 31
0.0
  0
LINE
  5
255
330
A
100
AcDbEntity
  8
0
100
AcDbLine
 10
200.278464114474
 20
127.3664727250271
 30
0.0
 11
198.2770650106064
 21
125.3660006551014
 31
0.0
  0
LINE
  5
254
330
A
100
AcDbEntity
  8
0
100
AcDbLine
 10
189.1282127194003
 20
8.451301329127872
 30
0.0
 11
188.4663266073196
 21
7.790339563933992
 31
0.0
  0
LINE
  5
253
330
A
100
AcDbEntity
  8
0
100
AcDbLine
 10
183.8627405419023
 20
3.185826464575015
 30
0.0
 11
183.5952092945326
 21
2.919222251147088
 31
0.0
  0
LINE
  5
252
330
A
100
AcDbEntity
  8
0
100
AcDbLine
 10
194.9370826359486
 20
23.24053982031528
 30
0.0
 11
194.725092813437
 21
23.02762565091672
 31
0.0
  0
LINE
  5
251
330
A
100
AcDbEntity
  8
0
100
AcDbLine
 10
182.8166808161405
 20
11.12106503444876
 30
0.0
 11
182.5500739156575
 21
10.85446082102085
 31
0.0
  0
LINE
  5
250
330
A
100
AcDbEntity
  8
0
100
AcDbLine
 10
181.7724724712071
 20
19.0563036043226
 30
0.0
 11
181.5058682577793
 21
18.78969670383975
 31
0.0
  0
LINE
  5
24F
330
A
100
AcDbEntity
  8
0
100
AcDbLine
 10
173.8455664585895
 20
109.9148733647782
 30
0.0
 11
172.9263303501689
 21
108.9956372563577
 31
0.0
  0
LINE
  5
24E
330
A
100
AcDbEntity
  8
0
100
AcDbLine
 10
166.0695520140849
 20
111.1192301819676
 30
0.0
 11
165.670567353775
 21
110.7202455216577
 31
0.0
  0
LINE
  5
24D
330
A
100
AcDbEntity
  8
0
100
AcDbLine
 10
181.5058682577793
 20
18.78969670383975
 30
0.0
 11
180.868974443357
 21
18.1546569573012
 31
0.0
  0
LINE
  5
24C
330
A
100
AcDbEntity
  8
0
100
AcDbLine
 10
182.5102678843153
 20
28.77447027912472
 30
0.0
 11
179.8368014173371
 21
26.10100381214655
 31
0.0
  0
LINE
  5
24B
330
A
100
AcDbEntity
  8
0
100
AcDbLine
 10
181.4660622264369
 20
36.71156022982708
 30
0.0
 11
179.6831314344536
 21
34.92863212489878
 31
0.0
  0
LINE
  5
24A
330
A
100
AcDbEntity
  8
0
100
AcDbLine
 10
180.4209268475618
 20
44.64679879970089
 30
0.0
 11
178.6379987426335
 21
42.86387069477257
 31
0.0
  0
LINE
  5
249
330
A
100
AcDbEntity
  8
0
100
AcDbLine
 10
179.3767211896835
 20
52.58203736957468
 30
0.0
 11
177.5937903977003
 21
50.79910926464639
 31
0.0
  0
LINE
  5
248
330
A
100
AcDbEntity
  8
0
100
AcDbLine
 10
178.3315858108084
 20
60.51727593944843
 30
0.0
 11
176.54865770588
 21
58.73619652829386
 31
0.0
  0
LINE
  5
247
330
A
100
AcDbEntity
  8
0
100
AcDbLine
 10
177.2873774658751
 20
68.45436589015085
 30
0.0
 11
175.5044493609469
 21
66.67143509816765
 31
0.0
  0
LINE
  5
246
330
A
100
AcDbEntity
  8
0
100
AcDbLine
 10
176.241320427168
 20
76.38960446002466
 30
0.0
 11
174.4593166691267
 21
74.60667366804148
 31
0.0
  0
LINE
  5
245
330
A
100
AcDbEntity
  8
0
100
AcDbLine
 10
175.1971120822349
 20
84.32484034284351
 30
0.0
 11
173.4141839773066
 21
82.54191223791522
 31
0.0
  0
LINE
  5
244
330
A
100
AcDbEntity
  8
0
100
AcDbLine
 10
174.1519793904147
 20
92.26007891271734
 30
0.0
 11
172.3699756323732
 21
90.47900218861759
 31
0.0
  0
LINE
  5
243
330
A
100
AcDbEntity
  8
0
100
AcDbLine
 10
173.1077710454814
 20
100.1971688634197
 30
0.0
 11
171.3248402534981
 21
98.41424075849145
 31
0.0
  0
LINE
  5
242
330
A
100
AcDbEntity
  8
0
100
AcDbLine
 10
185.6447442999438
 20
4.96875725655819
 30
0.0
 11
184.1293474423853
 21
3.452433365057884
 31
0.0
  0
LINE
  5
241
330
A
100
AcDbEntity
  8
0
100
AcDbLine
 10
184.6005359550104
 20
12.90399582643198
 30
0.0
 11
182.8166808161405
 21
11.12106503444876
 31
0.0
  0
LINE
  5
240
330
A
100
AcDbEntity
  8
0
100
AcDbLine
 10
176.8689546503923
 20
-12.78832800157405
 30
0.0
 11
176.6856625742513
 21
-12.97162007771509
 31
0.0
  0
LINE
  5
23F
330
A
100
AcDbEntity
  8
0
100
AcDbLine
 10
175.2869053959493
 20
-14.36945290913021
 30
0.0
 11
175.0091902104949
 21
-14.64716540752975
 31
0.0
  0
LINE
  5
23E
330
A
100
AcDbEntity
  8
0
100
AcDbLine
 10
168.0283666718399
 20
-12.64762037154568
 30
0.0
 11
166.184340312513
 21
-14.49349811170122
 31
0.0
  0
LINE
  5
23D
330
A
100
AcDbEntity
  8
0
100
AcDbLine
 10
165.2863964271488
 20
-6.408292320601191
 30
0.0
 11
163.2868487041096
 21
-8.40784004364016
 31
0.0
  0
LINE
  5
23C
330
A
100
AcDbEntity
  8
0
100
AcDbLine
 10
165.2863964271488
 20
2.571151907151019
 30
0.0
 11
163.2868487041096
 21
0.571604184112033
 31
0.0
  0
LINE
  5
23B
330
A
100
AcDbEntity
  8
0
100
AcDbLine
 10
165.2863964271488
 20
11.55245020278667
 30
0.0
 11
163.2868487041096
 21
9.552902479747695
 31
0.0
  0
LINE
  5
23A
330
A
100
AcDbEntity
  8
0
100
AcDbLine
 10
165.2863964271488
 20
20.53374581136748
 30
0.0
 11
163.2868487041096
 21
18.5323493945548
 31
0.0
  0
LINE
  5
239
330
A
100
AcDbEntity
  8
0
100
AcDbLine
 10
165.2863964271488
 20
29.51319272617455
 30
0.0
 11
163.2868487041096
 21
27.51364500313557
 31
0.0
  0
LINE
  5
238
330
A
100
AcDbEntity
  8
0
100
AcDbLine
 10
165.2863964271488
 20
38.49263964098168
 30
0.0
 11
163.2868487041096
 21
36.49309191794268
 31
0.0
  0
LINE
  5
237
330
A
100
AcDbEntity
  8
0
100
AcDbLine
 10
165.2863964271488
 20
47.47393524956242
 30
0.0
 11
163.2868487041096
 21
45.47439021357836
 31
0.0
  0
LINE
  5
236
330
A
100
AcDbEntity
  8
0
100
AcDbLine
 10
165.2863964271488
 20
56.45523354519816
 30
0.0
 11
163.2868487041096
 21
54.45383444133057
 31
0.0
  0
LINE
  5
235
330
A
100
AcDbEntity
  8
0
100
AcDbLine
 10
165.2863964271488
 20
65.43468046000525
 30
0.0
 11
163.2868487041096
 21
63.43513273696622
 31
0.0
  0
LINE
  5
234
330
A
100
AcDbEntity
  8
0
100
AcDbLine
 10
165.2863964271488
 20
74.41597606858602
 30
0.0
 11
163.2868487041096
 21
72.41457965177338
 31
0.0
  0
LINE
  5
233
330
A
100
AcDbEntity
  8
0
100
AcDbLine
 10
165.2863964271488
 20
83.39542298339313
 30
0.0
 11
163.2868487041096
 21
81.39587526035411
 31
0.0
  0
LINE
  5
232
330
A
100
AcDbEntity
  8
0
100
AcDbLine
 10
165.2863964271488
 20
92.37671859197389
 30
0.0
 11
163.2868487041096
 21
90.37532217516128
 31
0.0
  0
LINE
  5
231
330
A
100
AcDbEntity
  8
0
100
AcDbLine
 10
165.2863964271488
 20
101.356165506781
 30
0.0
 11
163.2868487041096
 21
99.35661778374202
 31
0.0
  0
LINE
  5
230
330
A
100
AcDbEntity
  8
0
100
AcDbLine
 10
165.2863964271488
 20
110.3369989419183
 30
0.0
 11
163.2868487041096
 21
108.3374539059341
 31
0.0
  0
LINE
  5
22F
330
A
100
AcDbEntity
  8
0
100
AcDbLine
 10
165.2863964271488
 20
119.318297237554
 30
0.0
 11
163.2868487041096
 21
117.3168981336864
 31
0.0
  0
LINE
  5
22E
330
A
100
AcDbEntity
  8
0
100
AcDbLine
 10
166.6999646520794
 20
129.7113123772918
 30
0.0
 11
163.2868487041096
 21
126.2972720824353
 31
0.0
  0
LINE
  5
22D
330
A
100
AcDbEntity
  8
0
100
AcDbLine
 10
200.2886453655039
 20
109.4159114526692
 30
0.0
 11
197.7382970671549
 21
106.8664901882619
 31
0.0
  0
LINE
  5
22C
330
A
100
AcDbEntity
  8
0
100
AcDbLine
 10
195.7581928733987
 20
113.8667545691447
 30
0.0
 11
188.757925805461
 21
106.8664901882619
 31
0.0
  0
LINE
  5
22B
330
A
100
AcDbEntity
  8
0
100
AcDbLine
 10
186.7778189246498
 20
113.8667545691447
 30
0.0
 11
185.2874170518048
 21
112.3763526962995
 31
0.0
  0
LINE
  5
22A
330
A
100
AcDbEntity
  8
0
100
AcDbLine
 10
197.2874737436441
 20
115.3960381264451
 30
0.0
 11
195.8081801557709
 21
113.9167445385717
 31
0.0
  0
LINE
  5
229
330
A
100
AcDbEntity
  8
0
100
AcDbLine
 10
203.277784355505
 20
130.3667199999999
 30
0.0
 11
201.278236632466
 21
128.3662452430193
 31
0.0
  0
LINE
  5
228
330
A
100
AcDbEntity
  8
0
100
AcDbLine
 10
197.2874737436441
 20
124.376409388139
 30
0.0
 11
195.2879287076601
 21
122.376864352155
 31
0.0
  0
LINE
  5
227
330
A
100
AcDbEntity
  8
0
100
AcDbLine
 10
188.7773666476888
 20
115.8663022921837
 30
0.0
 11
188.2885886736644
 21
115.3765972842174
 31
0.0
  0
LINE
  5
226
330
A
100
AcDbEntity
  8
0
100
AcDbLine
 10
194.2974104067563
 20
130.3667199999999
 30
0.0
 11
192.2969383368305
 21
128.3662452430193
 31
0.0
  0
LINE
  5
225
330
A
100
AcDbEntity
  8
0
100
AcDbLine
 10
203.2879656065349
 20
-13.31043351756818
 30
0.0
 11
201.9614149676031
 21
-14.63605712255818
 31
0.0
  0
LINE
  5
224
330
A
100
AcDbEntity
  8
0
100
AcDbLine
 10
197.2874737436441
 20
-10.32962708482315
 30
0.0
 11
195.2879287076601
 21
-12.33102618869071
 31
0.0
  0
LINE
  5
223
330
A
100
AcDbEntity
  8
0
100
AcDbLine
 10
194.481629516839
 20
-13.13639834557013
 30
0.0
 11
192.9810437059092
 21
-14.63605712255818
 31
0.0
  0
LINE
  5
222
330
A
100
AcDbEntity
  8
0
100
AcDbLine
 10
191.2879089146954
 20
-16.33011894771376
 30
0.0
 11
189.2883611916564
 21
-18.32966398369782
 31
0.0
  0
LINE
  5
221
330
A
100
AcDbEntity
  8
0
100
AcDbLine
 10
197.2874737436441
 20
-1.350180170016044
 30
0.0
 11
193.30319203125
 21
-5.334461882410295
 31
0.0
  0
LINE
  5
220
330
A
100
AcDbEntity
  8
0
100
AcDbLine
 10
185.5012582551449
 20
-13.13639834557013
 30
0.0
 11
184.0006724442153
 21
-14.63605712255818
 31
0.0
  0
LINE
  5
21F
330
A
100
AcDbEntity
  8
0
100
AcDbLine
 10
197.2874737436441
 20
7.631115438564763
 30
0.0
 11
195.2879287076601
 21
5.631570402580677
 31
0.0
  0
LINE
  5
21E
330
A
100
AcDbEntity
  8
0
100
AcDbLine
 10
189.620693455082
 20
-0.0356648499975734
 30
0.0
 11
187.129592030303
 21
-2.527690621663279
 31
0.0
  0
LINE
  5
21D
330
A
100
AcDbEntity
  8
0
100
AcDbLine
 10
176.5199599595093
 20
-13.13639834557013
 30
0.0
 11
175.2869053959493
 21
-14.36945290913021
 31
0.0
  0
LINE
  5
21C
330
A
100
AcDbEntity
  8
0
100
AcDbLine
 10
197.2874737436441
 20
16.61056235337184
 30
0.0
 11
195.2879287076601
 21
14.61101463033285
 31
0.0
  0
LINE
  5
21B
330
A
100
AcDbEntity
  8
0
100
AcDbLine
 10
197.2874737436441
 20
25.59186064900754
 30
0.0
 11
195.2879287076601
 21
23.59231292596855
 31
0.0
  0
LINE
  5
21A
330
A
100
AcDbEntity
  8
0
100
AcDbLine
 10
197.2874737436441
 20
34.57315625758833
 30
0.0
 11
195.2879287076601
 21
32.57361122160421
 31
0.0
  0
LINE
  5
219
330
A
100
AcDbEntity
  8
0
100
AcDbLine
 10
197.2874737436441
 20
43.55260317239542
 30
0.0
 11
195.2879287076601
 21
41.55305544935643
 31
0.0
  0
LINE
  5
218
330
A
100
AcDbEntity
  8
0
100
AcDbLine
 10
197.2874737436441
 20
52.53204740014759
 30
0.0
 11
195.2879287076601
 21
50.53250236416352
 31
0.0
  0
LINE
  5
217
330
A
100
AcDbEntity
  8
0
100
AcDbLine
 10
197.2874737436441
 20
61.5133456957833
 30
0.0
 11
195.2879287076601
 21
59.51379797274431
 31
0.0
  0
LINE
  5
216
330
A
100
AcDbEntity
  8
0
100
AcDbLine
 10
197.2874737436441
 20
70.494643991419
 30
0.0
 11
195.2879287076601
 21
68.49509626838001
 31
0.0
  0
LINE
  5
215
330
A
100
AcDbEntity
  8
0
100
AcDbLine
 10
197.2874737436441
 20
79.47408821917115
 30
0.0
 11
195.2879287076601
 21
77.47454318318708
 31
0.0
  0
LINE
  5
214
330
A
100
AcDbEntity
  8
0
100
AcDbLine
 10
197.2874737436441
 20
88.45538651480687
 30
0.0
 11
195.2879287076601
 21
86.45583879176788
 31
0.0
  0
LINE
  5
213
330
A
100
AcDbEntity
  8
0
100
AcDbLine
 10
197.2874737436441
 20
97.43668481044259
 30
0.0
 11
195.2879287076601
 21
95.43528570657498
 31
0.0
  0
LINE
  5
212
330
A
100
AcDbEntity
  8
0
100
AcDbLine
 10
197.2874737436441
 20
106.4156668647513
 30
0.0
 11
195.2879287076601
 21
104.4165840022106
 31
0.0
  0
LINE
  5
211
330
A
100
AcDbEntity
  8
0
100
AcDbLine
 10
188.7079385230888
 20
106.8165029058897
 30
0.0
 11
188.2885886736644
 21
106.3962260225234
 31
0.0
  0
LINE
  5
210
330
A
100
AcDbEntity
  8
0
100
AcDbLine
 10
201.5374380096345
 20
127.8663589840232
 30
0.0
 11
203.2879656065349
 21
127.8663589840232
 31
0.0
  0
LINE
  5
20F
330
A
100
AcDbEntity
  8
0
100
AcDbLine
 10
197.2874737436441
 20
127.8663589840232
 30
0.0
 11
198.5381177686035
 21
127.8663589840232
 31
0.0
  0
LINE
  5
20E
330
A
100
AcDbEntity
  8
0
100
AcDbLine
 10
198.5381177686035
 20
-12.1366258275781
 30
0.0
 11
197.2874737436441
 21
-12.1366258275781
 31
0.0
  0
LINE
  5
20D
330
A
100
AcDbEntity
  8
0
100
AcDbLine
 10
203.2879656065349
 20
-12.1366258275781
 30
0.0
 11
201.5374380096345
 21
-12.1366258275781
 31
0.0
  0
LINE
  5
1A1
330
A
100
AcDbEntity
  8
0
  6
CENTER2
100
AcDbLine
 10
-52.52070917005076
 20
124.3416719281606
 30
0.0
 11
-52.52070917005076
 21
-8.676274927273045
 31
0.0
  0
LINE
  5
1A0
330
A
100
AcDbEntity
  8
0
  6
CENTER2
100
AcDbLine
 10
65.4969805139278
 20
124.3416719281606
 30
0.0
 11
65.4969805139278
 21
-8.676274927273031
 31
0.0
  0
LINE
  5
19F
330
A
100
AcDbEntity
  8
0
  6
CENTER2
100
AcDbLine
 10
-60.02083641225089
 20
116.8415446859605
 30
0.0
 11
72.99710775612794
 21
116.8415446859605
 31
0.0
  0
LINE
  5
19E
330
A
100
AcDbEntity
  8
0
  6
CENTER2
100
AcDbLine
 10
-60.02083641225089
 20
-1.17614768507289
 30
0.0
 11
72.99710775612794
 21
-1.17614768507289
 31
0.0
  0
HATCH
  5
134
330
A
100
AcDbEntity
  8
0
100
AcDbHatch
 10
0.0
 20
0.0
 30
0.0
210
0.0
220
0.0
230
1.0
  2
SOLID
 70
     1
 71
     0
 91
        1
 92
        3
 72
     0
 73
     1
 93
        4
 10
226.8826173333396
 20
106.8882449532988
 10
212.1896518394859
 20
106.8882449532988
 10
212.1896518394859
 20
110.6799779839707
 10
226.8826173333396
 20
110.6799779839707
 97
        0
 75
     2
 76
     1
 98
        1
 10
-126.9334710912337
 20
-219.9358142456076
  0
HATCH
  5
12D
330
A
100
AcDbEntity
  8
0
100
AcDbHatch
 10
0.0
 20
0.0
 30
0.0
210
0.0
220
0.0
230
1.0
  2
SOLID
 70
     1
 71
     0
 91
        1
 92
        3
 72
     0
 73
     1
 93
        4
 10
226.8826173333396
 20
5.459386382824931
 10
212.1896518394859
 20
5.459386382824931
 10
212.1896518394859
 20
9.251119413496867
 10
226.8826173333396
 20
9.251119413496867
 97
        0
 75
     2
 76
     1
 98
        1
 10
-126.9334710912337
 20
-219.9358142456076
  0
HATCH
  5
F0
330
A
100
AcDbEntity
  8
0
100
AcDbHatch
 10
0.0
 20
0.0
 30
0.0
210
0.0
220
0.0
230
1.0
  2
SOLID
 70
     1
 71
     0
 91
        1
 92
        3
 72
     0
 73
     1
 93
        4
 10
377.4457078542464
 20
5.775981279428886
 10
362.7527423603928
 20
5.775981279428886
 10
362.7527423603928
 20
109.4159126877347
 10
377.4457078542464
 20
109.4159126877347
 97
        0
 75
     2
 76
     1
 98
        1
 10
-126.9334710912337
 20
-219.9358142456076
  0
LINE
  5
EE
330
A
100
AcDbEntity
  8
hyou
100
AcDbLine
 10
185.4105379074889
 20
-105.4488045357423
 30
0.0
 11
239.7829367626373
 21
-105.4488045357423
 31
0.0
  0
LINE
  5
EC
330
A
100
AcDbEntity
  8
hyou
100
AcDbLine
 10
313.2650394311539
 20
-104.0269037535554
 30
0.0
 11
406.665085189526
 21
-104.0269037535554
 31
0.0
  0
ELLIPSE
  5
48
330
A
100
AcDbEntity
  8
Dim
100
AcDbEllipse
 10
122.6888751053265
 20
-59.47404213596872
 30
0.0
 11
10.11136522479777
 21
0.0
 31
0.0
210
0.0
220
0.0
230
1.0
 40
0.937493
 41
0.0
 42
6.283185307179584
  0
ELLIPSE
  5
47
330
A
100
AcDbEntity
  8
Dim
100
AcDbEllipse
 10
297.7410920102729
 20
250.5001322257757
 30
0.0
 11
10.11113379577978
 21
0.0
 31
0.0
210
0.0
220
0.0
230
1.0
 40
0.937514
 41
0.0
 42
6.283185307179584
  0
ELLIPSE
  5
46
330
A
100
AcDbEntity
  8
Dim
100
AcDbEllipse
 10
262.9829996286806
 20
250.1840002163641
 30
0.0
 11
10.11136522479777
 21
0.0
 31
0.0
210
0.0
220
0.0
230
1.0
 40
0.937493
 41
0.0
 42
6.283185307179584
  0
ELLIPSE
  5
45
330
A
100
AcDbEntity
  8
Dim
100
AcDbEllipse
 10
298.3728911685976
 20
-48.41543812249294
 30
0.0
 11
10.11159665381575
 21
0.0
 31
0.0
210
0.0
220
0.0
230
1.0
 40
0.937471
 41
0.0
 42
6.283185307179584
  0
ELLIPSE
  5
44
330
A
100
AcDbEntity
  8
Dim
100
AcDbEllipse
 10
186.8324360026208
 20
250.1840002163641
 30
0.0
 11
10.11159665381575
 21
0.0
 31
0.0
210
0.0
220
0.0
230
1.0
 40
0.937471
 41
0.0
 42
6.283185307179584
  0
ELLIPSE
  5
43
330
A
100
AcDbEntity
  8
Dim
100
AcDbEllipse
 10
124.5845117281874
 20
-128.9897647257095
 30
0.0
 11
10.11159665381575
 21
0.0
 31
0.0
210
0.0
220
0.0
230
1.0
 40
0.937471
 41
0.0
 42
6.283185307179584
  0
ELLIPSE
  5
42
330
A
100
AcDbEntity
  8
Dim
100
AcDbEllipse
 10
299.3208250233891
 20
-128.9897647257095
 30
0.0
 11
10.11159665381575
 21
0.0
 31
0.0
210
0.0
220
0.0
230
1.0
 40
0.937471
 41
0.0
 42
6.283185307179584
  0
ELLIPSE
  5
41
330
A
100
AcDbEntity
  8
Dim
100
AcDbEllipse
 10
298.0562969857428
 20
166.7658747358285
 30
0.0
 11
10.11159665381575
 21
0.0
 31
0.0
210
0.0
220
0.0
230
1.0
 40
0.937471
 41
0.0
 42
6.283185307179584
  0
ELLIPSE
  5
40
330
A
100
AcDbEntity
  8
Dim
100
AcDbEllipse
 10
298.0562969857428
 20
206.2629404441572
 30
0.0
 11
10.11159665381575
 21
0.0
 31
0.0
210
0.0
220
0.0
230
1.0
 40
0.937471
 41
0.0
 42
6.283185307179584
  0
ELLIPSE
  5
39
330
A
100
AcDbEntity
  8
Dim
100
AcDbEllipse
 10
124.2688418922192
 20
-93.59963941201598
 30
0.0
 11
10.11159665381575
 21
0.0
 31
0.0
210
0.0
220
0.0
230
1.0
 40
0.937471
 41
0.0
 42
6.283185307179584
  0
LINE
  5
2C
330
A
100
AcDbEntity
  8
0
100
AcDbLine
 10
165.6617726230755
 20
-8.917910240720942
 30
0.0
 11
175.2869053959493
 21
-8.917910240720942
 31
0.0
  0
LINE
  5
2B
330
A
100
AcDbEntity
  8
0
100
AcDbLine
 10
185.2527029895048
 20
-8.917910240720942
 30
0.0
 11
194.4436748663252
 21
-8.917910240720942
 31
0.0
  0
TEXT
  5
3AE
330
A
100
AcDbEntity
  8
Dim
100
AcDbText
 10
260.1693806225518
 20
245.82931571852
 30
0.0
 40
9.0
  1
2
100
AcDbText
  0
TEXT
  5
3E2
330
A
100
AcDbEntity
  8
Dim
100
AcDbText
 10
20.83337889890445
 20
-36.47002985695099
 30
0.0
 40
9.0
  1
A
100
AcDbText
  0
TEXT
  5
3E3
330
A
100
AcDbEntity
  8
Dim
100
AcDbText
 10
121.663385798079
 20
-133.2960228481391
 30
0.0
 40
9.0
  1
8
100
AcDbText
  0
TEXT
  5
3E7
330
A
100
AcDbEntity
  8
Dim
100
AcDbText
 10
120.0761187292523
 20
-98.65598616752944
 30
0.0
 40
9.0
  1
4
100
AcDbText
  0
TEXT
  5
3E8
330
A
100
AcDbEntity
  8
Dim
100
AcDbText
 10
119.8077733479143
 20
-64.53038889148214
 30
0.0
 40
9.0
  1
7
100
AcDbText
  0
TEXT
  5
3EF
330
A
100
AcDbEntity
  8
Dim
100
AcDbText
 10
189.8814018253931
 20
-103.1757727566513
 30
0.0
 40
9.0
  1
A-A断面
100
AcDbText
  0
SPLINE
  5
3FE
330
A
100
AcDbEntity
  8
0
100
AcDbSpline
210
0.0
220
0.0
230
1.0
 70
     8
 71
     3
 72
     8
 73
     4
 74
     0
 42
0.000000001
 43
0.0000000001
 40
0.0
 40
0.0
 40
0.0
 40
0.0
 40
1.0
 40
1.0
 40
1.0
 40
1.0
 10
183.6257567236626
 20
2.684089599144641
 30
0.0
 10
183.7192540469286
 20
1.973139655893675
 30
0.0
 10
184.3718838776473
 20
1.471401544901425
 30
0.0
 10
185.0837595369703
 20
1.565824584239436
 30
0.0
  0
SPLINE
  5
3FF
330
A
100
AcDbEntity
  8
0
100
AcDbSpline
210
0.0
220
0.0
230
1.0
 70
     8
 71
     3
 72
     8
 73
     4
 74
     0
 42
0.000000001
 43
0.0000000001
 40
1.0
 40
1.0
 40
1.0
 40
1.0
 40
2.0
 40
2.0
 40
2.0
 40
2.0
 10
185.0837595369703
 20
1.565824584239436
 30
0.0
 10
185.5142175104228
 20
1.623218980699816
 30
0.0
 10
185.8882068034873
 20
1.889825209418944
 30
0.0
 10
186.0798300303791
 20
2.278625959634325
 30
0.0
  0
SPLINE
  5
400
330
A
100
AcDbEntity
  8
0
100
AcDbSpline
210
0.0
220
0.0
230
1.0
 70
     8
 71
     3
 72
     8
 73
     4
 74
     0
 42
0.000000001
 43
0.0000000001
 40
0.0
 40
0.0
 40
0.0
 40
0.0
 40
1.0
 40
1.0
 40
1.0
 40
1.0
 10
183.9229115827555
 20
2.724821106310029
 30
0.0
 10
183.9951174363671
 20
2.176797191720766
 30
0.0
 10
184.4977812634312
 20
1.79169930579317
 30
0.0
 10
185.0448794619487
 20
1.863905159404563
 30
0.0
  0
SPLINE
  5
401
330
A
100
AcDbEntity
  8
0
100
AcDbSpline
210
0.0
220
0.0
230
1.0
 70
     8
 71
     3
 72
     8
 73
     4
 74
     0
 42
0.000000001
 43
0.0000000001
 40
1.0
 40
1.0
 40
1.0
 40
1.0
 40
2.0
 40
2.0
 40
2.0
 40
2.0
 10
185.0448794619487
 20
1.863905159404563
 30
0.0
 10
185.3753600996317
 20
1.906488098713906
 30
0.0
 10
185.6632577980054
 20
2.111997066684919
 30
0.0
 10
185.8113723695161
 20
2.411929073993916
 30
0.0
  0
LINE
  5
402
330
A
100
AcDbEntity
  8
0
100
AcDbLine
 10
226.8826185275863
 20
5.459386611411233
 30
0.0
 11
212.1896518394859
 21
5.459386611411233
 31
0.0
  0
LINE
  5
403
330
A
100
AcDbEntity
  8
0
100
AcDbLine
 10
212.1896518394859
 20
5.459386611411233
 30
0.0
 11
212.1896518394859
 21
9.251119343521507
 31
0.0
  0
LINE
  5
404
330
A
100
AcDbEntity
  8
0
100
AcDbLine
 10
212.1896518394859
 20
9.251119343521507
 30
0.0
 11
226.8826185275863
 21
9.251119343521507
 31
0.0
  0
LINE
  5
405
330
A
100
AcDbEntity
  8
0
100
AcDbLine
 10
226.8826185275863
 20
9.251119343521507
 30
0.0
 11
226.8826185275863
 21
5.459386611411233
 31
0.0
  0
TEXT
  5
406
330
A
100
AcDbEntity
  8
Dim
100
AcDbText
 10
20.83337889890445
 20
144.8055745929192
 30
0.0
 40
9.0
  1
A
100
AcDbText
  0
TEXT
  5
411
330
A
100
AcDbEntity
  8
0
100
AcDbText
 10
-5.20143540625362
 20
107.836178439553
 30
0.0
 40
6.5
  1
PUSH
100
AcDbText
  0
LINE
  5
412
330
A
100
AcDbEntity
  8
0
100
AcDbLine
 10
19.52221811415407
 20
105.4663438025748
 30
0.0
 11
-7.019913697672661
 21
105.4663438025748
 31
0.0
  0
LINE
  5
413
330
A
100
AcDbEntity
  8
0
100
AcDbLine
 10
-7.019913697672661
 20
105.4663438025748
 30
0.0
 11
-7.019913697672661
 21
118.7374097084882
 31
0.0
  0
LINE
  5
414
330
A
100
AcDbEntity
  8
0
100
AcDbLine
 10
-7.019913697672661
 20
118.7374097084882
 30
0.0
 11
19.52221811415407
 21
118.7374097084882
 31
0.0
  0
LINE
  5
415
330
A
100
AcDbEntity
  8
0
100
AcDbLine
 10
19.52221811415407
 20
118.7374097084882
 30
0.0
 11
19.52221811415407
 21
105.4663438025748
 31
0.0
  0
TEXT
  5
41D
330
A
100
AcDbEntity
  8
moji
100
AcDbText
 10
-105.4532273968457
 20
314.9595967328151
 30
0.0
 40
12.0
  1
VGP100SF
  7
STD
100
AcDbText
  0
TEXT
  5
41E
330
A
100
AcDbEntity
  8
moji
100
AcDbText
 10
-110.1645878926785
 20
293.6004071533338
 30
0.0
 40
12.0
  1
自然給気口
100
AcDbText
  0
LINE
  5
42D
330
A
100
AcDbEntity
  8
0
100
AcDbLine
 10
226.8826185275863
 20
106.8882445847616
 30
0.0
 11
212.1896518394859
 21
106.8882445847616
 31
0.0
  0
LINE
  5
42E
330
A
100
AcDbEntity
  8
0
100
AcDbLine
 10
212.1896518394859
 20
106.8882445847616
 30
0.0
 11
212.1896518394859
 21
110.679977316872
 31
0.0
  0
LINE
  5
42F
330
A
100
AcDbEntity
  8
0
100
AcDbLine
 10
212.1896518394859
 20
110.679977316872
 30
0.0
 11
226.8826185275863
 21
110.679977316872
 31
0.0
  0
LINE
  5
430
330
A
100
AcDbEntity
  8
0
100
AcDbLine
 10
226.8826185275863
 20
110.679977316872
 30
0.0
 11
226.8826185275863
 21
106.8882445847616
 31
0.0
  0
TEXT
  5
437
330
A
100
AcDbEntity
  8
moji
100
AcDbText
 10
33.21124466210683
 20
293.4217656599575
 30
0.0
 40
12.0
  1
\U+03A6100<壁取付け型>
100
AcDbText
  0
TEXT
  5
438
330
A
100
AcDbEntity
  8
moji
100
AcDbText
 10
42.74658143421127
 20
315.6497560502316
 30
0.0
 40
12.0
  1
承　認　図
100
AcDbText
  0
TEXT
  5
439
330
A
100
AcDbEntity
  8
Dim
100
AcDbText
 10
182.8054734374943
 20
245.1290426682358
 30
0.0
 40
9.0
  1
3
100
AcDbText
  0
LINE
  5
443
330
A
100
AcDbEntity
  8
0
100
AcDbLine
 10
377.4457076139976
 20
5.775980794266232
 30
0.0
 11
362.7527436129524
 21
5.775980794266232
 31
0.0
  0
LINE
  5
444
330
A
100
AcDbEntity
  8
0
100
AcDbLine
 10
362.7527436129524
 20
5.775980794266232
 30
0.0
 11
362.7527436129524
 21
109.4159114526692
 31
0.0
  0
LINE
  5
445
330
A
100
AcDbEntity
  8
0
100
AcDbLine
 10
362.7527436129524
 20
109.4159114526692
 30
0.0
 11
377.4457076139976
 21
109.4159114526692
 31
0.0
  0
LINE
  5
446
330
A
100
AcDbEntity
  8
0
100
AcDbLine
 10
377.4457076139976
 20
109.4159114526692
 30
0.0
 11
377.4457076139976
 21
5.775980794266232
 31
0.0
  0
TEXT
  5
448
330
A
100
AcDbEntity
  8
moji
100
AcDbText
 10
503.1565426591221
 20
-186.5539139142176
 30
0.0
 40
12.0
  1
自然給気口
 72
     1
 11
537.9565426591222
 21
-188.1539139142176
 31
0.0
100
AcDbText
 73
     1
  0
TEXT
  5
449
330
A
100
AcDbEntity
  8
moji
100
AcDbText
 10
493.9565426591221
 20
-165.1523256075726
 30
0.0
 40
12.0
  1
VGP100SF
  7
STD
 72
     1
 11
537.9565426591222
 21
-169.1523256075726
 31
0.0
100
AcDbText
 73
     1
  0
TEXT
  5
44A
330
A
100
AcDbEntity
  8
moji
100
AcDbText
 10
481.5565426591222
 20
-207.7126130336438
 30
0.0
 40
12.0
  1
マックス株式会社
 72
     1
 11
537.9565426591222
 21
-209.3126130336438
 31
0.0
100
AcDbText
 73
     1
  0
TEXT
  5
453
330
A
100
AcDbEntity
  8
moji
100
AcDbText
 10
280.6778285117509
 20
-207.6953297153398
 30
0.0
 40
8.463685535440449
  1
作図
100
AcDbText
  0
TEXT
  5
454
330
A
100
AcDbEntity
  8
moji
100
AcDbText
 10
324.8976266869011
 20
-207.2581333611169
 30
0.0
 40
7.899404005679039
  1
2006.4.14
  7
STD
100
AcDbText
  0
TEXT
  5
455
330
A
100
AcDbEntity
  8
moji
100
AcDbText
 10
280.6600194067065
 20
-166.2348560122019
 30
0.0
 40
12.0
  1
承　認　図
100
AcDbText
  0
TEXT
  5
456
330
A
100
AcDbEntity
  8
Dim
100
AcDbText
 10
295.9247372697005
 20
-134.0451844472813
 30
0.0
 40
9.0
  1
5
100
AcDbText
  0
TEXT
  5
457
330
A
100
AcDbEntity
  8
Dim
100
AcDbText
 10
316.6992934973809
 20
-102.011654654843
 30
0.0
 40
9.0
  1
シャッター閉状態
100
AcDbText
  0
TEXT
  5
458
330
A
100
AcDbEntity
  8
Dim
100
AcDbText
 10
292.6499030624817
 20
-53.08454229634489
 30
0.0
 40
9.0
  1
10
100
AcDbText
  0
TEXT
  5
45F
330
A
100
AcDbEntity
  8
moji
100
AcDbText
 10
498.7024780739481
 20
115.9807720723065
 30
0.0
 40
6.347898504325517
  1
圧損特性曲線
100
AcDbText
  0
TEXT
  5
475
330
A
100
AcDbEntity
  8
Dim
100
AcDbText
 10
296.6036402606409
 20
162.5386400559416
 30
0.0
 40
9.0
  1
1
100
AcDbText
  0
TEXT
  5
476
330
A
100
AcDbEntity
  8
Dim
100
AcDbText
 10
294.9898405651712
 20
201.5084981985079
 30
0.0
 40
9.0
  1
6
100
AcDbText
  0
TEXT
  5
477
330
A
100
AcDbEntity
  8
moji
  6
Continuous
100
AcDbText
 10
435.6649170361508
 20
208.4366762148863
 30
0.0
 40
6.5
  1
浮出ラッチ
100
AcDbText
  0
TEXT
  5
478
330
A
100
AcDbEntity
  8
moji
  6
Continuous
100
AcDbText
 10
435.6649170361508
 20
196.2316913763008
 30
0.0
 40
6.5
  1
パッキン
100
AcDbText
  0
TEXT
  5
479
330
A
100
AcDbEntity
  8
moji
  6
Continuous
100
AcDbText
 10
435.1909501087551
 20
221.2337751934041
 30
0.0
 40
6.5
  1
断熱材2
100
AcDbText
  0
TEXT
  5
47A
330
A
100
AcDbEntity
  8
moji
  6
Continuous
100
AcDbText
 10
422.3306569741108
 20
208.791069485508
 30
0.0
 40
6.5
  1
9
100
AcDbText
  0
TEXT
  5
47B
330
A
100
AcDbEntity
  8
moji
  6
Continuous
100
AcDbText
 10
419.9398066257641
 20
195.5200035795946
 30
0.0
 40
6.5
  1
10
100
AcDbText
  0
TEXT
  5
47C
330
A
100
AcDbEntity
  8
moji
  6
Continuous
100
AcDbText
 10
421.9354548550728
 20
221.1142015366301
 30
0.0
 40
6.5
  1
8
100
AcDbText
  0
TEXT
  5
47D
330
A
100
AcDbEntity
  8
Dim
100
AcDbText
 10
293.9295489863456
 20
245.7594553062303
 30
0.0
 40
9.0
  1
9
100
AcDbText
  0
TEXT
  5
47E
330
A
100
AcDbEntity
  8
moji
  6
Continuous
100
AcDbText
 10
438.034751673129
 20
309.3128051395385
 30
0.0
 40
6.5
  1
本体
100
AcDbText
  0
TEXT
  5
47F
330
A
100
AcDbEntity
  8
moji
  6
Continuous
100
AcDbText
 10
423.3051587353479
 20
310.2199301459135
 30
0.0
 40
6.5
  1
1
100
AcDbText
  0
TEXT
  5
480
330
A
100
AcDbEntity
  8
moji
  6
Continuous
100
AcDbText
 10
435.1909501087551
 20
245.9588067910609
 30
0.0
 40
6.5
  1
フィルター
100
AcDbText
  0
TEXT
  5
481
330
A
100
AcDbEntity
  8
moji
  6
Continuous
100
AcDbText
 10
435.6649170361508
 20
233.0829430041854
 30
0.0
 40
6.5
  1
断熱材1
100
AcDbText
  0
TEXT
  5
482
330
A
100
AcDbEntity
  8
moji
  6
Continuous
100
AcDbText
 10
436.1388839635464
 20
258.8498305928823
 30
0.0
 40
6.5
  1
板バネ
100
AcDbText
  0
TEXT
  5
483
330
A
100
AcDbEntity
  8
moji
  6
Continuous
100
AcDbText
 10
435.6649170361508
 20
271.0790378207008
 30
0.0
 40
6.5
  1
シャッター
100
AcDbText
  0
TEXT
  5
484
330
A
100
AcDbEntity
  8
moji
  6
Continuous
100
AcDbText
 10
436.1388839635464
 20
283.323405063465
 30
0.0
 40
6.5
  1
断熱材トレイ
100
AcDbText
  0
TEXT
  5
485
330
A
100
AcDbEntity
  8
moji
  6
Continuous
100
AcDbText
 10
436.1388839635464
 20
296.6352314508063
 30
0.0
 40
6.5
  1
グリル
100
AcDbText
  0
TEXT
  5
486
330
A
100
AcDbEntity
  8
moji
  6
Continuous
100
AcDbText
 10
422.0536020676093
 20
271.3546662829646
 30
0.0
 40
6.5
  1
4
100
AcDbText
  0
TEXT
  5
487
330
A
100
AcDbEntity
  8
moji
  6
Continuous
100
AcDbText
 10
422.291274569932
 20
245.7604683259292
 30
0.0
 40
6.5
  1
6
100
AcDbText
  0
TEXT
  5
488
330
A
100
AcDbEntity
  8
moji
  6
Continuous
100
AcDbText
 10
422.2125097615741
 20
232.9633693474114
 30
0.0
 40
6.5
  1
7
100
AcDbText
  0
TEXT
  5
489
330
A
100
AcDbEntity
  8
moji
  6
Continuous
100
AcDbText
 10
421.9354548550728
 20
258.5575673044469
 30
0.0
 40
6.5
  1
5
100
AcDbText
  0
TEXT
  5
48A
330
A
100
AcDbEntity
  8
moji
  6
Continuous
100
AcDbText
 10
422.4094217824683
 20
284.1517652614824
 30
0.0
 40
6.5
  1
3
100
AcDbText
  0
TEXT
  5
48B
330
A
100
AcDbEntity
  8
moji
  6
Continuous
100
AcDbText
 10
422.3700393782896
 20
296.94886424
 30
0.0
 40
6.5
  1
2
100
AcDbText
  0
TEXT
  5
48C
330
A
100
AcDbEntity
  8
moji
  6
Continuous
100
AcDbText
 10
441.3525174778435
 20
321.6753195948393
 30
0.0
 40
6.5
  1
部　品　
100
AcDbText
  0
TEXT
  5
48D
330
A
100
AcDbEntity
  8
moji
  6
Continuous
100
AcDbText
 10
510.0776789573338
 20
221.7075525402104
 30
0.0
 40
6.5
  1
発泡PE
100
AcDbText
  0
TEXT
  5
48E
330
A
100
AcDbEntity
  8
moji
  6
Continuous
100
AcDbText
 10
510.0683033590192
 20
196.4678057686955
 30
0.0
 40
6.5
  1
EPDM
100
AcDbText
  0
TEXT
  5
48F
330
A
100
AcDbEntity
  8
moji
  6
Continuous
100
AcDbText
 10
558.86467135285
 20
246.5118292219622
 30
0.0
 40
6.5
  1
捕集効率63%(質量法）
100
AcDbText
  0
TEXT
  5
491
330
A
100
AcDbEntity
  8
moji
  6
Continuous
100
AcDbText
 10
509.4461824132226
 20
309.7459632185179
 30
0.0
 40
6.5
  1
ABS
100
AcDbText
  0
TEXT
  5
492
330
A
100
AcDbEntity
  8
moji
  6
Continuous
100
AcDbText
 10
509.4461824132226
 20
271.3546662829646
 30
0.0
 40
6.5
  1
ABS
100
AcDbText
  0
TEXT
  5
493
330
A
100
AcDbEntity
  8
moji
  6
Continuous
100
AcDbText
 10
509.603712029938
 20
234.0306845913324
 30
0.0
 40
6.5
  1
発泡PE
100
AcDbText
  0
TEXT
  5
494
330
A
100
AcDbEntity
  8
moji
  6
Continuous
100
AcDbText
 10
507.7078443203555
 20
246.1317164029542
 30
0.0
 40
6.5
  1
不織布ﾌｨﾙﾀｰ
100
AcDbText
  0
TEXT
  5
495
330
A
100
AcDbEntity
  8
moji
  6
Continuous
100
AcDbText
 10
508.7359210607536
 20
259.2829886718616
 30
0.0
 40
6.5
  1
SUS304
100
AcDbText
  0
TEXT
  5
496
330
A
100
AcDbEntity
  8
moji
  6
Continuous
100
AcDbText
 10
509.4461824132226
 20
284.1517652614824
 30
0.0
 40
6.5
  1
ABS
100
AcDbText
  0
TEXT
  5
497
330
A
100
AcDbEntity
  8
moji
  6
Continuous
100
AcDbText
 10
509.4461824132226
 20
297.4228311673957
 30
0.0
 40
6.5
  1
ABS
100
AcDbText
  0
TEXT
  5
498
330
A
100
AcDbEntity
  8
moji
  6
Continuous
100
AcDbText
 10
515.7652767119716
 20
322.2674337347716
 30
0.0
 40
6.5
  1
材　質
100
AcDbText
  0
TEXT
  5
499
330
A
100
AcDbEntity
  8
moji
  6
Continuous
100
AcDbText
 10
582.1206062415384
 20
322.1886689264138
 30
0.0
 40
6.5
  1
備　考
100
AcDbText
  0
LINE
  5
500
330
A
100
AcDbEntity
  8
hyou
100
AcDbLine
 10
447.1558305648513
 20
99.46770600756769
 30
0.0
 11
616.016624233675
 21
99.46770600756769
 31
0.0
  0
LINE
  5
501
330
A
100
AcDbEntity
  8
hyou
100
AcDbLine
 10
616.016624233675
 20
99.46770600756769
 30
0.0
 11
616.016624233675
 21
-42.17518572466153
 31
0.0
  0
LINE
  5
502
330
A
100
AcDbEntity
  8
hyou
100
AcDbLine
 10
616.016624233675
 20
-42.17518572466153
 30
0.0
 11
447.1558305648513
 21
-42.17518572466153
 31
0.0
  0
LINE
  5
504
330
A
100
AcDbEntity
  8
hyou
100
AcDbLine
 10
447.1558305648513
 20
99.46770600756769
 30
0.0
 11
447.1558305648513
 21
-42.17518572466153
 31
0.0
  0
LINE
  5
510
330
A
100
AcDbEntity
  8
hyou
100
AcDbLine
 10
447.1558305648513
 20
-42.17518572466153
 30
0.0
 11
616.016624233675
 21
-42.17518572466153
 31
0.0
  0
LINE
  5
514
330
A
100
AcDbEntity
  8
hyou
100
AcDbLine
 10
548.538404017487
 20
-42.17518572466153
 30
0.0
 11
548.538404017487
 21
-40.63294250156082
 31
0.0
  0
LINE
  5
515
330
A
100
AcDbEntity
  8
hyou
100
AcDbLine
 10
582.1131980311693
 20
-42.17518572466153
 30
0.0
 11
582.1131980311693
 21
-40.63294250156082
 31
0.0
  0
LINE
  5
516
330
A
100
AcDbEntity
  8
hyou
100
AcDbLine
 10
616.016624233675
 20
-42.17518572466153
 30
0.0
 11
616.016624233675
 21
-40.63294250156082
 31
0.0
  0
LINE
  5
517
330
A
100
AcDbEntity
  8
hyou
100
AcDbLine
 10
481.0601811142436
 20
99.46770600756771
 30
0.0
 11
481.0601811142436
 21
-42.17518572466153
 31
0.0
  0
LINE
  5
518
330
A
100
AcDbEntity
  8
hyou
100
AcDbLine
 10
514.6349778149811
 20
99.46770600756771
 30
0.0
 11
514.6349778149811
 21
-42.17518572466153
 31
0.0
  0
LINE
  5
519
330
A
100
AcDbEntity
  8
hyou
100
AcDbLine
 10
548.5384013304321
 20
99.46770600756771
 30
0.0
 11
548.5384013304321
 21
-42.17518572466153
 31
0.0
  0
LINE
  5
51A
330
A
100
AcDbEntity
  8
hyou
100
AcDbLine
 10
582.1131980311693
 20
99.46770600756771
 30
0.0
 11
582.1131980311693
 21
-42.17518572466153
 31
0.0
  0
LINE
  5
51B
330
A
100
AcDbEntity
  8
hyou
100
AcDbLine
 10
616.016624233675
 20
99.46770600756771
 30
0.0
 11
616.016624233675
 21
-42.17518572466153
 31
0.0
  0
LINE
  5
51C
330
A
100
AcDbEntity
  8
hyou
100
AcDbLine
 10
463.9427653982489
 20
99.46770600756771
 30
0.0
 11
463.9427653982489
 21
-42.17518572466153
 31
0.0
  0
LINE
  5
51D
330
A
100
AcDbEntity
  8
hyou
100
AcDbLine
 10
497.8471159476415
 20
99.46770600756771
 30
0.0
 11
497.8471159476415
 21
-42.17518572466153
 31
0.0
  0
LINE
  5
51E
330
A
100
AcDbEntity
  8
hyou
100
AcDbLine
 10
531.7505421501473
 20
99.46770600756771
 30
0.0
 11
531.7505421501473
 21
-42.17518572466153
 31
0.0
  0
LINE
  5
51F
330
A
100
AcDbEntity
  8
hyou
100
AcDbLine
 10
565.3262631977716
 20
99.46770600756771
 30
0.0
 11
565.3262631977716
 21
-42.17518572466153
 31
0.0
  0
LINE
  5
520
330
A
100
AcDbEntity
  8
hyou
100
AcDbLine
 10
599.2296894002772
 20
99.46770600756771
 30
0.0
 11
599.2296894002772
 21
-42.17518572466153
 31
0.0
  0
LINE
  5
521
330
A
100
AcDbEntity
  8
hyou
100
AcDbLine
 10
447.1558278777963
 20
-27.98025391472864
 30
0.0
 11
616.016624233675
 21
-27.98025391472864
 31
0.0
  0
LINE
  5
522
330
A
100
AcDbEntity
  8
hyou
100
AcDbLine
 10
447.1558278777963
 20
-13.78532479185065
 30
0.0
 11
616.016624233675
 21
-13.78532479185065
 31
0.0
  0
LINE
  5
523
330
A
100
AcDbEntity
  8
hyou
100
AcDbLine
 10
447.1558278777963
 20
0.409604331027353
 30
0.0
 11
616.016624233675
 21
0.409604331027353
 31
0.0
  0
LINE
  5
524
330
A
100
AcDbEntity
  8
hyou
100
AcDbLine
 10
447.1558278777963
 20
14.60546048784707
 30
0.0
 11
616.016624233675
 21
14.60546048784707
 31
0.0
  0
LINE
  5
525
330
A
100
AcDbEntity
  8
hyou
100
AcDbLine
 10
447.1558278777963
 20
28.8013166446668
 30
0.0
 11
616.016624233675
 21
28.8013166446668
 31
0.0
  0
LINE
  5
526
330
A
100
AcDbEntity
  8
hyou
100
AcDbLine
 10
447.1558278777963
 20
42.68705979505909
 30
0.0
 11
616.016624233675
 21
42.68705979505909
 31
0.0
  0
LINE
  5
527
330
A
100
AcDbEntity
  8
hyou
100
AcDbLine
 10
447.1558278777963
 20
56.88291595187878
 30
0.0
 11
616.016624233675
 21
56.88291595187878
 31
0.0
  0
LINE
  5
528
330
A
100
AcDbEntity
  8
hyou
100
AcDbLine
 10
447.1558278777963
 20
71.07784507475681
 30
0.0
 11
616.016624233675
 21
71.07784507475681
 31
0.0
  0
LINE
  5
529
330
A
100
AcDbEntity
  8
hyou
100
AcDbLine
 10
447.1558278777963
 20
85.27277419763478
 30
0.0
 11
616.016624233675
 21
85.27277419763478
 31
0.0
  0
LINE
  5
52A
330
A
100
AcDbEntity
  8
hyou
100
AcDbLine
 10
447.1558278777963
 20
99.46770600756771
 30
0.0
 11
616.016624233675
 21
99.46770600756771
 31
0.0
  0
LINE
  5
539
102
{ACAD_REACTORS
330
5E1
102
}
330
A
100
AcDbEntity
  8
hyou
 62
     1
100
AcDbLine
 10
584.7468611538601
 20
56.57465163922509
 30
0.0
 11
588.3664100948009
 21
61.5114943149547
 31
0.0
  0
LINE
  5
53A
102
{ACAD_REACTORS
330
5E1
102
}
330
A
100
AcDbEntity
  8
hyou
 62
     1
100
AcDbLine
 10
588.3664100948009
 20
61.5114943149547
 30
0.0
 11
591.9878131036252
 21
66.44833967773921
 31
0.0
  0
LINE
  5
53B
102
{ACAD_REACTORS
330
5E1
102
}
330
A
100
AcDbEntity
  8
hyou
 62
     1
100
AcDbLine
 10
591.9878131036252
 20
66.44833967773921
 30
0.0
 11
595.6092134253946
 21
71.69437101300943
 31
0.0
  0
LINE
  5
53C
102
{ACAD_REACTORS
330
5E1
102
}
330
A
100
AcDbEntity
  8
hyou
 62
     1
100
AcDbLine
 10
595.6092134253946
 20
71.69437101300943
 30
0.0
 11
599.5583189020456
 21
76.94132938222139
 31
0.0
  0
LINE
  5
53D
102
{ACAD_REACTORS
330
5E1
102
}
330
A
100
AcDbEntity
  8
hyou
 62
     1
100
AcDbLine
 10
492.9093462379703
 20
-26.12789768520046
 30
0.0
 11
500.4807790703323
 21
-21.8085052946103
 31
0.0
  0
LINE
  5
53E
102
{ACAD_REACTORS
330
5E1
102
}
330
A
100
AcDbEntity
  8
hyou
 62
     1
100
AcDbLine
 10
500.4807790703323
 20
-21.8085052946103
 30
0.0
 11
508.0512848687526
 21
-16.87166261888069
 31
0.0
  0
TEXT
  5
53F
330
A
100
AcDbEntity
  8
moji
100
AcDbText
 10
438.8555331710163
 20
-30.06404349605122
 30
0.0
 40
5.0
  1
5
 41
1.07
100
AcDbText
  0
TEXT
  5
540
330
A
100
AcDbEntity
  8
moji
100
AcDbText
 10
438.8867017846528
 20
-44.26082399975778
 30
0.0
 40
5.0
  1
0
 41
1.07
100
AcDbText
  0
LINE
  5
541
102
{ACAD_REACTORS
330
5E1
102
}
330
A
100
AcDbEntity
  8
hyou
 62
     1
100
AcDbLine
 10
461.9672856259819
 20
-38.78151061891948
 30
0.0
 11
469.5387184583439
 21
-36.31169873014205
 31
0.0
  0
LINE
  5
542
102
{ACAD_REACTORS
330
5E1
102
}
330
A
100
AcDbEntity
  8
hyou
 62
     1
100
AcDbLine
 10
469.5387184583439
 20
-36.31169873014205
 30
0.0
 11
477.1092242567643
 21
-33.53455224970751
 31
0.0
  0
TEXT
  5
543
330
A
100
AcDbEntity
  8
moji
100
AcDbText
 10
445.7684074493807
 20
-50.73713417087267
 30
0.0
 40
5.0
  1
0
 41
1.07
100
AcDbText
  0
LINE
  5
544
102
{ACAD_REACTORS
330
5E1
102
}
330
A
100
AcDbEntity
  8
hyou
 62
     1
100
AcDbLine
 10
447.1558305648513
 20
-42.1751857246615
 30
0.0
 11
454.3967798275613
 21
-40.63294250156078
 31
0.0
  0
LINE
  5
545
102
{ACAD_REACTORS
330
5E1
102
}
330
A
100
AcDbEntity
  8
hyou
 62
     1
100
AcDbLine
 10
454.3967798275613
 20
-40.63294250156078
 30
0.0
 11
461.9672856259819
 21
-38.78151061891948
 31
0.0
  0
TEXT
  5
546
330
A
100
AcDbEntity
  8
moji
100
AcDbText
 10
478.218908264278
 20
-50.73713417087267
 30
0.0
 40
5.0
  1
10
 41
1.07
100
AcDbText
  0
LINE
  5
547
102
{ACAD_REACTORS
330
5E1
102
}
330
A
100
AcDbEntity
  8
hyou
 62
     1
100
AcDbLine
 10
477.1092242567643
 20
-33.53455224970751
 30
0.0
 11
485.0092865908947
 21
-30.1399501100237
 31
0.0
  0
LINE
  5
548
102
{ACAD_REACTORS
330
5E1
102
}
330
A
100
AcDbEntity
  8
hyou
 62
     1
100
AcDbLine
 10
485.0092865908947
 20
-30.1399501100237
 30
0.0
 11
492.9093462379703
 21
-26.12789768520046
 31
0.0
  0
TEXT
  5
549
330
A
100
AcDbEntity
  8
moji
100
AcDbText
 10
433.606192782666
 20
17.38446103616509
 30
0.0
 40
5.0
  1
静圧P(Pa)
 50
90.0
 41
0.9399999999999998
100
AcDbText
  0
TEXT
  5
54A
330
A
100
AcDbEntity
  8
moji
100
AcDbText
 10
436.1100041728831
 20
-15.87003872006007
 30
0.0
 40
5.0
  1
10
 41
1.07
100
AcDbText
  0
TEXT
  5
54B
330
A
100
AcDbEntity
  8
moji
100
AcDbText
 10
436.1100041728831
 20
-1.673255529298581
 30
0.0
 40
5.0
  1
15
 41
1.07
100
AcDbText
  0
TEXT
  5
54C
330
A
100
AcDbEntity
  8
moji
100
AcDbText
 10
436.2190943206102
 20
12.523524974408
 30
0.0
 40
5.0
  1
20
 41
1.07
100
AcDbText
  0
TEXT
  5
54D
330
A
100
AcDbEntity
  8
moji
100
AcDbText
 10
436.2190943206102
 20
26.71938113122774
 30
0.0
 40
5.0
  1
25
 41
1.07
100
AcDbText
  0
TEXT
  5
54E
330
A
100
AcDbEntity
  8
moji
100
AcDbText
 10
436.2190943206102
 20
40.60327021373652
 30
0.0
 40
5.0
  1
30
 41
1.07
100
AcDbText
  0
TEXT
  5
54F
330
A
100
AcDbEntity
  8
moji
100
AcDbText
 10
436.2190943206102
 20
54.79727498972767
 30
0.0
 40
5.0
  1
35
 41
1.07
100
AcDbText
  0
TEXT
  5
550
330
A
100
AcDbEntity
  8
moji
100
AcDbText
 10
511.900943731914
 20
-50.73713417087267
 30
0.0
 40
5.0
  1
20
 41
1.07
100
AcDbText
  0
TEXT
  5
551
330
A
100
AcDbEntity
  8
moji
100
AcDbText
 10
511.1124525294559
 20
-57.83552442272597
 30
0.0
 40
5.0
  1
風量Q(m3/h)
 41
1.07
100
AcDbText
  0
TEXT
  5
552
330
A
100
AcDbEntity
  8
moji
100
AcDbText
 10
545.8043672473649
 20
-50.73713417087267
 30
0.0
 40
5.0
  1
30
 41
1.07
100
AcDbText
  0
TEXT
  5
553
330
A
100
AcDbEntity
  8
moji
100
AcDbText
 10
579.4112595956802
 20
-50.73713417087267
 30
0.0
 40
5.0
  1
40
 41
1.07
100
AcDbText
  0
TEXT
  5
554
330
A
100
AcDbEntity
  8
moji
100
AcDbText
 10
613.2835144974947
 20
-50.73713417087267
 30
0.0
 40
5.0
  1
50
 41
1.07
100
AcDbText
  0
LINE
  5
555
102
{ACAD_REACTORS
330
5E1
102
}
330
A
100
AcDbEntity
  8
hyou
 62
     1
100
AcDbLine
 10
553.8048005418716
 20
21.70292639281352
 30
0.0
 11
561.375306340292
 21
29.72610689557317
 31
0.0
  0
LINE
  5
556
102
{ACAD_REACTORS
330
5E1
102
}
330
A
100
AcDbEntity
  8
hyou
 62
     1
100
AcDbLine
 10
561.375306340292
 20
29.72610689557317
 30
0.0
 11
568.9458121387121
 21
38.36674037052718
 31
0.0
  0
LINE
  5
557
102
{ACAD_REACTORS
330
5E1
102
}
330
A
100
AcDbEntity
  8
hyou
 62
     1
100
AcDbLine
 10
538.3342350963759
 20
7.198805923340021
 30
0.0
 11
545.9047408947961
 21
14.29627182830647
 31
0.0
  0
LINE
  5
558
102
{ACAD_REACTORS
330
5E1
102
}
330
A
100
AcDbEntity
  8
hyou
 62
     1
100
AcDbLine
 10
545.9047408947961
 20
14.29627182830647
 30
0.0
 11
553.8048005418716
 21
21.70292639281352
 31
0.0
  0
LINE
  5
559
102
{ACAD_REACTORS
330
5E1
102
}
330
A
100
AcDbEntity
  8
hyou
 62
     1
100
AcDbLine
 10
523.5209259673617
 20
-5.144691316896636
 30
0.0
 11
530.7637292979554
 21
0.7187956776228363
 31
0.0
  0
LINE
  5
55A
102
{ACAD_REACTORS
330
5E1
102
}
330
A
100
AcDbEntity
  8
hyou
 62
     1
100
AcDbLine
 10
530.7637292979554
 20
0.7187956776228363
 30
0.0
 11
538.3342350963759
 21
7.198805923340021
 31
0.0
  0
LINE
  5
55B
102
{ACAD_REACTORS
330
5E1
102
}
330
A
100
AcDbEntity
  8
hyou
 62
     1
100
AcDbLine
 10
508.0512848687526
 20
-16.87166261888069
 30
0.0
 11
512.0013146922905
 21
-14.09358910450441
 31
0.0
  0
LINE
  5
55C
102
{ACAD_REACTORS
330
5E1
102
}
330
A
100
AcDbEntity
  8
hyou
 62
     1
100
AcDbLine
 10
512.0013146922905
 20
-14.09358910450441
 30
0.0
 11
515.9504201689413
 21
-11.31643993701494
 31
0.0
  0
LINE
  5
55D
102
{ACAD_REACTORS
330
5E1
102
}
330
A
100
AcDbEntity
  8
hyou
 62
     1
100
AcDbLine
 10
515.9504201689413
 20
-11.31643993701494
 30
0.0
 11
523.5209259673617
 21
-5.144691316896636
 31
0.0
  0
LINE
  5
55E
102
{ACAD_REACTORS
330
5E1
102
}
330
A
100
AcDbEntity
  8
hyou
 62
     1
100
AcDbLine
 10
568.9458121387121
 20
38.36674037052718
 30
0.0
 11
576.8467988197296
 21
47.31563815813496
 31
0.0
  0
LINE
  5
55F
102
{ACAD_REACTORS
330
5E1
102
}
330
A
100
AcDbEntity
  8
hyou
 62
     1
100
AcDbLine
 10
576.8467988197296
 20
47.31563815813496
 30
0.0
 11
584.7468611538601
 21
56.57465163922509
 31
0.0
  0
TEXT
  5
560
330
A
100
AcDbEntity
  8
moji
100
AcDbText
 10
436.2502629342468
 20
68.99405818048911
 30
0.0
 40
5.0
  1
40
 41
1.07
100
AcDbText
  0
TEXT
  5
561
330
A
100
AcDbEntity
  8
moji
100
AcDbText
 10
436.2502629342468
 20
83.19083868419575
 30
0.0
 40
5.0
  1
45
 41
1.07
100
AcDbText
  0
TEXT
  5
562
330
A
100
AcDbEntity
  8
moji
100
AcDbText
 10
436.2190943206102
 20
97.38762187495723
 30
0.0
 40
5.0
  1
50
 41
1.07
100
AcDbText
  0
LINE
  5
563
102
{ACAD_REACTORS
330
5E1
102
}
330
A
100
AcDbEntity
  8
hyou
 62
     1
100
AcDbLine
 10
599.5583189020456
 20
76.94132938222139
 30
0.0
 11
603.5083487255832
 21
82.49562771720027
 31
0.0
  0
LINE
  5
564
102
{ACAD_REACTORS
330
5E1
102
}
330
A
100
AcDbEntity
  8
hyou
 62
     1
100
AcDbLine
 10
603.5083487255832
 20
82.49562771720027
 30
0.0
 11
608.1174889334862
 21
88.358187677778
 31
0.0
  0
LINE
  5
565
102
{ACAD_REACTORS
330
5E1
102
}
330
A
100
AcDbEntity
  8
hyou
 62
     1
100
AcDbLine
 10
608.1174889334862
 20
88.358187677778
 30
0.0
 11
616.016624233675
 21
99.18200778819821
 31
0.0
  0
ARC
  5
56F
330
A
100
AcDbEntity
  8
0
100
AcDbCircle
 10
333.9137160864336
 20
126.3629247170291
 30
0.0
 40
4.002003860386174
100
AcDbArc
 50
92.15802257259225
 51
172.4626319655093
  0
ARC
  5
570
330
A
100
AcDbEntity
  8
0
100
AcDbCircle
 10
325.2294769832197
 20
-0.6352382984519949
 30
0.0
 40
8.500214913901851
100
AcDbArc
 50
270.0019555370805
 51
359.9855655817862
  0
ARC
  5
571
330
A
100
AcDbEntity
  8
0
100
AcDbCircle
 10
325.2290069447315
 20
-0.6356926680015688
 30
0.0
 40
11.00104423969743
100
AcDbArc
 50
270.0039521883323
 51
0.0008564029129093
  0
ARC
  5
572
330
A
100
AcDbEntity
  8
0
100
AcDbCircle
 10
316.0041669999694
 20
-9.396438439785347
 30
0.0
 40
4.000307065067524
100
AcDbArc
 50
172.4748083265451
 51
262.4726012167125
  0
ARC
  5
574
330
A
100
AcDbEntity
  8
0
100
AcDbCircle
 10
167.2867744090606
 20
-10.64723974551478
 30
0.0
 40
3.99992579166858
100
AcDbArc
 50
180.0119306779709
 51
270.0145882761801
  0
ARC
  5
575
330
A
100
AcDbEntity
  8
0
100
AcDbCircle
 10
167.2886741131324
 20
126.4079955620309
 30
0.0
 40
4.001825615782923
100
AcDbArc
 50
99.68091756898964
 51
179.9815820248443
  0
ARC
  5
576
330
A
100
AcDbEntity
  8
0
100
AcDbCircle
 10
167.2873371055735
 20
126.4082667621831
 30
0.0
 40
2.000941741012532
100
AcDbArc
 50
97.48324794738824
 51
179.9709115025291
  0
ARC
  5
577
330
A
100
AcDbEntity
  8
0
100
AcDbCircle
 10
167.2880387062978
 20
-10.64597662275617
 30
0.0
 40
2.001643376578518
100
AcDbArc
 50
180.0599974264204
 51
269.9929888520196
  0
ARC
  5
582
330
A
100
AcDbEntity
  8
0
100
AcDbCircle
 10
175.2853639445778
 20
-0.6355276003019231
 30
0.0
 40
8.00003780786945
100
AcDbArc
 50
89.98895340409855
 51
270.0110397801337
  0
ARC
  5
583
330
A
100
AcDbEntity
  8
0
100
AcDbCircle
 10
175.2873221713059
 20
-0.6361134893420785
 30
0.0
 40
13.00035124994006
100
AcDbArc
 50
285.9432215565304
 51
349.703429494939
  0
ARC
  5
584
330
A
100
AcDbEntity
  8
0
100
AcDbCircle
 10
184.9168037345108
 20
2.853076426138863
 30
0.0
 40
0.9974282865908683
100
AcDbArc
 50
277.3774880085027
 51
333.7501669175428
  0
ARC
  5
585
330
A
100
AcDbEntity
  8
0
100
AcDbCircle
 10
184.914266760521
 20
2.855234036793665
 30
0.0
 40
0.9998963050835691
100
AcDbArc
 50
187.4942362085478
 51
277.5057822053959
  0
ARC
  5
586
330
A
100
AcDbEntity
  8
0
100
AcDbCircle
 10
184.91394330789
 20
2.855482658877453
 30
0.0
 40
1.300790337117438
100
AcDbArc
 50
277.5012892505615
 51
333.674744183987
  0
ARC
  5
587
330
A
100
AcDbEntity
  8
0
100
AcDbCircle
 10
184.9134357660569
 20
2.853366689031247
 30
0.0
 40
1.298758968611912
100
AcDbArc
 50
187.4891341654915
 51
277.5356746418814
  0
ARC
  5
588
330
A
100
AcDbEntity
  8
0
100
AcDbCircle
 10
193.5125424385013
 20
21.83961414411726
 30
0.0
 40
1.99477197885838
100
AcDbArc
 50
334.1158207542128
 51
41.32695923077288
  0
ARC
  5
589
330
A
100
AcDbEntity
  8
0
100
AcDbCircle
 10
193.4967999480213
 20
21.83859068896742
 30
0.0
 40
1.709534294469979
100
AcDbArc
 50
333.8616958691819
 51
44.06958649165384
  0
ARC
  5
593
330
A
100
AcDbEntity
  8
0
  6
Continuous
100
AcDbCircle
 10
-61.76371525318177
 20
-10.64733901549798
 30
0.0
 40
3.999826445667053
100
AcDbArc
 50
180.0105178624614
 51
270.0093830135846
  0
ARC
  5
594
330
A
100
AcDbEntity
  8
0
  6
Continuous
100
AcDbCircle
 10
75.24032236789686
 20
-10.64731376369544
 30
0.0
 40
3.999852987786346
100
AcDbArc
 50
269.990784302851
 51
0.1482498514676813
  0
ARC
  5
596
330
A
100
AcDbEntity
  8
0
  6
Continuous
100
AcDbCircle
 10
-61.76306022368351
 20
126.2450764859763
 30
0.0
 40
4.121643514023617
100
AcDbArc
 50
90.00000000000005
 51
193.9269012243098
  0
ARC
  5
597
330
A
100
AcDbEntity
  8
0
  6
Continuous
100
AcDbCircle
 10
75.25400314001584
 20
126.3667002070351
 30
0.0
 40
3.986158826392383
100
AcDbArc
 50
0.0
 51
90.20587670335769
  0
LWPOLYLINE
  5
5DC
330
A
100
AcDbEntity
  8
waku
100
AcDbPolyline
 90
        4
 70
     1
 43
0.0
 10
-116.8913020232074
 20
332.9990242849456
 10
642.8355468840692
 20
332.9990242849456
 10
642.8355468840692
 20
-213.101252479467
 10
-116.8913020232074
 20
-213.101252479467
  0
LWPOLYLINE
  5
5DD
330
A
100
AcDbEntity
  8
waku
100
AcDbPolyline
 90
        4
 70
     1
 43
0.0
 10
271.1855383592025
 20
-148.6269796128539
 10
642.8355468840692
 20
-148.6269796128539
 10
642.8355468840692
 20
-213.101252479467
 10
271.1855383592025
 20
-213.101252479467
  0
LINE
  5
5DF
330
A
100
AcDbEntity
  8
waku
100
AcDbLine
 10
271.1855383592026
 20
-170.1026667168393
 30
0.0
 11
642.8355468840692
 21
-170.1026667168393
 31
0.0
  0
LINE
  5
5E0
330
A
100
AcDbEntity
  8
waku
100
AcDbLine
 10
271.1855383592026
 20
-191.6246383415396
 30
0.0
 11
642.8355468840692
 21
-191.6246383415396
 31
0.0
  0
LWPOLYLINE
  5
5E2
330
A
100
AcDbEntity
  8
waku
100
AcDbPolyline
 90
        4
 70
     1
 43
0.0
 10
-116.8913020232074
 20
332.9990242849457
 10
289.0213086460776
 20
332.9990242849457
 10
289.0213086460776
 20
290.0009006957617
 10
-116.8913020232074
 20
290.0009006957617
  0
LINE
  5
5E3
330
A
100
AcDbEntity
  8
waku
100
AcDbLine
 10
289.0213086460776
 20
311.4999624903537
 30
0.0
 11
-116.8913020232074
 21
311.4999624903537
 31
0.0
  0
LINE
  5
5E4
330
A
100
AcDbEntity
  8
waku
100
AcDbLine
 10
20.20858591097976
 20
332.9990242849457
 30
0.0
 11
20.20858591097976
 21
290.0009006957617
 31
0.0
  0
LWPOLYLINE
  5
5E6
330
A
100
AcDbEntity
  8
hyou
100
AcDbPolyline
 90
        4
 70
     1
 43
0.0
 10
416.7062533755993
 20
332.9703265385749
 10
642.8355468840692
 20
332.9703265385749
 10
642.8355468840692
 20
194.572072411858
 10
416.7062533755993
 20
194.572072411858
  0
LINE
  5
5F2
330
A
100
AcDbEntity
  8
hyou
100
AcDbLine
 10
416.7062533755993
 20
320.3886670725097
 30
0.0
 11
642.8355468840692
 21
320.3886670725097
 31
0.0
  0
LINE
  5
5F3
330
A
100
AcDbEntity
  8
hyou
100
AcDbLine
 10
416.7062533755993
 20
307.8070076064445
 30
0.0
 11
642.8355468840692
 21
307.8070076064445
 31
0.0
  0
LINE
  5
5F4
330
A
100
AcDbEntity
  8
hyou
100
AcDbLine
 10
416.7062533755993
 20
295.2253481403793
 30
0.0
 11
642.8355468840692
 21
295.2253481403793
 31
0.0
  0
LINE
  5
5F5
330
A
100
AcDbEntity
  8
hyou
100
AcDbLine
 10
416.7062533755993
 20
282.6436886743142
 30
0.0
 11
642.8355468840692
 21
282.6436886743142
 31
0.0
  0
LINE
  5
5F6
330
A
100
AcDbEntity
  8
hyou
100
AcDbLine
 10
416.7062533755993
 20
270.062029208249
 30
0.0
 11
642.8355468840692
 21
270.062029208249
 31
0.0
  0
LINE
  5
5F7
330
A
100
AcDbEntity
  8
hyou
100
AcDbLine
 10
416.7062533755993
 20
257.4803697421838
 30
0.0
 11
642.8355468840692
 21
257.4803697421838
 31
0.0
  0
LINE
  5
5F8
330
A
100
AcDbEntity
  8
hyou
100
AcDbLine
 10
416.7062533755993
 20
244.8987102761186
 30
0.0
 11
642.8355468840692
 21
244.8987102761186
 31
0.0
  0
LINE
  5
5F9
330
A
100
AcDbEntity
  8
hyou
100
AcDbLine
 10
416.7062533755993
 20
232.3170508100535
 30
0.0
 11
642.8355468840692
 21
232.3170508100535
 31
0.0
  0
LINE
  5
5FA
330
A
100
AcDbEntity
  8
hyou
100
AcDbLine
 10
416.7062533755993
 20
219.7353913439883
 30
0.0
 11
642.8355468840692
 21
219.7353913439883
 31
0.0
  0
LINE
  5
5FB
330
A
100
AcDbEntity
  8
hyou
100
AcDbLine
 10
416.7062533755993
 20
207.1537318779232
 30
0.0
 11
642.8355468840692
 21
207.1537318779232
 31
0.0
  0
LINE
  5
5FC
330
A
100
AcDbEntity
  8
hyou
100
AcDbLine
 10
433.7690520136231
 20
332.9703265385749
 30
0.0
 11
433.7690520136231
 21
194.5720724118579
 31
0.0
  0
LINE
  5
5FD
330
A
100
AcDbEntity
  8
hyou
100
AcDbLine
 10
506.7599104655641
 20
332.9703265385749
 30
0.0
 11
506.7599104655641
 21
194.5720724118579
 31
0.0
  0
LINE
  5
5FE
330
A
100
AcDbEntity
  8
hyou
100
AcDbLine
 10
557.0003752118988
 20
332.9703265385749
 30
0.0
 11
557.0003752118988
 21
194.5720724118579
 31
0.0
  0
DIMENSION
  5
612
330
A
100
AcDbEntity
  8
Dim
100
AcDbDimension
  2
*D1
 10
105.7610015551785
 20
-1.176147685072899
 30
0.0
 11
99.76100155517849
 21
57.83269850044381
 31
0.0
 70
    32
 71
     5
 42
118.0176923710334
  3
1-3
100
AcDbAlignedDimension
 13
72.99710775612794
 23
116.8415446859605
 33
0.0
 14
72.99710775612794
 24
-1.17614768507289
 34
0.0
 50
90.0
100
AcDbRotatedDimension
  0
DIMENSION
  5
64E
330
A
100
AcDbEntity
  8
Dim
100
AcDbDimension
  2
*D2
 10
129.4593318026314
 20
-14.64716540752976
 30
0.0
 11
123.4593318026314
 21
57.85977729623509
 31
0.0
 70
    32
 71
     5
 42
145.0138854075296
  3
1-3
100
AcDbAlignedDimension
 13
75.23968
 23
130.3667199999999
 33
0.0
 14
75.23968
 24
-14.64716540752975
 34
0.0
 50
90.0
100
AcDbRotatedDimension
  0
DIMENSION
  5
65B
330
A
100
AcDbEntity
  8
Dim
100
AcDbDimension
  2
*D3
 10
65.4969805139278
 20
-65.37825950871732
 30
0.0
 11
6.488135671938517
 21
-59.37825950871732
 31
0.0
 70
    32
 71
     5
 42
118.0176896839785
  3
1-3
100
AcDbAlignedDimension
 13
-52.52070917005076
 23
-8.676274927273045
 33
0.0
 14
65.4969805139278
 24
-8.676274927273045
 34
0.0
100
AcDbRotatedDimension
  0
DIMENSION
  5
668
330
A
100
AcDbEntity
  8
Dim
100
AcDbDimension
  2
*D4
 10
79.24016196640825
 20
-82.55584644516895
 30
0.0
 11
6.738309888158251
 21
-76.55584644516896
 31
0.0
 70
    32
 71
     5
 42
145.0037041565
  3
1-3
100
AcDbAlignedDimension
 13
-65.76354219009174
 23
-10.64807264850674
 33
0.0
 14
79.24016196640825
 24
-10.6369643635351
 34
0.0
100
AcDbRotatedDimension
  0
MTEXT
  5
677
330
A
100
AcDbEntity
  8
Dim
100
AcDbMText
 10
-25.6430791085886
 20
182.411129225668
 30
0.0
 40
9.0
 41
0.0
 71
     7
 72
     1
  1
取付穴\U+03C65（4ヶ所）
 73
     1
 44
1.0
1001
ACAD
1000
MTEXTBEGIN
1070
    73
1070
     1
1070
    44
1040
1.0
1070
    74
1070
     0
1000
MTEXTEND
  0
LINE
  5
67A
330
A
100
AcDbEntity
  8
Dim
100
AcDbLine
 10
7.673050303372745
 20
-33.56695007068053
 30
0.0
 11
7.673050303372745
 21
-29.37623267826025
 31
0.0
  0
DIMENSION
  5
68D
330
A
100
AcDbEntity
  8
Dim
100
AcDbDimension
  2
*D5
 10
185.4105379074889
 20
169.7304809145596
 30
0.0
 11
204.3105379074889
 21
175.7304809145596
 31
0.0
 70
    32
  1
(<>)
 71
     5
 42
16.58883171062808
  3
1-3
100
AcDbAlignedDimension
 13
168.8217061968608
 23
132.9564094691928
 33
0.0
 14
185.4105379074889
 24
132.9564094691928
 34
0.0
100
AcDbRotatedDimension
1001
ACAD
1000
DSTYLE
1002
{
1070
   172
1070
     1
1002
}
  0
DIMENSION
  5
6B8
330
A
100
AcDbEntity
  8
Dim
100
AcDbDimension
  2
*D6
 10
336.2300499562985
 20
145.3170339973851
 30
0.0
 11
357.5300499562985
 21
151.3170339973851
 31
0.0
 70
    32
 71
     5
 42
2.467030786952193
  3
1-3
100
AcDbAlignedDimension
 13
333.7630191693463
 23
130.3620902044009
 33
0.0
 14
336.2300499562985
 24
130.3667199999999
 34
0.0
100
AcDbRotatedDimension
1001
ACAD
1000
DSTYLE
1002
{
1070
   172
1070
     1
1070
   271
1070
     1
1002
}
  0
DIMENSION
  5
6DB
330
A
100
AcDbEntity
  8
Dim
100
AcDbDimension
  2
*D7
 10
298.0211207499994
 20
9.364056261120881
 30
0.0
 11
292.0211207499994
 21
57.86486657822258
 31
0.0
 70
    32
  1
\U+03C6<>
 71
     5
 42
97.00162063420332
  3
1-3
100
AcDbAlignedDimension
 13
253.2886671308739
 23
106.3656768953242
 33
0.0
 14
253.2886671308739
 24
9.364056261120893
 34
0.0
 50
90.0
100
AcDbRotatedDimension
  0
DIMENSION
  5
6F1
330
A
100
AcDbEntity
  8
Dim
100
AcDbDimension
  2
*D8
 10
203.2879656065349
 20
-80.32857350610262
 30
0.0
 11
183.2874071553222
 21
-74.32857350610262
 31
0.0
 70
    32
 71
     5
 42
40.00111690242532
  3
1-3
100
AcDbAlignedDimension
 13
163.2868487041096
 23
-10.64807264850674
 33
0.0
 14
203.2879656065349
 24
-14.63605712255818
 34
0.0
100
AcDbRotatedDimension
  0
DIMENSION
  5
6FE
330
A
100
AcDbEntity
  8
Dim
100
AcDbDimension
  2
*D9
 10
253.2886671308739
 20
-80.32857350610262
 30
0.0
 11
228.2883163687044
 21
-74.32857350610262
 31
0.0
 70
    32
 71
     5
 42
50.00070152433898
  3
1-3
100
AcDbAlignedDimension
 13
203.2879656065349
 23
-14.63605712255818
 33
0.0
 14
253.2886671308739
 24
9.364056261120893
 34
0.0
100
AcDbRotatedDimension
1001
ACAD
1000
DSTYLE
1002
{
1070
   279
1070
     1
1002
}
  0
INSERT
  5
726
330
A
100
AcDbEntity
  8
Dim
100
AcDbBlockReference
  2
_Open30
 10
7.673050303372745
 20
147.17540788637
 30
0.0
 41
5.399999999999997
 42
5.399999999999997
 43
5.399999999999997
 50
180.0
1001
ACAD
1000
DSTYLE
1002
{
1070
   147
1040
0.05
1070
    77
1070
     0
1002
}
  0
LWPOLYLINE
  5
727
330
A
100
AcDbEntity
  8
Dim
100
AcDbPolyline
 90
        2
 70
     0
 43
0.0
 10
13.07305030337274
 20
147.17540788637
 10
19.16721212727953
 20
147.17540788637
1001
ACAD
1000
DSTYLE
1002
{
1070
   147
1040
0.05
1070
    77
1070
     0
1002
}
  0
INSERT
  5
728
330
A
100
AcDbEntity
  8
Dim
100
AcDbBlockReference
  2
_Open30
 10
-52.5030194860722
 20
116.8415446859605
 30
0.0
 41
5.399999999999997
 42
5.399999999999997
 43
5.399999999999997
 50
255.0
  0
LWPOLYLINE
  5
729
330
A
100
AcDbEntity
  8
Dim
100
AcDbPolyline
 90
        4
 70
     0
 43
0.0
 10
-51.10539664251859
 20
122.0575441479214
 10
-35.33562604926003
 20
180.911129225668
 10
-27.1430791085886
 20
180.911129225668
 10
75.75692089141139
 20
180.911129225668
  0
INSERT
  5
72C
330
A
100
AcDbEntity
  8
Dim
100
AcDbBlockReference
  2
_Open30
 10
174.5093039514989
 20
94.09114560624407
 30
0.0
 41
5.399999999999997
 42
5.399999999999997
 43
5.399999999999997
 50
265.1954790366481
1001
ACAD
1000
DSTYLE
1002
{
1070
   147
1040
0.05
1070
    77
1070
     0
1002
}
  0
LWPOLYLINE
  5
72D
330
A
100
AcDbEntity
  8
Dim
100
AcDbPolyline
 90
        2
 70
     0
 43
0.0
 10
174.9615889004836
 20
99.47217137508424
 10
186.8324360026208
 20
240.7046715897148
1001
ACAD
1000
DSTYLE
1002
{
1070
   147
1040
0.05
1070
    77
1070
     0
1002
}
  0
INSERT
  5
72E
330
A
100
AcDbEntity
  8
Dim
100
AcDbBlockReference
  2
_Open30
 10
203.277784355505
 20
130.3667199999999
 30
0.0
 41
5.399999999999997
 42
5.399999999999997
 43
5.399999999999997
 50
243.5253998962998
1001
ACAD
1000
DSTYLE
1002
{
1070
   147
1040
0.05
1070
    77
1070
     0
1002
}
  0
LWPOLYLINE
  5
72F
330
A
100
AcDbEntity
  8
Dim
100
AcDbPolyline
 90
        2
 70
     0
 43
0.0
 10
205.6851099407115
 20
135.2004332234763
 10
258.6783755632237
 20
241.6065838367758
1001
ACAD
1000
DSTYLE
1002
{
1070
   147
1040
0.05
1070
    77
1070
     0
1002
}
  0
INSERT
  5
730
330
A
100
AcDbEntity
  8
Dim
100
AcDbBlockReference
  2
_Open30
 10
195.9956371670124
 20
111.1539442442675
 30
0.0
 41
5.399999999999997
 42
5.399999999999997
 43
5.399999999999997
 50
234.3246686496723
1001
ACAD
1000
DSTYLE
1002
{
1070
   147
1040
0.05
1070
    77
1070
     0
1002
}
  0
LWPOLYLINE
  5
731
330
A
100
AcDbEntity
  8
Dim
100
AcDbPolyline
 90
        2
 70
     0
 43
0.0
 10
199.1448713501793
 20
115.5405515961481
 10
290.9768319132012
 20
243.4544284035822
1001
ACAD
1000
DSTYLE
1002
{
1070
   147
1040
0.05
1070
    77
1070
     0
1002
}
  0
INSERT
  5
732
330
A
100
AcDbEntity
  8
Dim
100
AcDbBlockReference
  2
_Open30
 10
199.1555707407979
 20
95.98701331582665
 30
0.0
 41
5.399999999999997
 42
5.399999999999997
 43
5.399999999999997
 50
229.4999211025341
1001
ACAD
1000
DSTYLE
1002
{
1070
   147
1040
0.05
1070
    77
1070
     0
1002
}
  0
LWPOLYLINE
  5
733
330
A
100
AcDbEntity
  8
Dim
100
AcDbPolyline
 90
        2
 70
     0
 43
0.0
 10
202.6625958560886
 20
100.093200700825
 10
289.2964274058464
 20
201.5281019430994
1001
ACAD
1000
DSTYLE
1002
{
1070
   147
1040
0.05
1070
    77
1070
     0
1002
}
  0
INSERT
  5
734
330
A
100
AcDbEntity
  8
Dim
100
AcDbBlockReference
  2
_Open30
 10
251.1206410653775
 20
106.3656768953242
 30
0.0
 41
5.399999999999997
 42
5.399999999999997
 43
5.399999999999997
 50
232.6106720651355
1001
ACAD
1000
DSTYLE
1002
{
1070
   147
1040
0.05
1070
    77
1070
     0
1002
}
  0
LWPOLYLINE
  5
735
330
A
100
AcDbEntity
  8
Dim
100
AcDbPolyline
 90
        2
 70
     0
 43
0.0
 10
254.3996715061164
 20
110.6561266816179
 10
291.6670785979581
 20
159.4186928372649
1001
ACAD
1000
DSTYLE
1002
{
1070
   147
1040
0.05
1070
    77
1070
     0
1002
}
  0
INSERT
  5
736
330
A
100
AcDbEntity
  8
Dim
100
AcDbBlockReference
  2
_Open30
 10
176.4051716610814
 20
41.63822165452685
 30
0.0
 41
5.399999999999997
 42
5.399999999999997
 43
5.399999999999997
 50
60.85501476532818
1001
ACAD
1000
DSTYLE
1002
{
1070
   147
1040
0.05
1070
    77
1070
     0
1002
}
  0
LWPOLYLINE
  5
737
330
A
100
AcDbEntity
  8
Dim
100
AcDbPolyline
 90
        2
 70
     0
 43
0.0
 10
173.7752568334384
 20
36.92191504878721
 10
125.149728699194
 20
-50.27973009066748
1001
ACAD
1000
DSTYLE
1002
{
1070
   147
1040
0.05
1070
    77
1070
     0
1002
}
  0
INSERT
  5
738
330
A
100
AcDbEntity
  8
Dim
100
AcDbBlockReference
  2
_Open30
 10
163.7659076005478
 20
-1.96670879532354
 30
0.0
 41
5.399999999999997
 42
5.399999999999997
 43
5.399999999999997
 50
66.94974485354943
1001
ACAD
1000
DSTYLE
1002
{
1070
   147
1040
0.05
1070
    77
1070
     0
1002
}
  0
LWPOLYLINE
  5
739
330
A
100
AcDbEntity
  8
Dim
100
AcDbPolyline
 90
        2
 70
     0
 43
0.0
 10
161.6516004065982
 20
-6.935582419155523
 10
128.4480614361588
 20
-84.96785203457617
1001
ACAD
1000
DSTYLE
1002
{
1070
   147
1040
0.05
1070
    77
1070
     0
1002
}
  0
INSERT
  5
73A
330
A
100
AcDbEntity
  8
Dim
100
AcDbBlockReference
  2
_Open30
 10
169.4535053551856
 20
-10.81377526324859
 30
0.0
 41
5.399999999999997
 42
5.399999999999997
 43
5.399999999999997
 50
69.40266203740165
1001
ACAD
1000
DSTYLE
1002
{
1070
   147
1040
0.05
1070
    77
1070
     0
1002
}
  0
LWPOLYLINE
  5
73B
330
A
100
AcDbEntity
  8
Dim
100
AcDbPolyline
 90
        2
 70
     0
 43
0.0
 10
167.5537953048708
 20
-15.86858502472655
 10
128.347060104645
 20
-120.191130337861
1001
ACAD
1000
DSTYLE
1002
{
1070
   147
1040
0.05
1070
    77
1070
     0
1002
}
  0
INSERT
  5
73C
330
A
100
AcDbEntity
  8
Dim
100
AcDbBlockReference
  2
_Open30
 10
191.0898057919255
 20
12.42447475655055
 30
0.0
 41
5.399999999999997
 42
5.399999999999997
 43
5.399999999999997
 50
127.2309360712844
1001
ACAD
1000
DSTYLE
1002
{
1070
   147
1040
0.05
1070
    77
1070
     0
1002
}
  0
LWPOLYLINE
  5
73D
330
A
100
AcDbEntity
  8
Dim
100
AcDbPolyline
 90
        2
 70
     0
 43
0.0
 10
194.356962943426
 20
8.124976629164196
 10
292.9536285766013
 20
-121.6258004528862
1001
ACAD
1000
DSTYLE
1002
{
1070
   147
1040
0.05
1070
    77
1070
     0
1002
}
  0
INSERT
  5
73E
330
A
100
AcDbEntity
  8
Dim
100
AcDbBlockReference
  2
_Open30
 10
219.5361351835361
 20
7.35525163393892
 30
0.0
 41
5.399999999999997
 42
5.399999999999997
 43
5.399999999999997
 50
144.3722203164184
1001
ACAD
1000
DSTYLE
1002
{
1070
   147
1040
0.05
1070
    77
1070
     0
1002
}
  0
LWPOLYLINE
  5
73F
330
A
100
AcDbEntity
  8
Dim
100
AcDbPolyline
 90
        2
 70
     0
 43
0.0
 10
223.9253546782375
 20
4.209659125788346
 10
289.9796713860126
 20
-43.12904517410152
1001
ACAD
1000
DSTYLE
1002
{
1070
   147
1040
0.05
1070
    77
1070
     0
1002
}
  0
INSERT
  5
74F
330
A
100
AcDbEntity
  8
Dim
100
AcDbBlockReference
  2
_Open30
 10
7.673050303372745
 20
-31.47159137447041
 30
0.0
 41
5.399999999999998
 42
5.399999999999998
 43
5.399999999999998
 50
180.0
1001
ACAD
1000
DSTYLE
1002
{
1070
   147
1040
0.05
1070
    77
1070
     0
1002
}
  0
LWPOLYLINE
  5
750
330
A
100
AcDbEntity
  8
Dim
100
AcDbPolyline
 90
        2
 70
     0
 43
0.0
 10
13.07305030337274
 20
-31.47159137447041
 10
19.16721212727953
 20
-31.47159137447041
1001
ACAD
1000
DSTYLE
1002
{
1070
   147
1040
0.05
1070
    77
1070
     0
1002
}
  0
LINE
  5
7AB
330
A
100
AcDbEntity
  8
Dim
  6
CENTER2
 48
10.0
100
AcDbLine
 10
-97.21183158301801
 20
57.30249554449763
 30
0.0
 11
416.0042342835515
 21
57.30249554449763
 31
0.0
  0
DIMENSION
  5
7B3
330
A
100
AcDbEntity
  8
Dim
100
AcDbDimension
  2
*D11
 10
298.0211207499994
 20
106.3656768953242
 30
0.0
 11
292.0211207499994
 21
118.3661984476621
 31
0.0
 70
    32
 71
     5
 42
24.00104310467571
  3
1-3
100
AcDbAlignedDimension
 13
203.277784355505
 23
130.3667199999999
 33
0.0
 14
203.2879656065349
 24
106.3656768953242
 34
0.0
 50
90.0
100
AcDbRotatedDimension
  0
DIMENSION
  5
7C0
330
A
100
AcDbEntity
  8
Dim
100
AcDbDimension
  2
*D12
 10
298.0211207499994
 20
9.364056261120866
 30
0.0
 11
292.0211207499994
 21
-2.63600043071862
 31
0.0
 70
    32
 71
     5
 42
24.00011338367907
  3
1-3
100
AcDbAlignedDimension
 13
203.2879656065349
 23
-14.63605712255818
 33
0.0
 14
203.2879656065349
 24
9.364056261120893
 34
0.0
 50
90.0
100
AcDbRotatedDimension
  0
LINE
  5
7D6
330
A
100
AcDbEntity
  8
Dim
  6
CENTER2
 48
10.0
100
AcDbLine
 10
6.738309888158248
 20
-44.27003023416022
 30
0.0
 11
6.738309888158248
 21
168.3984485391511
 31
0.0
  0
ENDSEC
  0
SECTION
  2
OBJECTS
  0
DICTIONARY
  5
19
330
0
100
AcDbDictionary
281
     1
  3
ACAD_CIP_PREVIOUS_PRODUCT_INFO
350
7AA
  3
ACAD_COLOR
350
56C
  3
ACAD_DETAILVIEWSTYLE
350
7A7
  3
ACAD_GROUP
350
1A
  3
ACAD_LAYOUT
350
1E
  3
ACAD_MATERIAL
350
56B
  3
ACAD_MLEADERSTYLE
350
7A3
  3
ACAD_MLINESTYLE
350
1B
  3
ACAD_PLOTSETTINGS
350
22
  3
ACAD_PLOTSTYLENAME
350
1F
  3
ACAD_SCALELIST
350
791
  3
ACAD_SECTIONVIEWSTYLE
350
7A5
  3
ACAD_TABLESTYLE
350
78F
  3
ACAD_VISUALSTYLE
350
776
  3
ACAD_WIPEOUT_VARS
350
23
  3
ACDB_RECOMPOSE_DATA
350
7EE
  3
AcDbVariableDictionary
350
7E1
  3
DWGPROPS
350
7EF
  0
DICTIONARY
  5
7D7
330
14
100
AcDbDictionary
280
     1
281
     1
  3
ADSK_XREC_LAYER_RECONCILED
360
7D8
  0
DICTIONARY
  5
7D9
330
5B3
100
AcDbDictionary
280
     1
281
     1
  3
ADSK_XREC_LAYER_RECONCILED
360
7DA
  0
DICTIONARY
  5
7DB
330
5B4
100
AcDbDictionary
280
     1
281
     1
  3
ADSK_XREC_LAYER_RECONCILED
360
7DC
  0
DICTIONARY
  5
7DD
330
5B5
100
AcDbDictionary
280
     1
281
     1
  3
ADSK_XREC_LAYER_RECONCILED
360
7DE
  0
DICTIONARY
  5
7DF
330
5B7
100
AcDbDictionary
280
     1
281
     1
  3
ADSK_XREC_LAYER_RECONCILED
360
7E0
  0
XRECORD
  5
7AA
102
{ACAD_REACTORS
330
19
102
}
330
19
100
AcDbXrecord
280
     1
300
ACDLT
300
2013
300
ACDLT_F_S
  0
DICTIONARY
  5
56C
102
{ACAD_REACTORS
330
19
102
}
330
19
100
AcDbDictionary
281
     1
  0
DICTIONARY
  5
7A7
102
{ACAD_REACTORS
330
19
102
}
330
19
100
AcDbDictionary
281
     1
  3
Metric50
350
7A8
  0
DICTIONARY
  5
1A
102
{ACAD_REACTORS
330
19
102
}
330
19
100
AcDbDictionary
281
     1
  3
*A1
350
5E1
  0
DICTIONARY
  5
1E
102
{ACAD_REACTORS
330
19
102
}
330
19
100
AcDbDictionary
281
     1
  3
Layout1
350
21
  3
Model
350
20
  0
DICTIONARY
  5
56B
102
{ACAD_REACTORS
330
19
102
}
330
19
100
AcDbDictionary
281
     1
  3
ByBlock
350
766
  3
ByLayer
350
75E
  3
Global
350
76E
  0
DICTIONARY
  5
7A3
102
{ACAD_REACTORS
330
19
102
}
330
19
100
AcDbDictionary
281
     1
  3
Standard
350
7A4
  0
DICTIONARY
  5
1B
102
{ACAD_REACTORS
330
19
102
}
330
19
100
AcDbDictionary
281
     1
  3
Standard
350
1C
  0
DICTIONARY
  5
22
102
{ACAD_REACTORS
330
19
102
}
330
19
100
AcDbDictionary
281
     1
  0
ACDBDICTIONARYWDFLT
  5
1F
102
{ACAD_REACTORS
330
19
102
}
330
19
100
AcDbDictionary
281
     1
  3
Normal
350
1D
100
AcDbDictionaryWithDefault
340
1D
  0
DICTIONARY
  5
791
102
{ACAD_REACTORS
330
19
102
}
330
19
100
AcDbDictionary
281
     1
  3
A0
350
792
  3
A1
350
793
  3
A2
350
794
  3
A3
350
795
  3
A4
350
796
  3
A5
350
797
  3
A6
350
798
  3
A7
350
799
  3
A8
350
79A
  3
A9
350
79B
  3
B0
350
79C
  3
B1
350
79D
  3
B2
350
79E
  3
B3
350
79F
  3
B4
350
7A0
  3
B5
350
7A1
  3
B6
350
7A2
  0
DICTIONARY
  5
7A5
102
{ACAD_REACTORS
330
19
102
}
330
19
100
AcDbDictionary
281
     1
  3
Metric50
350
7A6
  0
DICTIONARY
  5
78F
102
{ACAD_REACTORS
330
19
102
}
330
19
100
AcDbDictionary
281
     1
  3
Standard
350
790
  0
DICTIONARY
  5
776
102
{ACAD_REACTORS
330
19
102
}
330
19
100
AcDbDictionary
281
     1
  3
2dWireframe
350
77C
  3
Basic
350
77B
  3
Brighten
350
782
  3
ColorChange
350
786
  3
Conceptual
350
77F
  3
Dim
350
781
  3
EdgeColorOff
350
78E
  3
Facepattern
350
785
  3
Flat
350
777
  3
FlatWithEdges
350
778
  3
Gouraud
350
779
  3
GouraudWithEdges
350
77A
  3
Hidden
350
77E
  3
JitterOff
350
78C
  3
Linepattern
350
784
  3
OverhangOff
350
78D
  3
Realistic
350
780
  3
Shaded
350
78B
  3
Shaded with edges
350
78A
  3
Shades of Gray
350
787
  3
Sketchy
350
788
  3
Thicken
350
783
  3
Wireframe
350
77D
  3
X-Ray
350
789
  0
WIPEOUTVARIABLES
  5
23
330
19
100
AcDbWipeoutVariables
 70
     1
  0
XRECORD
  5
7EE
102
{ACAD_REACTORS
330
19
102
}
330
19
100
AcDbXrecord
280
     1
 90
        1
330
790
  0
DICTIONARY
  5
7E1
102
{ACAD_REACTORS
330
19
102
}
330
19
100
AcDbDictionary
281
     1
  3
CANNOSCALE
350
7E6
  3
CMLEADERSTYLE
350
7E3
  3
CTABLESTYLE
350
7E2
  3
CVIEWDETAILSTYLE
350
7E4
  3
CVIEWSECTIONSTYLE
350
7E5
  3
DIMASSOC
350
7E9
  3
INDEXCTL
350
7E8
  3
SORTENTS
350
7E7
  3
XCLIPFRAME
350
7EA
  0
XRECORD
  5
7EF
102
{ACAD_REACTORS
330
19
102
}
330
19
100
AcDbXrecord
280
     1
  1
DWGPROPS COOKIE
  2

  3

  4

  6

  7

  8
s8001038
  9

300
=
301
=
302
=
303
=
304
=
305
=
306
=
307
=
308
=
309
=
 40
0.0802902893518519
 41
2453951.663564109
 42
2456434.430139537
  1

 90
        0
  0
XRECORD
  5
7D8
102
{ACAD_REACTORS
330
7D7
102
}
330
7D7
100
AcDbXrecord
280
     1
290
     1
  0
XRECORD
  5
7DA
102
{ACAD_REACTORS
330
7D9
102
}
330
7D9
100
AcDbXrecord
280
     1
290
     1
  0
XRECORD
  5
7DC
102
{ACAD_REACTORS
330
7DB
102
}
330
7DB
100
AcDbXrecord
280
     1
290
     1
  0
XRECORD
  5
7DE
102
{ACAD_REACTORS
330
7DD
102
}
330
7DD
100
AcDbXrecord
280
     1
290
     1
  0
XRECORD
  5
7E0
102
{ACAD_REACTORS
330
7DF
102
}
330
7DF
100
AcDbXrecord
280
     1
290
     1
  0
ACDBDETAILVIEWSTYLE
  5
7A8
102
{ACAD_REACTORS
330
7A7
102
}
330
7A7
100
AcDbModelDocViewStyle
 70
     0
  3
Metric50
290
     0
100
AcDbDetailViewStyle
 70
     0
 71
     0
 90
        3
 71
     1
340
17
 40
5.0
340
0
 40
5.0
300

 40
0.0
280
     1
 71
     2
340
13
 90
       25
 71
     3
340
17
 40
5.0
 90
        0
 40
15.0
 90
        1
300
%<\AcVar ViewDetailId>% (%<\AcVar ViewScale \f "%sn">%)
 71
     4
340
13
 90
       25
340
13
 90
       25
280
     0
  0
GROUP
  5
5E1
102
{ACAD_REACTORS
330
1A
102
}
330
1A
100
AcDbGroup
300

 70
     1
 71
     1
340
539
340
53A
340
53B
340
53C
340
53D
340
53E
340
541
340
542
340
544
340
545
340
547
340
548
340
555
340
556
340
557
340
558
340
559
340
55A
340
55B
340
55C
340
55D
340
55E
340
55F
340
563
340
564
340
565
  0
LAYOUT
  5
21
102
{ACAD_XDICTIONARY
360
7F2
102
}
102
{ACAD_REACTORS
330
1E
102
}
330
1E
100
AcDbPlotSettings
  1

  2

  4

  6

 40
0.0
 41
0.0
 42
0.0
 43
0.0
 44
0.0
 45
0.0
 46
0.0
 47
0.0
 48
0.0
 49
0.0
140
0.0
141
0.0
142
1.0
143
1.0
 70
     0
 72
     0
 73
     0
 74
     0
  7

 75
     0
147
1.0
148
0.0
149
0.0
100
AcDbLayout
  1
Layout1
 70
     0
 71
     1
 10
0.0
 20
0.0
 11
12.0
 21
9.0
 12
0.0
 22
0.0
 32
0.0
 14
1.000000000000000E+20
 24
1.000000000000000E+20
 34
1.000000000000000E+20
 15
-1.000000000000000E+20
 25
-1.000000000000000E+20
 35
-1.000000000000000E+20
146
0.0
 13
0.0
 23
0.0
 33
0.0
 16
1.0
 26
0.0
 36
0.0
 17
0.0
 27
1.0
 37
0.0
 76
     0
330
B
  0
LAYOUT
  5
20
102
{ACAD_XDICTIONARY
360
7F0
102
}
102
{ACAD_REACTORS
330
1E
102
}
330
1E
100
AcDbPlotSettings
  1

  2

  4

  6

 40
0.0
 41
0.0
 42
0.0
 43
0.0
 44
0.0
 45
0.0
 46
0.0
 47
0.0
 48
0.0
 49
0.0
140
0.0
141
0.0
142
1.0
143
1.0
 70
  1024
 72
     0
 73
     0
 74
     0
  7

 75
     0
147
1.0
148
0.0
149
0.0
100
AcDbLayout
  1
Model
 70
     0
 71
     0
 10
0.0
 20
0.0
 11
0.0
 21
0.0
 12
0.0
 22
0.0
 32
0.0
 14
0.0
 24
0.0
 34
0.0
 15
0.0
 25
0.0
 35
0.0
146
0.0
 13
0.0
 23
0.0
 33
0.0
 16
0.0
 26
0.0
 36
0.0
 17
0.0
 27
0.0
 37
0.0
 76
     0
330
A
331
751
  0
MATERIAL
  5
766
102
{ACAD_XDICTIONARY
360
767
102
}
102
{ACAD_REACTORS
330
56B
102
}
330
56B
100
AcDbMaterial
  1
ByBlock
 72
     0
 43
0.0208333333333333
 43
0.0
 43
0.0
 43
0.0
 43
0.0
 43
0.0208333333333333
 43
0.0
 43
0.0
 43
0.0
 43
0.0
 43
1.0
 43
0.0
 43
0.0
 43
0.0
 43
0.0
 43
1.0
 77
     0
 47
0.0208333333333333
 47
0.0
 47
0.0
 47
0.0
 47
0.0
 47
0.0208333333333333
 47
0.0
 47
0.0
 47
0.0
 47
0.0
 47
1.0
 47
0.0
 47
0.0
 47
0.0
 47
0.0
 47
1.0
171
     0
 49
0.0208333333333333
 49
0.0
 49
0.0
 49
0.0
 49
0.0
 49
0.0208333333333333
 49
0.0
 49
0.0
 49
0.0
 49
0.0
 49
1.0
 49
0.0
 49
0.0
 49
0.0
 49
0.0
 49
1.0
175
     0
142
0.0208333333333333
142
0.0
142
0.0
142
0.0
142
0.0
142
0.0208333333333333
142
0.0
142
0.0
142
0.0
142
0.0
142
1.0
142
0.0
142
0.0
142
0.0
142
0.0
142
1.0
179
     0
144
0.0208333333333333
144
0.0
144
0.0
144
0.0
144
0.0
144
0.0208333333333333
144
0.0
144
0.0
144
0.0
144
0.0
144
1.0
144
0.0
144
0.0
144
0.0
144
0.0
144
1.0
147
0.0208333333333333
147
0.0
147
0.0
147
0.0
147
0.0
147
0.0208333333333333
147
0.0
147
0.0
147
0.0
147
0.0
147
1.0
147
0.0
147
0.0
147
0.0
147
0.0
147
1.0
  0
MATERIAL
  5
75E
102
{ACAD_XDICTIONARY
360
75F
102
}
102
{ACAD_REACTORS
330
56B
102
}
330
56B
100
AcDbMaterial
  1
ByLayer
 72
     0
 43
0.0208333333333333
 43
0.0
 43
0.0
 43
0.0
 43
0.0
 43
0.0208333333333333
 43
0.0
 43
0.0
 43
0.0
 43
0.0
 43
1.0
 43
0.0
 43
0.0
 43
0.0
 43
0.0
 43
1.0
 77
     0
 47
0.0208333333333333
 47
0.0
 47
0.0
 47
0.0
 47
0.0
 47
0.0208333333333333
 47
0.0
 47
0.0
 47
0.0
 47
0.0
 47
1.0
 47
0.0
 47
0.0
 47
0.0
 47
0.0
 47
1.0
171
     0
 49
0.0208333333333333
 49
0.0
 49
0.0
 49
0.0
 49
0.0
 49
0.0208333333333333
 49
0.0
 49
0.0
 49
0.0
 49
0.0
 49
1.0
 49
0.0
 49
0.0
 49
0.0
 49
0.0
 49
1.0
175
     0
142
0.0208333333333333
142
0.0
142
0.0
142
0.0
142
0.0
142
0.0208333333333333
142
0.0
142
0.0
142
0.0
142
0.0
142
1.0
142
0.0
142
0.0
142
0.0
142
0.0
142
1.0
179
     0
144
0.0208333333333333
144
0.0
144
0.0
144
0.0
144
0.0
144
0.0208333333333333
144
0.0
144
0.0
144
0.0
144
0.0
144
1.0
144
0.0
144
0.0
144
0.0
144
0.0
144
1.0
147
0.0208333333333333
147
0.0
147
0.0
147
0.0
147
0.0
147
0.0208333333333333
147
0.0
147
0.0
147
0.0
147
0.0
147
1.0
147
0.0
147
0.0
147
0.0
147
0.0
147
1.0
  0
MATERIAL
  5
76E
102
{ACAD_XDICTIONARY
360
76F
102
}
102
{ACAD_REACTORS
330
56B
102
}
330
56B
100
AcDbMaterial
  1
Global
 72
     0
 43
0.0208333333333333
 43
0.0
 43
0.0
 43
0.0
 43
0.0
 43
0.0208333333333333
 43
0.0
 43
0.0
 43
0.0
 43
0.0
 43
1.0
 43
0.0
 43
0.0
 43
0.0
 43
0.0
 43
1.0
 77
     0
 47
0.0208333333333333
 47
0.0
 47
0.0
 47
0.0
 47
0.0
 47
0.0208333333333333
 47
0.0
 47
0.0
 47
0.0
 47
0.0
 47
1.0
 47
0.0
 47
0.0
 47
0.0
 47
0.0
 47
1.0
171
     0
 49
0.0208333333333333
 49
0.0
 49
0.0
 49
0.0
 49
0.0
 49
0.0208333333333333
 49
0.0
 49
0.0
 49
0.0
 49
0.0
 49
1.0
 49
0.0
 49
0.0
 49
0.0
 49
0.0
 49
1.0
175
     0
142
0.0208333333333333
142
0.0
142
0.0
142
0.0
142
0.0
142
0.0208333333333333
142
0.0
142
0.0
142
0.0
142
0.0
142
1.0
142
0.0
142
0.0
142
0.0
142
0.0
142
1.0
179
     0
144
0.0208333333333333
144
0.0
144
0.0
144
0.0
144
0.0
144
0.0208333333333333
144
0.0
144
0.0
144
0.0
144
0.0
144
1.0
144
0.0
144
0.0
144
0.0
144
0.0
144
1.0
147
0.0208333333333333
147
0.0
147
0.0
147
0.0
147
0.0
147
0.0208333333333333
147
0.0
147
0.0
147
0.0
147
0.0
147
1.0
147
0.0
147
0.0
147
0.0
147
0.0
147
1.0
  0
MLEADERSTYLE
  5
7A4
102
{ACAD_REACTORS
330
7A3
102
}
330
7A3
100
AcDbMLeaderStyle
170
     2
171
     1
172
     0
 90
        2
 40
0.0
 41
0.0
173
     1
 91
-1056964608
340
11
 92
       -2
290
     1
 42
2.0
291
     1
 43
0.36
  3
Standard
 44
4.0
300

342
17
174
     1
178
     6
175
     1
176
     0
 93
-1056964608
 45
4.0
292
     0
297
     0
 46
4.0
 94
-1056964608
 47
1.0
 49
1.0
140
1.0
293
     1
141
0.0
294
     1
177
     0
142
1.0
295
     0
296
     0
143
0.125
1001
ACAD_MLEADERVER
1070
     2
  0
MLINESTYLE
  5
1C
102
{ACAD_REACTORS
330
1B
102
}
330
1B
100
AcDbMlineStyle
  2
STANDARD
 70
     0
  3

 62
     0
 51
90.0
 52
90.0
 71
     2
 49
0.5
 62
   256
  6
BYLAYER
 49
-0.5
 62
   256
  6
BYLAYER
  0
ACDBPLACEHOLDER
  5
1D
102
{ACAD_REACTORS
330
1F
102
}
330
1F
  0
SCALE
  5
792
102
{ACAD_REACTORS
330
791
102
}
330
791
100
AcDbScale
 70
     0
300
1:1
140
1.0
141
1.0
290
     1
  0
SCALE
  5
793
102
{ACAD_REACTORS
330
791
102
}
330
791
100
AcDbScale
 70
     0
300
1:2
140
1.0
141
2.0
290
     0
  0
SCALE
  5
794
102
{ACAD_REACTORS
330
791
102
}
330
791
100
AcDbScale
 70
     0
300
1:4
140
1.0
141
4.0
290
     0
  0
SCALE
  5
795
102
{ACAD_REACTORS
330
791
102
}
330
791
100
AcDbScale
 70
     0
300
1:5
140
1.0
141
5.0
290
     0
  0
SCALE
  5
796
102
{ACAD_REACTORS
330
791
102
}
330
791
100
AcDbScale
 70
     0
300
1:8
140
1.0
141
8.0
290
     0
  0
SCALE
  5
797
102
{ACAD_REACTORS
330
791
102
}
330
791
100
AcDbScale
 70
     0
300
1:10
140
1.0
141
10.0
290
     0
  0
SCALE
  5
798
102
{ACAD_REACTORS
330
791
102
}
330
791
100
AcDbScale
 70
     0
300
1:16
140
1.0
141
16.0
290
     0
  0
SCALE
  5
799
102
{ACAD_REACTORS
330
791
102
}
330
791
100
AcDbScale
 70
     0
300
1:20
140
1.0
141
20.0
290
     0
  0
SCALE
  5
79A
102
{ACAD_REACTORS
330
791
102
}
330
791
100
AcDbScale
 70
     0
300
1:30
140
1.0
141
30.0
290
     0
  0
SCALE
  5
79B
102
{ACAD_REACTORS
330
791
102
}
330
791
100
AcDbScale
 70
     0
300
1:40
140
1.0
141
40.0
290
     0
  0
SCALE
  5
79C
102
{ACAD_REACTORS
330
791
102
}
330
791
100
AcDbScale
 70
     0
300
1:50
140
1.0
141
50.0
290
     0
  0
SCALE
  5
79D
102
{ACAD_REACTORS
330
791
102
}
330
791
100
AcDbScale
 70
     0
300
1:100
140
1.0
141
100.0
290
     0
  0
SCALE
  5
79E
102
{ACAD_REACTORS
330
791
102
}
330
791
100
AcDbScale
 70
     0
300
2:1
140
2.0
141
1.0
290
     0
  0
SCALE
  5
79F
102
{ACAD_REACTORS
330
791
102
}
330
791
100
AcDbScale
 70
     0
300
4:1
140
4.0
141
1.0
290
     0
  0
SCALE
  5
7A0
102
{ACAD_REACTORS
330
791
102
}
330
791
100
AcDbScale
 70
     0
300
8:1
140
8.0
141
1.0
290
     0
  0
SCALE
  5
7A1
102
{ACAD_REACTORS
330
791
102
}
330
791
100
AcDbScale
 70
     0
300
10:1
140
10.0
141
1.0
290
     0
  0
SCALE
  5
7A2
102
{ACAD_REACTORS
330
791
102
}
330
791
100
AcDbScale
 70
     0
300
100:1
140
100.0
141
1.0
290
     0
  0
ACDBSECTIONVIEWSTYLE
  5
7A6
102
{ACAD_REACTORS
330
7A5
102
}
330
7A5
100
AcDbModelDocViewStyle
 70
     0
  3
Metric50
290
     0
100
AcDbSectionViewStyle
 70
     0
 71
     0
 90
      102
 71
     1
340
17
 40
5.0
340
0
340
0
 40
5.0
300
I, O, Q, S, X, Z
 40
10.0
 90
        0
 40
2.5
 90
        0
 71
     2
340
13
 90
       25
340
13
 90
       50
 40
5.0
 40
2.5
 40
5.0
 71
     3
340
17
 40
5.0
 90
        0
 40
15.0
 90
        1
300
%<\AcVar ViewSectionStartId>%-%<\AcVar ViewSectionEndId>% (%<\AcVar ViewScale \f "%sn">%)
 71
     4
300
ANSI31
 40
1.0
 90
        0
290
     0
290
     0
 90
        6
 40
0.0
 40
1.570796326794896
 40
0.2617993877991494
 40
1.308996938995747
 40
-0.2617993877991494
 40
1.832595714594046
  0
TABLESTYLE
  5
790
102
{ACAD_XDICTIONARY
360
7EC
102
}
102
{ACAD_REACTORS
330
78F
102
}
330
78F
100
AcDbTableStyle
  3
Standard
 70
     0
 71
     0
 40
1.5
 41
1.5
280
     0
281
     0
  7
Standard
140
4.5
170
     2
 62
     0
 63
     7
283
     0
274
    -2
284
     1
 64
     0
275
    -2
285
     1
 65
     0
276
    -2
286
     1
 66
     0
277
    -2
287
     1
 67
     0
278
    -2
288
     1
 68
     0
279
    -2
289
     1
 69
     0
  7
Standard
140
6.0
170
     5
 62
     0
 63
     7
283
     0
274
    -2
284
     1
 64
     0
275
    -2
285
     1
 65
     0
276
    -2
286
     1
 66
     0
277
    -2
287
     1
 67
     0
278
    -2
288
     1
 68
     0
279
    -2
289
     1
 69
     0
  7
Standard
140
4.5
170
     5
 62
     0
 63
     7
283
     0
274
    -2
284
     1
 64
     0
275
    -2
285
     1
 65
     0
276
    -2
286
     1
 66
     0
277
    -2
287
     1
 67
     0
278
    -2
288
     1
 68
     0
279
    -2
289
     1
 69
     0
  0
VISUALSTYLE
  5
77C
102
{ACAD_XDICTIONARY
360
802
102
}
102
{ACAD_REACTORS
330
776
102
}
330
776
100
AcDbVisualStyle
  2
2dWireframe
 70
     4
 71
     0
 72
     2
 73
     0
 90
        0
 40
-0.6
 41
-30.0
 62
     5
 63
     7
 74
     1
 91
        4
 64
     7
 65
   257
 75
     1
175
     1
 42
1.0
 92
        0
 66
   257
 43
1.0
 76
     1
 77
     6
 78
     2
 67
     7
 79
     5
170
     0
171
     0
290
     0
174
     0
 93
        1
 44
0.0
173
     0
291
     0
 45
0.0
1001
ACAD
1000
AcDbSavedByObjectVersion
1070
     0
  0
VISUALSTYLE
  5
77B
102
{ACAD_XDICTIONARY
360
800
102
}
102
{ACAD_REACTORS
330
776
102
}
330
776
100
AcDbVisualStyle
  2
Basic
 70
     7
 71
     1
 72
     0
 73
     1
 90
        0
 40
-0.6
 41
-30.0
 62
     5
 63
     7
 74
     0
 91
        4
 64
     7
 65
   257
 75
     1
175
     1
 42
1.0
 92
        8
 66
     7
 43
1.0
 76
     1
 77
     6
 78
     2
 67
     7
 79
     5
170
     0
171
     0
290
     0
174
     0
 93
        1
 44
0.0
173
     0
291
     1
 45
0.0
1001
ACAD
1000
AcDbSavedByObjectVersion
1070
     0
  0
VISUALSTYLE
  5
782
102
{ACAD_XDICTIONARY
360
80E
102
}
102
{ACAD_REACTORS
330
776
102
}
330
776
100
AcDbVisualStyle
  2
Brighten
 70
    12
 71
     2
 72
     2
 73
     0
 90
        0
 40
-0.6
 41
-30.0
 62
     5
 63
     7
 74
     1
 91
        4
 64
     7
 65
   257
 75
     1
175
     1
 42
1.0
 92
        8
 66
     7
 43
1.0
 76
     1
 77
     6
 78
     2
 67
     7
 79
     5
170
     0
171
     0
290
     0
174
     0
 93
        1
 44
50.0
173
     0
291
     1
 45
0.0
1001
ACAD
1000
AcDbSavedByObjectVersion
1070
     0
  0
VISUALSTYLE
  5
786
102
{ACAD_XDICTIONARY
360
816
102
}
102
{ACAD_REACTORS
330
776
102
}
330
776
100
AcDbVisualStyle
  2
ColorChange
 70
    16
 71
     2
 72
     2
 73
     3
 90
        0
 40
-0.6
 41
-30.0
 62
     5
 63
     8
 74
     1
 91
        4
 64
     7
 65
   257
 75
     1
175
     1
 42
1.0
 92
        8
 66
     8
 43
1.0
 76
     1
 77
     6
 78
     2
 67
     7
 79
     5
170
     0
171
     0
290
     0
174
     0
 93
        1
 44
0.0
173
     0
291
     1
 45
0.0
1001
ACAD
1000
AcDbSavedByObjectVersion
1070
     0
  0
VISUALSTYLE
  5
77F
102
{ACAD_XDICTIONARY
360
808
102
}
102
{ACAD_REACTORS
330
776
102
}
330
776
100
AcDbVisualStyle
  2
Conceptual
 70
     9
 71
     3
 72
     2
 73
     0
 90
        0
 40
-0.6
 41
-30.0
 62
     5
 63
     7
 74
     2
 91
        2
 64
     7
 65
   257
 75
     1
175
     1
 42
179.0
 92
        8
 66
     7
 43
1.0
 76
     1
 77
     6
 78
     2
 67
     7
 79
     3
170
     0
171
     0
290
     0
174
     0
 93
        1
 44
0.0
173
     0
291
     0
 45
0.0
1001
ACAD
1000
AcDbSavedByObjectVersion
1070
     0
  0
VISUALSTYLE
  5
781
102
{ACAD_XDICTIONARY
360
80C
102
}
102
{ACAD_REACTORS
330
776
102
}
330
776
100
AcDbVisualStyle
  2
Dim
 70
    11
 71
     2
 72
     2
 73
     0
 90
        0
 40
-0.6
 41
-30.0
 62
     5
 63
     7
 74
     1
 91
        4
 64
     7
 65
   257
 75
     1
175
     1
 42
1.0
 92
        8
 66
     7
 43
1.0
 76
     1
 77
     6
 78
     2
 67
     7
 79
     5
170
     0
171
     0
290
     0
174
     0
 93
        1
 44
-50.0
173
     0
291
     1
 45
0.0
1001
ACAD
1000
AcDbSavedByObjectVersion
1070
     0
  0
VISUALSTYLE
  5
78E
102
{ACAD_XDICTIONARY
360
826
102
}
102
{ACAD_REACTORS
330
776
102
}
330
776
100
AcDbVisualStyle
  2
EdgeColorOff
 70
    22
 71
     2
 72
     2
 73
     0
 90
        0
 40
-0.6
 41
-30.0
 62
     5
 63
     7
 74
     1
 91
        4
 64
     7
 65
   257
 75
     1
175
     1
 42
1.0
 92
        8
 66
     7
 43
1.0
 76
     1
 77
     6
 78
     2
 67
     7
 79
     5
170
     0
171
     0
290
     0
174
     0
 93
        1
 44
0.0
173
     0
291
     1
 45
0.0
1001
ACAD
1000
AcDbSavedByObjectVersion
1070
     0
  0
VISUALSTYLE
  5
785
102
{ACAD_XDICTIONARY
360
814
102
}
102
{ACAD_REACTORS
330
776
102
}
330
776
100
AcDbVisualStyle
  2
Facepattern
 70
    15
 71
     2
 72
     2
 73
     0
 90
        0
 40
-0.6
 41
-30.0
 62
     5
 63
     7
 74
     1
 91
        4
 64
     7
 65
   257
 75
     1
175
     1
 42
1.0
 92
        8
 66
     7
 43
1.0
 76
     1
 77
     6
 78
     2
 67
     7
 79
     5
170
     0
171
     0
290
     0
174
     0
 93
        1
 44
0.0
173
     0
291
     1
 45
0.0
1001
ACAD
1000
AcDbSavedByObjectVersion
1070
     0
  0
VISUALSTYLE
  5
777
102
{ACAD_XDICTIONARY
360
7F8
102
}
102
{ACAD_REACTORS
330
776
102
}
330
776
100
AcDbVisualStyle
  2
Flat
 70
     0
 71
     2
 72
     1
 73
     1
 90
        2
 40
-0.6
 41
30.0
 62
     5
 63
     7
 74
     0
 91
        0
 64
     7
 65
   257
 75
     1
175
     1
 42
1.0
 92
        8
 66
     7
 43
1.0
 76
     1
 77
     6
 78
     2
 67
     7
 79
     5
170
     0
171
     0
290
     0
174
     0
 93
       13
 44
0.0
173
     0
291
     1
 45
0.0
1001
ACAD
1000
AcDbSavedByObjectVersion
1070
     0
  0
VISUALSTYLE
  5
778
102
{ACAD_XDICTIONARY
360
7FA
102
}
102
{ACAD_REACTORS
330
776
102
}
330
776
100
AcDbVisualStyle
  2
FlatWithEdges
 70
     1
 71
     2
 72
     1
 73
     1
 90
        2
 40
-0.6
 41
30.0
 62
     5
 63
     7
 74
     1
 91
        0
 64
     7
 65
   257
 75
     1
175
     1
 42
1.0
 92
        0
 66
   257
 43
1.0
 76
     1
 77
     6
 78
     2
 67
     7
 79
     5
170
     0
171
     0
290
     0
174
     0
 93
       13
 44
0.0
173
     0
291
     1
 45
0.0
1001
ACAD
1000
AcDbSavedByObjectVersion
1070
     0
  0
VISUALSTYLE
  5
779
102
{ACAD_XDICTIONARY
360
7FC
102
}
102
{ACAD_REACTORS
330
776
102
}
330
776
100
AcDbVisualStyle
  2
Gouraud
 70
     2
 71
     2
 72
     2
 73
     1
 90
        2
 40
-0.6
 41
30.0
 62
     5
 63
     7
 74
     0
 91
        0
 64
     7
 65
   257
 75
     1
175
     1
 42
1.0
 92
        0
 66
     7
 43
1.0
 76
     1
 77
     6
 78
     2
 67
     7
 79
     5
170
     0
171
     0
290
     0
174
     0
 93
       13
 44
0.0
173
     0
291
     1
 45
0.0
1001
ACAD
1000
AcDbSavedByObjectVersion
1070
     0
  0
VISUALSTYLE
  5
77A
102
{ACAD_XDICTIONARY
360
7FE
102
}
102
{ACAD_REACTORS
330
776
102
}
330
776
100
AcDbVisualStyle
  2
GouraudWithEdges
 70
     3
 71
     2
 72
     2
 73
     1
 90
        2
 40
-0.6
 41
30.0
 62
     5
 63
     7
 74
     1
 91
        0
 64
     7
 65
   257
 75
     1
175
     1
 42
1.0
 92
        0
 66
   257
 43
1.0
 76
     1
 77
     6
 78
     2
 67
     7
 79
     5
170
     0
171
     0
290
     0
174
     0
 93
       13
 44
0.0
173
     0
291
     1
 45
0.0
1001
ACAD
1000
AcDbSavedByObjectVersion
1070
     0
  0
VISUALSTYLE
  5
77E
102
{ACAD_XDICTIONARY
360
806
102
}
102
{ACAD_REACTORS
330
776
102
}
330
776
100
AcDbVisualStyle
  2
Hidden
 70
     6
 71
     1
 72
     2
 73
     2
 90
        0
 40
-0.6
 41
-30.0
 62
     5
 63
     7
 74
     2
 91
        2
 64
     7
 65
   257
 75
     2
175
     1
 42
40.0
 92
        0
 66
   257
 43
1.0
 76
     1
 77
     6
 78
     2
 67
     7
 79
     3
170
     0
171
     0
290
     0
174
     0
 93
        1
 44
0.0
173
     0
291
     0
 45
0.0
1001
ACAD
1000
AcDbSavedByObjectVersion
1070
     0
  0
VISUALSTYLE
  5
78C
102
{ACAD_XDICTIONARY
360
822
102
}
102
{ACAD_REACTORS
330
776
102
}
330
776
100
AcDbVisualStyle
  2
JitterOff
 70
    20
 71
     2
 72
     2
 73
     0
 90
        0
 40
-0.6
 41
-30.0
 62
     5
 63
     7
 74
     1
 91
        4
 64
     7
 65
   257
 75
     1
175
     1
 42
1.0
 92
       10
 66
     7
 43
1.0
 76
     1
 77
     6
 78
     2
 67
     7
 79
     5
170
     0
171
     0
290
     0
174
     0
 93
        1
 44
0.0
173
     0
291
     1
 45
0.0
1001
ACAD
1000
AcDbSavedByObjectVersion
1070
     0
  0
VISUALSTYLE
  5
784
102
{ACAD_XDICTIONARY
360
812
102
}
102
{ACAD_REACTORS
330
776
102
}
330
776
100
AcDbVisualStyle
  2
Linepattern
 70
    14
 71
     2
 72
     2
 73
     0
 90
        0
 40
-0.6
 41
-30.0
 62
     5
 63
     7
 74
     1
 91
        4
 64
     7
 65
   257
 75
     7
175
     7
 42
1.0
 92
        8
 66
     7
 43
1.0
 76
     1
 77
     6
 78
     2
 67
     7
 79
     5
170
     0
171
     0
290
     0
174
     0
 93
        1
 44
0.0
173
     0
291
     1
 45
0.0
1001
ACAD
1000
AcDbSavedByObjectVersion
1070
     0
  0
VISUALSTYLE
  5
78D
102
{ACAD_XDICTIONARY
360
824
102
}
102
{ACAD_REACTORS
330
776
102
}
330
776
100
AcDbVisualStyle
  2
OverhangOff
 70
    21
 71
     2
 72
     2
 73
     0
 90
        0
 40
-0.6
 41
-30.0
 62
     5
 63
     7
 74
     1
 91
        4
 64
     7
 65
   257
 75
     1
175
     1
 42
1.0
 92
        9
 66
     7
 43
1.0
 76
     1
 77
     6
 78
     2
 67
     7
 79
     5
170
     0
171
     0
290
     0
174
     0
 93
        1
 44
0.0
173
     0
291
     1
 45
0.0
1001
ACAD
1000
AcDbSavedByObjectVersion
1070
     0
  0
VISUALSTYLE
  5
780
102
{ACAD_XDICTIONARY
360
80A
102
}
102
{ACAD_REACTORS
330
776
102
}
330
776
100
AcDbVisualStyle
  2
Realistic
 70
     8
 71
     2
 72
     3
 73
     0
 90
        2
 40
-0.6
 41
30.0
 62
     5
 63
     7
 74
     0
 91
        0
 64
     7
 65
   257
 75
     1
175
     1
 42
1.0
 92
        8
 66
   257
 43
1.0
 76
     1
 77
     6
 78
     2
 67
     7
 79
     3
170
     0
171
     0
290
     0
174
     0
 93
       13
 44
0.0
173
     0
291
     0
 45
0.0
1001
ACAD
1000
AcDbSavedByObjectVersion
1070
     0
  0
VISUALSTYLE
  5
78B
102
{ACAD_XDICTIONARY
360
820
102
}
102
{ACAD_REACTORS
330
776
102
}
330
776
100
AcDbVisualStyle
  2
Shaded
 70
    27
 71
     2
 72
     2
 73
     1
 90
        2
 40
-0.6
 41
30.0
 62
     5
 63
     7
 74
     0
 91
        4
 64
     7
 65
   257
 75
     1
175
     1
 42
1.0
 92
        8
 66
   257
 43
1.0
 76
     1
 77
     6
 78
     2
 67
     8
 79
     3
170
     0
171
     0
290
     0
174
     0
 93
        5
 44
0.0
173
     0
291
     0
 45
0.0
1001
ACAD
1000
AcDbSavedByObjectVersion
1070
     0
  0
VISUALSTYLE
  5
78A
102
{ACAD_XDICTIONARY
360
81E
102
}
102
{ACAD_REACTORS
330
776
102
}
330
776
100
AcDbVisualStyle
  2
Shaded with edges
 70
    26
 71
     2
 72
     2
 73
     1
 90
        2
 40
-0.6
 41
30.0
 62
     5
 63
     7
 74
     1
 91
       10
 64
     7
 65
   257
 75
     2
175
     1
 42
1.0
 92
        8
 66
   257
 43
1.0
 76
     1
 77
     6
 78
     2
 67
     7
 79
     3
170
     0
171
     0
290
     0
174
     0
 93
        5
 44
0.0
173
     0
291
     0
 45
0.0
1001
ACAD
1000
AcDbSavedByObjectVersion
1070
     0
  0
VISUALSTYLE
  5
787
102
{ACAD_XDICTIONARY
360
818
102
}
102
{ACAD_REACTORS
330
776
102
}
330
776
100
AcDbVisualStyle
  2
Shades of Gray
 70
    23
 71
     2
 72
     2
 73
     3
 90
        0
 40
-0.6
 41
-30.0
 62
     5
 63
     7
 74
     2
 91
        2
 64
     7
 65
     7
 75
     1
175
     1
 42
40.0
 92
        8
 66
     7
 43
1.0
 76
     1
 77
     6
 78
     2
 67
     7
 79
     3
170
     0
171
     0
290
     0
174
     0
 93
        1
 44
0.0
173
     0
291
     0
 45
0.0
1001
ACAD
1000
AcDbSavedByObjectVersion
1070
     0
  0
VISUALSTYLE
  5
788
102
{ACAD_XDICTIONARY
360
81A
102
}
102
{ACAD_REACTORS
330
776
102
}
330
776
100
AcDbVisualStyle
  2
Sketchy
 70
    24
 71
     1
 72
     2
 73
     2
 90
        0
 40
-0.6
 41
-30.0
 62
     5
 63
     7
 74
     2
 91
        2
 64
     7
 65
     7
 75
     1
175
     1
 42
40.0
 92
       11
 66
     7
 43
1.0
 76
     1
 77
     6
 78
     2
 67
     7
 79
     6
170
     0
171
     0
290
     0
174
     0
 93
        1
 44
0.0
173
     0
291
     0
 45
0.0
1001
ACAD
1000
AcDbSavedByObjectVersion
1070
     0
  0
VISUALSTYLE
  5
783
102
{ACAD_XDICTIONARY
360
810
102
}
102
{ACAD_REACTORS
330
776
102
}
330
776
100
AcDbVisualStyle
  2
Thicken
 70
    13
 71
     2
 72
     2
 73
     0
 90
        0
 40
-0.6
 41
-30.0
 62
     5
 63
     7
 74
     1
 91
        4
 64
     7
 65
   257
 75
     1
175
     1
 42
1.0
 92
       12
 66
     7
 43
1.0
 76
     1
 77
     6
 78
     2
 67
     7
 79
     5
170
     0
171
     0
290
     0
174
     0
 93
        1
 44
0.0
173
     0
291
     1
 45
0.0
1001
ACAD
1000
AcDbSavedByObjectVersion
1070
     0
  0
VISUALSTYLE
  5
77D
102
{ACAD_XDICTIONARY
360
804
102
}
102
{ACAD_REACTORS
330
776
102
}
330
776
100
AcDbVisualStyle
  2
Wireframe
 70
     5
 71
     0
 72
     2
 73
     0
 90
        0
 40
-0.6
 41
-30.0
 62
     5
 63
     7
 74
     1
 91
        4
 64
     7
 65
   257
 75
     1
175
     1
 42
1.0
 92
        0
 66
   257
 43
1.0
 76
     1
 77
     6
 78
     2
 67
     7
 79
     3
170
     0
171
     0
290
     0
174
     0
 93
        1
 44
0.0
173
     0
291
     0
 45
0.0
1001
ACAD
1000
AcDbSavedByObjectVersion
1070
     0
  0
VISUALSTYLE
  5
789
102
{ACAD_XDICTIONARY
360
81C
102
}
102
{ACAD_REACTORS
330
776
102
}
330
776
100
AcDbVisualStyle
  2
X-Ray
 70
    25
 71
     2
 72
     2
 73
     1
 90
        1
 40
0.5
 41
-30.0
 62
     5
 63
     7
 74
     1
 91
        0
 64
     7
 65
   257
 75
     1
175
     1
 42
1.0
 92
        8
 66
     7
 43
1.0
 76
     1
 77
     6
 78
     2
 67
     7
 79
     3
170
     0
171
     0
290
     0
174
     0
 93
       13
 44
0.0
173
     0
291
     0
 45
0.0
1001
ACAD
1000
AcDbSavedByObjectVersion
1070
     0
  0
DICTIONARYVAR
  5
7E6
102
{ACAD_REACTORS
330
7E1
102
}
330
7E1
100
DictionaryVariables
280
     0
  1
1:1
  0
DICTIONARYVAR
  5
7E3
102
{ACAD_REACTORS
330
7E1
102
}
330
7E1
100
DictionaryVariables
280
     0
  1
STANDARD
  0
DICTIONARYVAR
  5
7E2
102
{ACAD_REACTORS
330
7E1
102
}
330
7E1
100
DictionaryVariables
280
     0
  1
STANDARD
  0
DICTIONARYVAR
  5
7E4
102
{ACAD_REACTORS
330
7E1
102
}
330
7E1
100
DictionaryVariables
280
     0
  1
Metric50
  0
DICTIONARYVAR
  5
7E5
102
{ACAD_REACTORS
330
7E1
102
}
330
7E1
100
DictionaryVariables
280
     0
  1
Metric50
  0
DICTIONARYVAR
  5
7E9
102
{ACAD_REACTORS
330
7E1
102
}
330
7E1
100
DictionaryVariables
280
     0
  1
1
  0
DICTIONARYVAR
  5
7E8
102
{ACAD_REACTORS
330
7E1
102
}
330
7E1
100
DictionaryVariables
280
     0
  1
0
  0
DICTIONARYVAR
  5
7E7
102
{ACAD_REACTORS
330
7E1
102
}
330
7E1
100
DictionaryVariables
280
     0
  1
127
  0
DICTIONARYVAR
  5
7EA
102
{ACAD_REACTORS
330
7E1
102
}
330
7E1
100
DictionaryVariables
280
     0
  1
2
  0
DICTIONARY
  5
7F2
330
21
100
AcDbDictionary
280
     1
281
     1
  3
ACAD_XREC_ROUNDTRIP
360
7F3
  0
DICTIONARY
  5
7F0
330
20
100
AcDbDictionary
280
     1
281
     1
  3
ACAD_XREC_ROUNDTRIP
360
7F1
  0
DICTIONARY
  5
767
330
766
100
AcDbDictionary
280
     1
281
     1
  3
ACAD_XREC_ROUNDTRIP
360
7F6
  3
BUMPTILE
360
769
  3
DIFFUSETILE
360
768
  3
OPACITYTILE
360
76C
  3
REFLECTIONTILE
360
76B
  3
REFRACTIONTILE
360
76D
  3
SPECULARTILE
360
76A
  0
DICTIONARY
  5
75F
330
75E
100
AcDbDictionary
280
     1
281
     1
  3
ACAD_XREC_ROUNDTRIP
360
7F5
  3
BUMPTILE
360
761
  3
DIFFUSETILE
360
760
  3
OPACITYTILE
360
764
  3
REFLECTIONTILE
360
763
  3
REFRACTIONTILE
360
765
  3
SPECULARTILE
360
762
  0
DICTIONARY
  5
76F
330
76E
100
AcDbDictionary
280
     1
281
     1
  3
ACAD_XREC_ROUNDTRIP
360
7F7
  3
BUMPTILE
360
771
  3
DIFFUSETILE
360
770
  3
OPACITYTILE
360
774
  3
REFLECTIONTILE
360
773
  3
REFRACTIONTILE
360
775
  3
SPECULARTILE
360
772
  0
DICTIONARY
  5
7EC
330
790
100
AcDbDictionary
280
     1
281
     1
  3
ACAD_ROUNDTRIP_2008_TABLESTYLE_CELLSTYLEMAP
360
7ED
  3
ACAD_XREC_ROUNDTRIP
360
828
  0
DICTIONARY
  5
802
330
77C
100
AcDbDictionary
280
     1
281
     1
  3
ACAD_XREC_ROUNDTRIP
360
803
  0
DICTIONARY
  5
800
330
77B
100
AcDbDictionary
280
     1
281
     1
  3
ACAD_XREC_ROUNDTRIP
360
801
  0
DICTIONARY
  5
80E
330
782
100
AcDbDictionary
280
     1
281
     1
  3
ACAD_XREC_ROUNDTRIP
360
80F
  0
DICTIONARY
  5
816
330
786
100
AcDbDictionary
280
     1
281
     1
  3
ACAD_XREC_ROUNDTRIP
360
817
  0
DICTIONARY
  5
808
330
77F
100
AcDbDictionary
280
     1
281
     1
  3
ACAD_XREC_ROUNDTRIP
360
809
  0
DICTIONARY
  5
80C
330
781
100
AcDbDictionary
280
     1
281
     1
  3
ACAD_XREC_ROUNDTRIP
360
80D
  0
DICTIONARY
  5
826
330
78E
100
AcDbDictionary
280
     1
281
     1
  3
ACAD_XREC_ROUNDTRIP
360
827
  0
DICTIONARY
  5
814
330
785
100
AcDbDictionary
280
     1
281
     1
  3
ACAD_XREC_ROUNDTRIP
360
815
  0
DICTIONARY
  5
7F8
330
777
100
AcDbDictionary
280
     1
281
     1
  3
ACAD_XREC_ROUNDTRIP
360
7F9
  0
DICTIONARY
  5
7FA
330
778
100
AcDbDictionary
280
     1
281
     1
  3
ACAD_XREC_ROUNDTRIP
360
7FB
  0
DICTIONARY
  5
7FC
330
779
100
AcDbDictionary
280
     1
281
     1
  3
ACAD_XREC_ROUNDTRIP
360
7FD
  0
DICTIONARY
  5
7FE
330
77A
100
AcDbDictionary
280
     1
281
     1
  3
ACAD_XREC_ROUNDTRIP
360
7FF
  0
DICTIONARY
  5
806
330
77E
100
AcDbDictionary
280
     1
281
     1
  3
ACAD_XREC_ROUNDTRIP
360
807
  0
DICTIONARY
  5
822
330
78C
100
AcDbDictionary
280
     1
281
     1
  3
ACAD_XREC_ROUNDTRIP
360
823
  0
DICTIONARY
  5
812
330
784
100
AcDbDictionary
280
     1
281
     1
  3
ACAD_XREC_ROUNDTRIP
360
813
  0
DICTIONARY
  5
824
330
78D
100
AcDbDictionary
280
     1
281
     1
  3
ACAD_XREC_ROUNDTRIP
360
825
  0
DICTIONARY
  5
80A
330
780
100
AcDbDictionary
280
     1
281
     1
  3
ACAD_XREC_ROUNDTRIP
360
80B
  0
DICTIONARY
  5
820
330
78B
100
AcDbDictionary
280
     1
281
     1
  3
ACAD_XREC_ROUNDTRIP
360
821
  0
DICTIONARY
  5
81E
330
78A
100
AcDbDictionary
280
     1
281
     1
  3
ACAD_XREC_ROUNDTRIP
360
81F
  0
DICTIONARY
  5
818
330
787
100
AcDbDictionary
280
     1
281
     1
  3
ACAD_XREC_ROUNDTRIP
360
819
  0
DICTIONARY
  5
81A
330
788
100
AcDbDictionary
280
     1
281
     1
  3
ACAD_XREC_ROUNDTRIP
360
81B
  0
DICTIONARY
  5
810
330
783
100
AcDbDictionary
280
     1
281
     1
  3
ACAD_XREC_ROUNDTRIP
360
811
  0
DICTIONARY
  5
804
330
77D
100
AcDbDictionary
280
     1
281
     1
  3
ACAD_XREC_ROUNDTRIP
360
805
  0
DICTIONARY
  5
81C
330
789
100
AcDbDictionary
280
     1
281
     1
  3
ACAD_XREC_ROUNDTRIP
360
81D
  0
XRECORD
  5
7F3
102
{ACAD_REACTORS
330
7F2
102
}
330
7F2
100
AcDbXrecord
280
     1
102
SHADEPLOT
 70
     0
102
SHADEPLOTRESLEVEL
 70
     2
102
SHADEPLOTCUSTOMDPI
 70
   300
  0
XRECORD
  5
7F1
102
{ACAD_REACTORS
330
7F0
102
}
330
7F0
100
AcDbXrecord
280
     1
102
SHADEPLOT
 70
     0
102
SHADEPLOTRESLEVEL
 70
     2
102
SHADEPLOTCUSTOMDPI
 70
   300
  0
XRECORD
  5
7F6
102
{ACAD_REACTORS
330
767
102
}
330
767
100
AcDbXrecord
280
     1
102
MATERIAL
148
0.0
149
0.0
149
0.0
 93
        0
 94
      127
282
     0
 72
     0
 77
     0
171
     0
175
     0
179
     0
273
     0
  0
XRECORD
  5
769
102
{ACAD_REACTORS
330
767
102
}
330
767
100
AcDbXrecord
280
     1
270
     1
271
     1
  0
XRECORD
  5
768
102
{ACAD_REACTORS
330
767
102
}
330
767
100
AcDbXrecord
280
     1
270
     1
271
     1
  0
XRECORD
  5
76C
102
{ACAD_REACTORS
330
767
102
}
330
767
100
AcDbXrecord
280
     1
270
     1
271
     1
  0
XRECORD
  5
76B
102
{ACAD_REACTORS
330
767
102
}
330
767
100
AcDbXrecord
280
     1
270
     1
271
     1
  0
XRECORD
  5
76D
102
{ACAD_REACTORS
330
767
102
}
330
767
100
AcDbXrecord
280
     1
270
     1
271
     1
  0
XRECORD
  5
76A
102
{ACAD_REACTORS
330
767
102
}
330
767
100
AcDbXrecord
280
     1
270
     1
271
     1
  0
XRECORD
  5
7F5
102
{ACAD_REACTORS
330
75F
102
}
330
75F
100
AcDbXrecord
280
     1
102
MATERIAL
148
0.0
149
0.0
149
0.0
 93
        0
 94
      127
282
     0
 72
     0
 77
     0
171
     0
175
     0
179
     0
273
     0
  0
XRECORD
  5
761
102
{ACAD_REACTORS
330
75F
102
}
330
75F
100
AcDbXrecord
280
     1
270
     1
271
     1
  0
XRECORD
  5
760
102
{ACAD_REACTORS
330
75F
102
}
330
75F
100
AcDbXrecord
280
     1
270
     1
271
     1
  0
XRECORD
  5
764
102
{ACAD_REACTORS
330
75F
102
}
330
75F
100
AcDbXrecord
280
     1
270
     1
271
     1
  0
XRECORD
  5
763
102
{ACAD_REACTORS
330
75F
102
}
330
75F
100
AcDbXrecord
280
     1
270
     1
271
     1
  0
XRECORD
  5
765
102
{ACAD_REACTORS
330
75F
102
}
330
75F
100
AcDbXrecord
280
     1
270
     1
271
     1
  0
XRECORD
  5
762
102
{ACAD_REACTORS
330
75F
102
}
330
75F
100
AcDbXrecord
280
     1
270
     1
271
     1
  0
XRECORD
  5
7F7
102
{ACAD_REACTORS
330
76F
102
}
330
76F
100
AcDbXrecord
280
     1
102
MATERIAL
148
0.0
149
0.0
149
0.0
 93
        0
 94
      127
282
     0
 72
     0
 77
     0
171
     0
175
     0
179
     0
273
     0
  0
XRECORD
  5
771
102
{ACAD_REACTORS
330
76F
102
}
330
76F
100
AcDbXrecord
280
     1
270
     1
271
     1
  0
XRECORD
  5
770
102
{ACAD_REACTORS
330
76F
102
}
330
76F
100
AcDbXrecord
280
     1
270
     1
271
     1
  0
XRECORD
  5
774
102
{ACAD_REACTORS
330
76F
102
}
330
76F
100
AcDbXrecord
280
     1
270
     1
271
     1
  0
XRECORD
  5
773
102
{ACAD_REACTORS
330
76F
102
}
330
76F
100
AcDbXrecord
280
     1
270
     1
271
     1
  0
XRECORD
  5
775
102
{ACAD_REACTORS
330
76F
102
}
330
76F
100
AcDbXrecord
280
     1
270
     1
271
     1
  0
XRECORD
  5
772
102
{ACAD_REACTORS
330
76F
102
}
330
76F
100
AcDbXrecord
280
     1
270
     1
271
     1
  0
CELLSTYLEMAP
  5
7ED
102
{ACAD_REACTORS
330
7EC
102
}
330
7EC
100
AcDbCellStyleMap
 90
        3
300
CELLSTYLE
  1
TABLEFORMAT_BEGIN
 90
        5
170
     1
 91
        0
 92
    32768
 62
   257
 93
        1
300
CONTENTFORMAT
  1
CONTENTFORMAT_BEGIN
 90
        0
 91
        0
 92
      512
 93
        0
300

 40
0.0
140
1.0
 94
        5
 62
     0
340
17
144
6.0
309
CONTENTFORMAT_END
171
     1
301
MARGIN
  1
CELLMARGIN_BEGIN
 40
1.5
 40
1.5
 40
1.5
 40
1.5
 40
4.5
 40
4.5
309
CELLMARGIN_END
 94
        6
 95
        1
302
GRIDFORMAT
  1
GRIDFORMAT_BEGIN
 90
        0
 91
        1
 62
     0
 92
       -2
340
0
 93
        0
 40
1.125
309
GRIDFORMAT_END
 95
        2
302
GRIDFORMAT
  1
GRIDFORMAT_BEGIN
 90
        0
 91
        1
 62
     0
 92
       -2
340
0
 93
        0
 40
1.125
309
GRIDFORMAT_END
 95
        4
302
GRIDFORMAT
  1
GRIDFORMAT_BEGIN
 90
        0
 91
        1
 62
     0
 92
       -2
340
0
 93
        0
 40
1.125
309
GRIDFORMAT_END
 95
        8
302
GRIDFORMAT
  1
GRIDFORMAT_BEGIN
 90
        0
 91
        1
 62
     0
 92
       -2
340
0
 93
        0
 40
1.125
309
GRIDFORMAT_END
 95
       16
302
GRIDFORMAT
  1
GRIDFORMAT_BEGIN
 90
        0
 91
        1
 62
     0
 92
       -2
340
0
 93
        0
 40
1.125
309
GRIDFORMAT_END
 95
       32
302
GRIDFORMAT
  1
GRIDFORMAT_BEGIN
 90
        0
 91
        1
 62
     0
 92
       -2
340
0
 93
        0
 40
1.125
309
GRIDFORMAT_END
309
TABLEFORMAT_END
  1
CELLSTYLE_BEGIN
 90
        1
 91
        1
300
_TITLE
309
CELLSTYLE_END
300
CELLSTYLE
  1
TABLEFORMAT_BEGIN
 90
        5
170
     1
 91
        0
 92
        0
 62
   257
 93
        1
300
CONTENTFORMAT
  1
CONTENTFORMAT_BEGIN
 90
        0
 91
        0
 92
      512
 93
        0
300

 40
0.0
140
1.0
 94
        5
 62
     0
340
17
144
4.5
309
CONTENTFORMAT_END
171
     1
301
MARGIN
  1
CELLMARGIN_BEGIN
 40
1.5
 40
1.5
 40
1.5
 40
1.5
 40
4.5
 40
4.5
309
CELLMARGIN_END
 94
        6
 95
        1
302
GRIDFORMAT
  1
GRIDFORMAT_BEGIN
 90
        0
 91
        1
 62
     0
 92
       -2
340
0
 93
        0
 40
1.125
309
GRIDFORMAT_END
 95
        2
302
GRIDFORMAT
  1
GRIDFORMAT_BEGIN
 90
        0
 91
        1
 62
     0
 92
       -2
340
0
 93
        0
 40
1.125
309
GRIDFORMAT_END
 95
        4
302
GRIDFORMAT
  1
GRIDFORMAT_BEGIN
 90
        0
 91
        1
 62
     0
 92
       -2
340
0
 93
        0
 40
1.125
309
GRIDFORMAT_END
 95
        8
302
GRIDFORMAT
  1
GRIDFORMAT_BEGIN
 90
        0
 91
        1
 62
     0
 92
       -2
340
0
 93
        0
 40
1.125
309
GRIDFORMAT_END
 95
       16
302
GRIDFORMAT
  1
GRIDFORMAT_BEGIN
 90
        0
 91
        1
 62
     0
 92
       -2
340
0
 93
        0
 40
1.125
309
GRIDFORMAT_END
 95
       32
302
GRIDFORMAT
  1
GRIDFORMAT_BEGIN
 90
        0
 91
        1
 62
     0
 92
       -2
340
0
 93
        0
 40
1.125
309
GRIDFORMAT_END
309
TABLEFORMAT_END
  1
CELLSTYLE_BEGIN
 90
        2
 91
        1
300
_HEADER
309
CELLSTYLE_END
300
CELLSTYLE
  1
TABLEFORMAT_BEGIN
 90
        5
170
     1
 91
        0
 92
        0
 62
   257
 93
        1
300
CONTENTFORMAT
  1
CONTENTFORMAT_BEGIN
 90
        0
 91
        0
 92
      512
 93
        0
300

 40
0.0
140
1.0
 94
        2
 62
     0
340
17
144
4.5
309
CONTENTFORMAT_END
171
     1
301
MARGIN
  1
CELLMARGIN_BEGIN
 40
1.5
 40
1.5
 40
1.5
 40
1.5
 40
4.5
 40
4.5
309
CELLMARGIN_END
 94
        6
 95
        1
302
GRIDFORMAT
  1
GRIDFORMAT_BEGIN
 90
        0
 91
        1
 62
     0
 92
       -2
340
0
 93
        0
 40
1.125
309
GRIDFORMAT_END
 95
        2
302
GRIDFORMAT
  1
GRIDFORMAT_BEGIN
 90
        0
 91
        1
 62
     0
 92
       -2
340
0
 93
        0
 40
1.125
309
GRIDFORMAT_END
 95
        4
302
GRIDFORMAT
  1
GRIDFORMAT_BEGIN
 90
        0
 91
        1
 62
     0
 92
       -2
340
0
 93
        0
 40
1.125
309
GRIDFORMAT_END
 95
        8
302
GRIDFORMAT
  1
GRIDFORMAT_BEGIN
 90
        0
 91
        1
 62
     0
 92
       -2
340
0
 93
        0
 40
1.125
309
GRIDFORMAT_END
 95
       16
302
GRIDFORMAT
  1
GRIDFORMAT_BEGIN
 90
        0
 91
        1
 62
     0
 92
       -2
340
0
 93
        0
 40
1.125
309
GRIDFORMAT_END
 95
       32
302
GRIDFORMAT
  1
GRIDFORMAT_BEGIN
 90
        0
 91
        1
 62
     0
 92
       -2
340
0
 93
        0
 40
1.125
309
GRIDFORMAT_END
309
TABLEFORMAT_END
  1
CELLSTYLE_BEGIN
 90
        3
 91
        2
300
_DATA
309
CELLSTYLE_END
  0
XRECORD
  5
828
102
{ACAD_REACTORS
330
7EC
102
}
330
7EC
100
AcDbXrecord
280
     1
102
ACAD_ROUNDTRIP_PRE2007_TABLESTYLE
 90
      512
 91
        0
  1

 92
      512
 93
        0
  2

 94
      512
 95
        0
  3

  0
XRECORD
  5
803
102
{ACAD_REACTORS
330
802
102
}
330
802
100
AcDbXrecord
280
     1
102
RTVSPost2010Prop28
280
     1
102
RTVSPost2010PropOp28
 70
     1
102
RTVSPost2010Prop29
280
     1
102
RTVSPost2010PropOp29
 70
     1
102
RTVSPost2010Prop30
280
     0
102
RTVSPost2010PropOp30
 70
     1
102
RTVSPost2010Prop31
280
     0
102
RTVSPost2010PropOp31
 70
     1
102
RTVSPost2010Prop32
280
     0
102
RTVSPost2010PropOp32
 70
     1
102
RTVSPost2010Prop33
280
     0
102
RTVSPost2010PropOp33
 70
     1
102
RTVSPost2010Prop34
280
     0
102
RTVSPost2010PropOp34
 70
     1
102
RTVSPost2010Prop35
280
     0
102
RTVSPost2010PropOp35
 70
     1
102
RTVSPost2010Prop36
280
     0
102
RTVSPost2010PropOp36
 70
     1
102
RTVSPost2010Prop37
 90
       50
102
RTVSPost2010PropOp37
 70
     1
102
RTVSPost2010Prop38
140
0.0
102
RTVSPost2010PropOp38
 70
     1
102
RTVSPost2010Prop39
140
1.0
102
RTVSPost2010PropOp39
 70
     1
102
RTVSPost2010Prop40
 90
        0
102
RTVSPost2010PropOp40
 70
     1
102
RTVSPost2010Prop41ColorIndex
 90
       18
102
RTVSPost2010Prop41ColorRGB
 90
        0
102
RTVSPost2010PropOp41
 70
     1
102
RTVSPost2010Prop42
 90
       50
102
RTVSPost2010PropOp42
 70
     1
102
RTVSPost2010Prop43
 90
        3
102
RTVSPost2010PropOp43
 70
     1
102
RTVSPost2010Prop44ColorIndex
 90
        5
102
RTVSPost2010Prop44ColorRGB
 90
      255
102
RTVSPost2010PropOp44
 70
     1
102
RTVSPost2010Prop45
280
     0
102
RTVSPost2010PropOp45
 70
     1
102
RTVSPost2010Prop46
 90
       50
102
RTVSPost2010PropOp46
 70
     1
102
RTVSPost2010Prop47
 90
       50
102
RTVSPost2010PropOp47
 70
     1
102
RTVSPost2010Prop48
 90
       50
102
RTVSPost2010PropOp48
 70
     1
102
RTVSPost2010Prop49
280
     0
102
RTVSPost2010PropOp49
 70
     1
102
RTVSPost2010Prop50
 90
       50
102
RTVSPost2010PropOp50
 70
     1
102
RTVSPost2010Prop51ColorIndex
 90
      256
102
RTVSPost2010Prop51ColorRGB
 90
-16777216
102
RTVSPost2010PropOp51
 70
     0
102
RTVSPost2010Prop52
140
1.0
102
RTVSPost2010PropOp52
 70
     0
102
RTVSPost2010Prop53
 90
        2
102
RTVSPost2010PropOp53
 70
     1
102
RTVSPost2010Prop54
  1
strokes_ogs.tif
102
RTVSPost2010PropOp54
 70
     1
102
RTVSPost2010Prop55
280
     0
102
RTVSPost2010PropOp55
 70
     1
102
RTVSPost2010Prop56
140
1.0
102
RTVSPost2010PropOp56
 70
     1
102
RTVSPost2010Prop57
140
1.0
102
RTVSPost2010PropOp57
 70
     1
102
RTVSPropertyOp0
 70
     1
102
RTVSPropertyOp1
 70
     1
102
RTVSPropertyOp2
 70
     1
102
RTVSPropertyOp3
 70
     1
102
RTVSPropertyOp4
 70
     1
102
RTVSPropertyOp5
 70
     1
102
RTVSPropertyOp6
 70
     1
102
RTVSPropertyOp7
 70
     1
102
RTVSPropertyOp8
 70
     1
102
RTVSPropertyOp9
 70
     1
102
RTVSPropertyOp10
 70
     1
102
RTVSPropertyOp11
 70
     1
102
RTVSPropertyOp12
 70
     1
102
RTVSPropertyOp13
 70
     1
102
RTVSPropertyOp14
 70
     1
102
RTVSPropertyOp15
 70
     1
102
RTVSPropertyOp16
 70
     1
102
RTVSPropertyOp17
 70
     1
102
RTVSPropertyOp18
 70
     1
102
RTVSPropertyOp19
 70
     1
102
RTVSPropertyOp20
 70
     1
102
RTVSPropertyOp21
 70
     1
102
RTVSPropertyOp22
 70
     1
102
RTVSPropertyOp23
 70
     1
102
RTVSPropertyOp24
 70
     1
102
RTVSPropertyOp25
 70
     1
102
RTVSPropertyOp26
 70
     1
102
RTVSPropertyOp27
 70
     1
102
RTVSPropertyOp28
 70
     1
102
RTVSPropertyOp29
 70
     1
102
RTVSPropertyOp30
 70
     1
102
RTVSPropertyOp31
 70
     1
102
RTVSPropertyOp32
 70
     1
102
RTVSPropertyOp33
 70
     1
102
RTVSPropertyOp34
 70
     1
102
RTVSPropertyOp35
 70
     1
102
RTVSPropertyOp36
 70
     1
102
RTVSPropertyOp37
 70
     1
102
RTVSPropertyOp38
 70
     1
102
RTVSPropertyOp39
 70
     1
102
RTVSPropertyOp40
 70
     1
102
RTVSPropertyOp41
 70
     1
102
RTVSPropertyOp42
 70
     1
102
RTVSPropertyOp43
 70
     1
102
RTVSPropertyOp44
 70
     1
102
RTVSPropertyOp45
 70
     1
102
RTVSPropertyOp46
 70
     1
102
RTVSPropertyOp47
 70
     1
102
RTVSPropertyOp48
 70
     1
102
RTVSPropertyOp49
 70
     1
102
RTVSPropertyOp50
 70
     1
102
RTVSPropertyOp51
 70
     0
102
RTVSPropertyOp52
 70
     0
102
RTVSPropertyOp53
 70
     1
102
RTVSPropertyOp54
 70
     1
102
RTVSPropertyOp55
 70
     1
102
RTVSPropertyOp56
 70
     1
102
RTVSPropertyOp57
 70
     1
102
RTVSPropertyOp58
 70
     1
102
RTVSPropertyOp59
 70
     1
102
RTVSPropertyOp60
 70
     1
102
RTVSPropertyOp61
 70
     1
102
RTVSPropertyOp62
 70
     1
  0
XRECORD
  5
801
102
{ACAD_REACTORS
330
800
102
}
330
800
100
AcDbXrecord
280
     1
102
RTVSPost2010Prop28
280
     0
102
RTVSPost2010PropOp28
 70
     1
102
RTVSPost2010Prop29
280
     1
102
RTVSPost2010PropOp29
 70
     1
102
RTVSPost2010Prop30
280
     1
102
RTVSPost2010PropOp30
 70
     1
102
RTVSPost2010Prop31
280
     0
102
RTVSPost2010PropOp31
 70
     1
102
RTVSPost2010Prop32
280
     0
102
RTVSPost2010PropOp32
 70
     1
102
RTVSPost2010Prop33
280
     0
102
RTVSPost2010PropOp33
 70
     1
102
RTVSPost2010Prop34
280
     0
102
RTVSPost2010PropOp34
 70
     1
102
RTVSPost2010Prop35
280
     0
102
RTVSPost2010PropOp35
 70
     1
102
RTVSPost2010Prop36
280
     0
102
RTVSPost2010PropOp36
 70
     1
102
RTVSPost2010Prop37
 90
       50
102
RTVSPost2010PropOp37
 70
     1
102
RTVSPost2010Prop38
140
0.0
102
RTVSPost2010PropOp38
 70
     1
102
RTVSPost2010Prop39
140
1.0
102
RTVSPost2010PropOp39
 70
     1
102
RTVSPost2010Prop40
 90
        0
102
RTVSPost2010PropOp40
 70
     1
102
RTVSPost2010Prop41ColorIndex
 90
       18
102
RTVSPost2010Prop41ColorRGB
 90
        0
102
RTVSPost2010PropOp41
 70
     1
102
RTVSPost2010Prop42
 90
       50
102
RTVSPost2010PropOp42
 70
     1
102
RTVSPost2010Prop43
 90
        3
102
RTVSPost2010PropOp43
 70
     1
102
RTVSPost2010Prop44ColorIndex
 90
        5
102
RTVSPost2010Prop44ColorRGB
 90
      255
102
RTVSPost2010PropOp44
 70
     1
102
RTVSPost2010Prop45
280
     0
102
RTVSPost2010PropOp45
 70
     1
102
RTVSPost2010Prop46
 90
       50
102
RTVSPost2010PropOp46
 70
     1
102
RTVSPost2010Prop47
 90
       50
102
RTVSPost2010PropOp47
 70
     1
102
RTVSPost2010Prop48
 90
       50
102
RTVSPost2010PropOp48
 70
     1
102
RTVSPost2010Prop49
280
     0
102
RTVSPost2010PropOp49
 70
     1
102
RTVSPost2010Prop50
 90
       50
102
RTVSPost2010PropOp50
 70
     1
102
RTVSPost2010Prop51ColorIndex
 90
      256
102
RTVSPost2010Prop51ColorRGB
 90
-16777216
102
RTVSPost2010PropOp51
 70
     0
102
RTVSPost2010Prop52
140
1.0
102
RTVSPost2010PropOp52
 70
     0
102
RTVSPost2010Prop53
 90
        2
102
RTVSPost2010PropOp53
 70
     1
102
RTVSPost2010Prop54
  1
strokes_ogs.tif
102
RTVSPost2010PropOp54
 70
     1
102
RTVSPost2010Prop55
280
     0
102
RTVSPost2010PropOp55
 70
     1
102
RTVSPost2010Prop56
140
1.0
102
RTVSPost2010PropOp56
 70
     1
102
RTVSPost2010Prop57
140
1.0
102
RTVSPost2010PropOp57
 70
     1
102
RTVSPropertyOp0
 70
     1
102
RTVSPropertyOp1
 70
     1
102
RTVSPropertyOp2
 70
     1
102
RTVSPropertyOp3
 70
     1
102
RTVSPropertyOp4
 70
     1
102
RTVSPropertyOp5
 70
     1
102
RTVSPropertyOp6
 70
     1
102
RTVSPropertyOp7
 70
     1
102
RTVSPropertyOp8
 70
     1
102
RTVSPropertyOp9
 70
     1
102
RTVSPropertyOp10
 70
     1
102
RTVSPropertyOp11
 70
     1
102
RTVSPropertyOp12
 70
     1
102
RTVSPropertyOp13
 70
     1
102
RTVSPropertyOp14
 70
     1
102
RTVSPropertyOp15
 70
     1
102
RTVSPropertyOp16
 70
     1
102
RTVSPropertyOp17
 70
     1
102
RTVSPropertyOp18
 70
     1
102
RTVSPropertyOp19
 70
     1
102
RTVSPropertyOp20
 70
     1
102
RTVSPropertyOp21
 70
     1
102
RTVSPropertyOp22
 70
     1
102
RTVSPropertyOp23
 70
     1
102
RTVSPropertyOp24
 70
     1
102
RTVSPropertyOp25
 70
     1
102
RTVSPropertyOp26
 70
     1
102
RTVSPropertyOp27
 70
     1
102
RTVSPropertyOp28
 70
     1
102
RTVSPropertyOp29
 70
     1
102
RTVSPropertyOp30
 70
     1
102
RTVSPropertyOp31
 70
     1
102
RTVSPropertyOp32
 70
     1
102
RTVSPropertyOp33
 70
     1
102
RTVSPropertyOp34
 70
     1
102
RTVSPropertyOp35
 70
     1
102
RTVSPropertyOp36
 70
     1
102
RTVSPropertyOp37
 70
     1
102
RTVSPropertyOp38
 70
     1
102
RTVSPropertyOp39
 70
     1
102
RTVSPropertyOp40
 70
     1
102
RTVSPropertyOp41
 70
     1
102
RTVSPropertyOp42
 70
     1
102
RTVSPropertyOp43
 70
     1
102
RTVSPropertyOp44
 70
     1
102
RTVSPropertyOp45
 70
     1
102
RTVSPropertyOp46
 70
     1
102
RTVSPropertyOp47
 70
     1
102
RTVSPropertyOp48
 70
     1
102
RTVSPropertyOp49
 70
     1
102
RTVSPropertyOp50
 70
     1
102
RTVSPropertyOp51
 70
     0
102
RTVSPropertyOp52
 70
     0
102
RTVSPropertyOp53
 70
     1
102
RTVSPropertyOp54
 70
     1
102
RTVSPropertyOp55
 70
     1
102
RTVSPropertyOp56
 70
     1
102
RTVSPropertyOp57
 70
     1
102
RTVSPropertyOp58
 70
     1
102
RTVSPropertyOp59
 70
     1
102
RTVSPropertyOp60
 70
     1
102
RTVSPropertyOp61
 70
     1
102
RTVSPropertyOp62
 70
     1
  0
XRECORD
  5
80F
102
{ACAD_REACTORS
330
80E
102
}
330
80E
100
AcDbXrecord
280
     1
102
RTVSPost2010Prop28
280
     0
102
RTVSPost2010PropOp28
 70
     1
102
RTVSPost2010Prop29
280
     1
102
RTVSPost2010PropOp29
 70
     1
102
RTVSPost2010Prop30
280
     1
102
RTVSPost2010PropOp30
 70
     1
102
RTVSPost2010Prop31
280
     0
102
RTVSPost2010PropOp31
 70
     1
102
RTVSPost2010Prop32
280
     0
102
RTVSPost2010PropOp32
 70
     1
102
RTVSPost2010Prop33
280
     0
102
RTVSPost2010PropOp33
 70
     1
102
RTVSPost2010Prop34
280
     0
102
RTVSPost2010PropOp34
 70
     1
102
RTVSPost2010Prop35
280
     0
102
RTVSPost2010PropOp35
 70
     1
102
RTVSPost2010Prop36
280
     0
102
RTVSPost2010PropOp36
 70
     1
102
RTVSPost2010Prop37
 90
       50
102
RTVSPost2010PropOp37
 70
     1
102
RTVSPost2010Prop38
140
0.0
102
RTVSPost2010PropOp38
 70
     1
102
RTVSPost2010Prop39
140
1.0
102
RTVSPost2010PropOp39
 70
     1
102
RTVSPost2010Prop40
 90
        0
102
RTVSPost2010PropOp40
 70
     1
102
RTVSPost2010Prop41ColorIndex
 90
       18
102
RTVSPost2010Prop41ColorRGB
 90
        0
102
RTVSPost2010PropOp41
 70
     1
102
RTVSPost2010Prop42
 90
       50
102
RTVSPost2010PropOp42
 70
     1
102
RTVSPost2010Prop43
 90
        3
102
RTVSPost2010PropOp43
 70
     1
102
RTVSPost2010Prop44ColorIndex
 90
        5
102
RTVSPost2010Prop44ColorRGB
 90
      255
102
RTVSPost2010PropOp44
 70
     1
102
RTVSPost2010Prop45
280
     0
102
RTVSPost2010PropOp45
 70
     1
102
RTVSPost2010Prop46
 90
       50
102
RTVSPost2010PropOp46
 70
     1
102
RTVSPost2010Prop47
 90
       50
102
RTVSPost2010PropOp47
 70
     1
102
RTVSPost2010Prop48
 90
       50
102
RTVSPost2010PropOp48
 70
     1
102
RTVSPost2010Prop49
280
     0
102
RTVSPost2010PropOp49
 70
     1
102
RTVSPost2010Prop50
 90
       50
102
RTVSPost2010PropOp50
 70
     1
102
RTVSPost2010Prop51ColorIndex
 90
      256
102
RTVSPost2010Prop51ColorRGB
 90
-16777216
102
RTVSPost2010PropOp51
 70
     0
102
RTVSPost2010Prop52
140
1.0
102
RTVSPost2010PropOp52
 70
     0
102
RTVSPost2010Prop53
 90
        2
102
RTVSPost2010PropOp53
 70
     1
102
RTVSPost2010Prop54
  1
strokes_ogs.tif
102
RTVSPost2010PropOp54
 70
     1
102
RTVSPost2010Prop55
280
     0
102
RTVSPost2010PropOp55
 70
     1
102
RTVSPost2010Prop56
140
1.0
102
RTVSPost2010PropOp56
 70
     1
102
RTVSPost2010Prop57
140
1.0
102
RTVSPost2010PropOp57
 70
     1
102
RTVSPropertyOp0
 70
     1
102
RTVSPropertyOp1
 70
     1
102
RTVSPropertyOp2
 70
     1
102
RTVSPropertyOp3
 70
     1
102
RTVSPropertyOp4
 70
     1
102
RTVSPropertyOp5
 70
     1
102
RTVSPropertyOp6
 70
     1
102
RTVSPropertyOp7
 70
     1
102
RTVSPropertyOp8
 70
     1
102
RTVSPropertyOp9
 70
     1
102
RTVSPropertyOp10
 70
     1
102
RTVSPropertyOp11
 70
     1
102
RTVSPropertyOp12
 70
     1
102
RTVSPropertyOp13
 70
     1
102
RTVSPropertyOp14
 70
     1
102
RTVSPropertyOp15
 70
     1
102
RTVSPropertyOp16
 70
     1
102
RTVSPropertyOp17
 70
     1
102
RTVSPropertyOp18
 70
     1
102
RTVSPropertyOp19
 70
     1
102
RTVSPropertyOp20
 70
     1
102
RTVSPropertyOp21
 70
     1
102
RTVSPropertyOp22
 70
     1
102
RTVSPropertyOp23
 70
     1
102
RTVSPropertyOp24
 70
     1
102
RTVSPropertyOp25
 70
     1
102
RTVSPropertyOp26
 70
     1
102
RTVSPropertyOp27
 70
     1
102
RTVSPropertyOp28
 70
     1
102
RTVSPropertyOp29
 70
     1
102
RTVSPropertyOp30
 70
     1
102
RTVSPropertyOp31
 70
     1
102
RTVSPropertyOp32
 70
     1
102
RTVSPropertyOp33
 70
     1
102
RTVSPropertyOp34
 70
     1
102
RTVSPropertyOp35
 70
     1
102
RTVSPropertyOp36
 70
     1
102
RTVSPropertyOp37
 70
     1
102
RTVSPropertyOp38
 70
     1
102
RTVSPropertyOp39
 70
     1
102
RTVSPropertyOp40
 70
     1
102
RTVSPropertyOp41
 70
     1
102
RTVSPropertyOp42
 70
     1
102
RTVSPropertyOp43
 70
     1
102
RTVSPropertyOp44
 70
     1
102
RTVSPropertyOp45
 70
     1
102
RTVSPropertyOp46
 70
     1
102
RTVSPropertyOp47
 70
     1
102
RTVSPropertyOp48
 70
     1
102
RTVSPropertyOp49
 70
     1
102
RTVSPropertyOp50
 70
     1
102
RTVSPropertyOp51
 70
     0
102
RTVSPropertyOp52
 70
     0
102
RTVSPropertyOp53
 70
     1
102
RTVSPropertyOp54
 70
     1
102
RTVSPropertyOp55
 70
     1
102
RTVSPropertyOp56
 70
     1
102
RTVSPropertyOp57
 70
     1
102
RTVSPropertyOp58
 70
     1
102
RTVSPropertyOp59
 70
     1
102
RTVSPropertyOp60
 70
     1
102
RTVSPropertyOp61
 70
     1
102
RTVSPropertyOp62
 70
     1
  0
XRECORD
  5
817
102
{ACAD_REACTORS
330
816
102
}
330
816
100
AcDbXrecord
280
     1
102
RTVSPost2010Prop28
280
     0
102
RTVSPost2010PropOp28
 70
     1
102
RTVSPost2010Prop29
280
     1
102
RTVSPost2010PropOp29
 70
     1
102
RTVSPost2010Prop30
280
     1
102
RTVSPost2010PropOp30
 70
     1
102
RTVSPost2010Prop31
280
     0
102
RTVSPost2010PropOp31
 70
     1
102
RTVSPost2010Prop32
280
     0
102
RTVSPost2010PropOp32
 70
     1
102
RTVSPost2010Prop33
280
     0
102
RTVSPost2010PropOp33
 70
     1
102
RTVSPost2010Prop34
280
     0
102
RTVSPost2010PropOp34
 70
     1
102
RTVSPost2010Prop35
280
     0
102
RTVSPost2010PropOp35
 70
     1
102
RTVSPost2010Prop36
280
     0
102
RTVSPost2010PropOp36
 70
     1
102
RTVSPost2010Prop37
 90
       50
102
RTVSPost2010PropOp37
 70
     1
102
RTVSPost2010Prop38
140
0.0
102
RTVSPost2010PropOp38
 70
     1
102
RTVSPost2010Prop39
140
1.0
102
RTVSPost2010PropOp39
 70
     1
102
RTVSPost2010Prop40
 90
        0
102
RTVSPost2010PropOp40
 70
     1
102
RTVSPost2010Prop41ColorIndex
 90
       18
102
RTVSPost2010Prop41ColorRGB
 90
        0
102
RTVSPost2010PropOp41
 70
     1
102
RTVSPost2010Prop42
 90
       50
102
RTVSPost2010PropOp42
 70
     1
102
RTVSPost2010Prop43
 90
        3
102
RTVSPost2010PropOp43
 70
     1
102
RTVSPost2010Prop44ColorIndex
 90
        5
102
RTVSPost2010Prop44ColorRGB
 90
      255
102
RTVSPost2010PropOp44
 70
     1
102
RTVSPost2010Prop45
280
     0
102
RTVSPost2010PropOp45
 70
     1
102
RTVSPost2010Prop46
 90
       50
102
RTVSPost2010PropOp46
 70
     1
102
RTVSPost2010Prop47
 90
       50
102
RTVSPost2010PropOp47
 70
     1
102
RTVSPost2010Prop48
 90
       50
102
RTVSPost2010PropOp48
 70
     1
102
RTVSPost2010Prop49
280
     0
102
RTVSPost2010PropOp49
 70
     1
102
RTVSPost2010Prop50
 90
       50
102
RTVSPost2010PropOp50
 70
     1
102
RTVSPost2010Prop51ColorIndex
 90
      256
102
RTVSPost2010Prop51ColorRGB
 90
-16777216
102
RTVSPost2010PropOp51
 70
     0
102
RTVSPost2010Prop52
140
1.0
102
RTVSPost2010PropOp52
 70
     0
102
RTVSPost2010Prop53
 90
        2
102
RTVSPost2010PropOp53
 70
     1
102
RTVSPost2010Prop54
  1
strokes_ogs.tif
102
RTVSPost2010PropOp54
 70
     1
102
RTVSPost2010Prop55
280
     0
102
RTVSPost2010PropOp55
 70
     1
102
RTVSPost2010Prop56
140
1.0
102
RTVSPost2010PropOp56
 70
     1
102
RTVSPost2010Prop57
140
1.0
102
RTVSPost2010PropOp57
 70
     1
102
RTVSPropertyOp0
 70
     1
102
RTVSPropertyOp1
 70
     1
102
RTVSPropertyOp2
 70
     1
102
RTVSPropertyOp3
 70
     1
102
RTVSPropertyOp4
 70
     1
102
RTVSPropertyOp5
 70
     1
102
RTVSPropertyOp6
 70
     1
102
RTVSPropertyOp7
 70
     1
102
RTVSPropertyOp8
 70
     1
102
RTVSPropertyOp9
 70
     1
102
RTVSPropertyOp10
 70
     1
102
RTVSPropertyOp11
 70
     1
102
RTVSPropertyOp12
 70
     1
102
RTVSPropertyOp13
 70
     1
102
RTVSPropertyOp14
 70
     1
102
RTVSPropertyOp15
 70
     1
102
RTVSPropertyOp16
 70
     1
102
RTVSPropertyOp17
 70
     1
102
RTVSPropertyOp18
 70
     1
102
RTVSPropertyOp19
 70
     1
102
RTVSPropertyOp20
 70
     1
102
RTVSPropertyOp21
 70
     1
102
RTVSPropertyOp22
 70
     1
102
RTVSPropertyOp23
 70
     1
102
RTVSPropertyOp24
 70
     1
102
RTVSPropertyOp25
 70
     1
102
RTVSPropertyOp26
 70
     1
102
RTVSPropertyOp27
 70
     1
102
RTVSPropertyOp28
 70
     1
102
RTVSPropertyOp29
 70
     1
102
RTVSPropertyOp30
 70
     1
102
RTVSPropertyOp31
 70
     1
102
RTVSPropertyOp32
 70
     1
102
RTVSPropertyOp33
 70
     1
102
RTVSPropertyOp34
 70
     1
102
RTVSPropertyOp35
 70
     1
102
RTVSPropertyOp36
 70
     1
102
RTVSPropertyOp37
 70
     1
102
RTVSPropertyOp38
 70
     1
102
RTVSPropertyOp39
 70
     1
102
RTVSPropertyOp40
 70
     1
102
RTVSPropertyOp41
 70
     1
102
RTVSPropertyOp42
 70
     1
102
RTVSPropertyOp43
 70
     1
102
RTVSPropertyOp44
 70
     1
102
RTVSPropertyOp45
 70
     1
102
RTVSPropertyOp46
 70
     1
102
RTVSPropertyOp47
 70
     1
102
RTVSPropertyOp48
 70
     1
102
RTVSPropertyOp49
 70
     1
102
RTVSPropertyOp50
 70
     1
102
RTVSPropertyOp51
 70
     0
102
RTVSPropertyOp52
 70
     0
102
RTVSPropertyOp53
 70
     1
102
RTVSPropertyOp54
 70
     1
102
RTVSPropertyOp55
 70
     1
102
RTVSPropertyOp56
 70
     1
102
RTVSPropertyOp57
 70
     1
102
RTVSPropertyOp58
 70
     1
102
RTVSPropertyOp59
 70
     1
102
RTVSPropertyOp60
 70
     1
102
RTVSPropertyOp61
 70
     1
102
RTVSPropertyOp62
 70
     1
  0
XRECORD
  5
809
102
{ACAD_REACTORS
330
808
102
}
330
808
100
AcDbXrecord
280
     1
102
RTVSPost2010Prop28
280
     0
102
RTVSPost2010PropOp28
 70
     1
102
RTVSPost2010Prop29
280
     1
102
RTVSPost2010PropOp29
 70
     1
102
RTVSPost2010Prop30
280
     1
102
RTVSPost2010PropOp30
 70
     1
102
RTVSPost2010Prop31
280
     0
102
RTVSPost2010PropOp31
 70
     1
102
RTVSPost2010Prop32
280
     0
102
RTVSPost2010PropOp32
 70
     1
102
RTVSPost2010Prop33
280
     0
102
RTVSPost2010PropOp33
 70
     1
102
RTVSPost2010Prop34
280
     0
102
RTVSPost2010PropOp34
 70
     1
102
RTVSPost2010Prop35
280
     0
102
RTVSPost2010PropOp35
 70
     1
102
RTVSPost2010Prop36
280
     0
102
RTVSPost2010PropOp36
 70
     1
102
RTVSPost2010Prop37
 90
       50
102
RTVSPost2010PropOp37
 70
     1
102
RTVSPost2010Prop38
140
0.0
102
RTVSPost2010PropOp38
 70
     1
102
RTVSPost2010Prop39
140
1.0
102
RTVSPost2010PropOp39
 70
     1
102
RTVSPost2010Prop40
 90
        0
102
RTVSPost2010PropOp40
 70
     1
102
RTVSPost2010Prop41ColorIndex
 90
       18
102
RTVSPost2010Prop41ColorRGB
 90
        0
102
RTVSPost2010PropOp41
 70
     1
102
RTVSPost2010Prop42
 90
       50
102
RTVSPost2010PropOp42
 70
     1
102
RTVSPost2010Prop43
 90
        3
102
RTVSPost2010PropOp43
 70
     1
102
RTVSPost2010Prop44ColorIndex
 90
        5
102
RTVSPost2010Prop44ColorRGB
 90
      255
102
RTVSPost2010PropOp44
 70
     1
102
RTVSPost2010Prop45
280
     0
102
RTVSPost2010PropOp45
 70
     1
102
RTVSPost2010Prop46
 90
       50
102
RTVSPost2010PropOp46
 70
     1
102
RTVSPost2010Prop47
 90
       50
102
RTVSPost2010PropOp47
 70
     1
102
RTVSPost2010Prop48
 90
       50
102
RTVSPost2010PropOp48
 70
     1
102
RTVSPost2010Prop49
280
     0
102
RTVSPost2010PropOp49
 70
     1
102
RTVSPost2010Prop50
 90
       50
102
RTVSPost2010PropOp50
 70
     1
102
RTVSPost2010Prop51ColorIndex
 90
      256
102
RTVSPost2010Prop51ColorRGB
 90
-16777216
102
RTVSPost2010PropOp51
 70
     0
102
RTVSPost2010Prop52
140
1.0
102
RTVSPost2010PropOp52
 70
     0
102
RTVSPost2010Prop53
 90
        2
102
RTVSPost2010PropOp53
 70
     1
102
RTVSPost2010Prop54
  1
strokes_ogs.tif
102
RTVSPost2010PropOp54
 70
     1
102
RTVSPost2010Prop55
280
     0
102
RTVSPost2010PropOp55
 70
     1
102
RTVSPost2010Prop56
140
1.0
102
RTVSPost2010PropOp56
 70
     1
102
RTVSPost2010Prop57
140
1.0
102
RTVSPost2010PropOp57
 70
     1
102
RTVSPropertyOp0
 70
     1
102
RTVSPropertyOp1
 70
     1
102
RTVSPropertyOp2
 70
     1
102
RTVSPropertyOp3
 70
     1
102
RTVSPropertyOp4
 70
     1
102
RTVSPropertyOp5
 70
     1
102
RTVSPropertyOp6
 70
     1
102
RTVSPropertyOp7
 70
     1
102
RTVSPropertyOp8
 70
     1
102
RTVSPropertyOp9
 70
     1
102
RTVSPropertyOp10
 70
     1
102
RTVSPropertyOp11
 70
     1
102
RTVSPropertyOp12
 70
     1
102
RTVSPropertyOp13
 70
     1
102
RTVSPropertyOp14
 70
     1
102
RTVSPropertyOp15
 70
     1
102
RTVSPropertyOp16
 70
     1
102
RTVSPropertyOp17
 70
     1
102
RTVSPropertyOp18
 70
     1
102
RTVSPropertyOp19
 70
     1
102
RTVSPropertyOp20
 70
     1
102
RTVSPropertyOp21
 70
     1
102
RTVSPropertyOp22
 70
     1
102
RTVSPropertyOp23
 70
     1
102
RTVSPropertyOp24
 70
     1
102
RTVSPropertyOp25
 70
     1
102
RTVSPropertyOp26
 70
     1
102
RTVSPropertyOp27
 70
     1
102
RTVSPropertyOp28
 70
     1
102
RTVSPropertyOp29
 70
     1
102
RTVSPropertyOp30
 70
     1
102
RTVSPropertyOp31
 70
     1
102
RTVSPropertyOp32
 70
     1
102
RTVSPropertyOp33
 70
     1
102
RTVSPropertyOp34
 70
     1
102
RTVSPropertyOp35
 70
     1
102
RTVSPropertyOp36
 70
     1
102
RTVSPropertyOp37
 70
     1
102
RTVSPropertyOp38
 70
     1
102
RTVSPropertyOp39
 70
     1
102
RTVSPropertyOp40
 70
     1
102
RTVSPropertyOp41
 70
     1
102
RTVSPropertyOp42
 70
     1
102
RTVSPropertyOp43
 70
     1
102
RTVSPropertyOp44
 70
     1
102
RTVSPropertyOp45
 70
     1
102
RTVSPropertyOp46
 70
     1
102
RTVSPropertyOp47
 70
     1
102
RTVSPropertyOp48
 70
     1
102
RTVSPropertyOp49
 70
     1
102
RTVSPropertyOp50
 70
     1
102
RTVSPropertyOp51
 70
     0
102
RTVSPropertyOp52
 70
     0
102
RTVSPropertyOp53
 70
     1
102
RTVSPropertyOp54
 70
     1
102
RTVSPropertyOp55
 70
     1
102
RTVSPropertyOp56
 70
     1
102
RTVSPropertyOp57
 70
     1
102
RTVSPropertyOp58
 70
     1
102
RTVSPropertyOp59
 70
     1
102
RTVSPropertyOp60
 70
     1
102
RTVSPropertyOp61
 70
     1
102
RTVSPropertyOp62
 70
     1
  0
XRECORD
  5
80D
102
{ACAD_REACTORS
330
80C
102
}
330
80C
100
AcDbXrecord
280
     1
102
RTVSPost2010Prop28
280
     0
102
RTVSPost2010PropOp28
 70
     1
102
RTVSPost2010Prop29
280
     1
102
RTVSPost2010PropOp29
 70
     1
102
RTVSPost2010Prop30
280
     1
102
RTVSPost2010PropOp30
 70
     1
102
RTVSPost2010Prop31
280
     0
102
RTVSPost2010PropOp31
 70
     1
102
RTVSPost2010Prop32
280
     0
102
RTVSPost2010PropOp32
 70
     1
102
RTVSPost2010Prop33
280
     0
102
RTVSPost2010PropOp33
 70
     1
102
RTVSPost2010Prop34
280
     0
102
RTVSPost2010PropOp34
 70
     1
102
RTVSPost2010Prop35
280
     0
102
RTVSPost2010PropOp35
 70
     1
102
RTVSPost2010Prop36
280
     0
102
RTVSPost2010PropOp36
 70
     1
102
RTVSPost2010Prop37
 90
       50
102
RTVSPost2010PropOp37
 70
     1
102
RTVSPost2010Prop38
140
0.0
102
RTVSPost2010PropOp38
 70
     1
102
RTVSPost2010Prop39
140
1.0
102
RTVSPost2010PropOp39
 70
     1
102
RTVSPost2010Prop40
 90
        0
102
RTVSPost2010PropOp40
 70
     1
102
RTVSPost2010Prop41ColorIndex
 90
       18
102
RTVSPost2010Prop41ColorRGB
 90
        0
102
RTVSPost2010PropOp41
 70
     1
102
RTVSPost2010Prop42
 90
       50
102
RTVSPost2010PropOp42
 70
     1
102
RTVSPost2010Prop43
 90
        3
102
RTVSPost2010PropOp43
 70
     1
102
RTVSPost2010Prop44ColorIndex
 90
        5
102
RTVSPost2010Prop44ColorRGB
 90
      255
102
RTVSPost2010PropOp44
 70
     1
102
RTVSPost2010Prop45
280
     0
102
RTVSPost2010PropOp45
 70
     1
102
RTVSPost2010Prop46
 90
       50
102
RTVSPost2010PropOp46
 70
     1
102
RTVSPost2010Prop47
 90
       50
102
RTVSPost2010PropOp47
 70
     1
102
RTVSPost2010Prop48
 90
       50
102
RTVSPost2010PropOp48
 70
     1
102
RTVSPost2010Prop49
280
     0
102
RTVSPost2010PropOp49
 70
     1
102
RTVSPost2010Prop50
 90
       50
102
RTVSPost2010PropOp50
 70
     1
102
RTVSPost2010Prop51ColorIndex
 90
      256
102
RTVSPost2010Prop51ColorRGB
 90
-16777216
102
RTVSPost2010PropOp51
 70
     0
102
RTVSPost2010Prop52
140
1.0
102
RTVSPost2010PropOp52
 70
     0
102
RTVSPost2010Prop53
 90
        2
102
RTVSPost2010PropOp53
 70
     1
102
RTVSPost2010Prop54
  1
strokes_ogs.tif
102
RTVSPost2010PropOp54
 70
     1
102
RTVSPost2010Prop55
280
     0
102
RTVSPost2010PropOp55
 70
     1
102
RTVSPost2010Prop56
140
1.0
102
RTVSPost2010PropOp56
 70
     1
102
RTVSPost2010Prop57
140
1.0
102
RTVSPost2010PropOp57
 70
     1
102
RTVSPropertyOp0
 70
     1
102
RTVSPropertyOp1
 70
     1
102
RTVSPropertyOp2
 70
     1
102
RTVSPropertyOp3
 70
     1
102
RTVSPropertyOp4
 70
     1
102
RTVSPropertyOp5
 70
     1
102
RTVSPropertyOp6
 70
     1
102
RTVSPropertyOp7
 70
     1
102
RTVSPropertyOp8
 70
     1
102
RTVSPropertyOp9
 70
     1
102
RTVSPropertyOp10
 70
     1
102
RTVSPropertyOp11
 70
     1
102
RTVSPropertyOp12
 70
     1
102
RTVSPropertyOp13
 70
     1
102
RTVSPropertyOp14
 70
     1
102
RTVSPropertyOp15
 70
     1
102
RTVSPropertyOp16
 70
     1
102
RTVSPropertyOp17
 70
     1
102
RTVSPropertyOp18
 70
     1
102
RTVSPropertyOp19
 70
     1
102
RTVSPropertyOp20
 70
     1
102
RTVSPropertyOp21
 70
     1
102
RTVSPropertyOp22
 70
     1
102
RTVSPropertyOp23
 70
     1
102
RTVSPropertyOp24
 70
     1
102
RTVSPropertyOp25
 70
     1
102
RTVSPropertyOp26
 70
     1
102
RTVSPropertyOp27
 70
     1
102
RTVSPropertyOp28
 70
     1
102
RTVSPropertyOp29
 70
     1
102
RTVSPropertyOp30
 70
     1
102
RTVSPropertyOp31
 70
     1
102
RTVSPropertyOp32
 70
     1
102
RTVSPropertyOp33
 70
     1
102
RTVSPropertyOp34
 70
     1
102
RTVSPropertyOp35
 70
     1
102
RTVSPropertyOp36
 70
     1
102
RTVSPropertyOp37
 70
     1
102
RTVSPropertyOp38
 70
     1
102
RTVSPropertyOp39
 70
     1
102
RTVSPropertyOp40
 70
     1
102
RTVSPropertyOp41
 70
     1
102
RTVSPropertyOp42
 70
     1
102
RTVSPropertyOp43
 70
     1
102
RTVSPropertyOp44
 70
     1
102
RTVSPropertyOp45
 70
     1
102
RTVSPropertyOp46
 70
     1
102
RTVSPropertyOp47
 70
     1
102
RTVSPropertyOp48
 70
     1
102
RTVSPropertyOp49
 70
     1
102
RTVSPropertyOp50
 70
     1
102
RTVSPropertyOp51
 70
     0
102
RTVSPropertyOp52
 70
     0
102
RTVSPropertyOp53
 70
     1
102
RTVSPropertyOp54
 70
     1
102
RTVSPropertyOp55
 70
     1
102
RTVSPropertyOp56
 70
     1
102
RTVSPropertyOp57
 70
     1
102
RTVSPropertyOp58
 70
     1
102
RTVSPropertyOp59
 70
     1
102
RTVSPropertyOp60
 70
     1
102
RTVSPropertyOp61
 70
     1
102
RTVSPropertyOp62
 70
     1
  0
XRECORD
  5
827
102
{ACAD_REACTORS
330
826
102
}
330
826
100
AcDbXrecord
280
     1
102
RTVSPost2010Prop28
280
     0
102
RTVSPost2010PropOp28
 70
     1
102
RTVSPost2010Prop29
280
     1
102
RTVSPost2010PropOp29
 70
     1
102
RTVSPost2010Prop30
280
     1
102
RTVSPost2010PropOp30
 70
     1
102
RTVSPost2010Prop31
280
     0
102
RTVSPost2010PropOp31
 70
     1
102
RTVSPost2010Prop32
280
     0
102
RTVSPost2010PropOp32
 70
     1
102
RTVSPost2010Prop33
280
     0
102
RTVSPost2010PropOp33
 70
     1
102
RTVSPost2010Prop34
280
     0
102
RTVSPost2010PropOp34
 70
     1
102
RTVSPost2010Prop35
280
     0
102
RTVSPost2010PropOp35
 70
     1
102
RTVSPost2010Prop36
280
     0
102
RTVSPost2010PropOp36
 70
     1
102
RTVSPost2010Prop37
 90
       50
102
RTVSPost2010PropOp37
 70
     0
102
RTVSPost2010Prop38
140
0.0
102
RTVSPost2010PropOp38
 70
     0
102
RTVSPost2010Prop39
140
1.0
102
RTVSPost2010PropOp39
 70
     0
102
RTVSPost2010Prop40
 90
        0
102
RTVSPost2010PropOp40
 70
     0
102
RTVSPost2010Prop41ColorIndex
 90
       18
102
RTVSPost2010Prop41ColorRGB
 90
        0
102
RTVSPost2010PropOp41
 70
     0
102
RTVSPost2010Prop42
 90
       50
102
RTVSPost2010PropOp42
 70
     0
102
RTVSPost2010Prop43
 90
        3
102
RTVSPost2010PropOp43
 70
     0
102
RTVSPost2010Prop44ColorIndex
 90
        5
102
RTVSPost2010Prop44ColorRGB
 90
      255
102
RTVSPost2010PropOp44
 70
     0
102
RTVSPost2010Prop45
280
     0
102
RTVSPost2010PropOp45
 70
     1
102
RTVSPost2010Prop46
 90
       50
102
RTVSPost2010PropOp46
 70
     0
102
RTVSPost2010Prop47
 90
       50
102
RTVSPost2010PropOp47
 70
     0
102
RTVSPost2010Prop48
 90
       50
102
RTVSPost2010PropOp48
 70
     0
102
RTVSPost2010Prop49
280
     0
102
RTVSPost2010PropOp49
 70
     1
102
RTVSPost2010Prop50
 90
       50
102
RTVSPost2010PropOp50
 70
     0
102
RTVSPost2010Prop51ColorIndex
 90
      256
102
RTVSPost2010Prop51ColorRGB
 90
-16777216
102
RTVSPost2010PropOp51
 70
     0
102
RTVSPost2010Prop52
140
1.0
102
RTVSPost2010PropOp52
 70
     0
102
RTVSPost2010Prop53
 90
        2
102
RTVSPost2010PropOp53
 70
     0
102
RTVSPost2010Prop54
  1
strokes_ogs.tif
102
RTVSPost2010PropOp54
 70
     0
102
RTVSPost2010Prop55
280
     0
102
RTVSPost2010PropOp55
 70
     1
102
RTVSPost2010Prop56
140
1.0
102
RTVSPost2010PropOp56
 70
     0
102
RTVSPost2010Prop57
140
1.0
102
RTVSPost2010PropOp57
 70
     0
102
RTVSPropertyOp0
 70
     0
102
RTVSPropertyOp1
 70
     0
102
RTVSPropertyOp2
 70
     0
102
RTVSPropertyOp3
 70
     0
102
RTVSPropertyOp4
 70
     0
102
RTVSPropertyOp5
 70
     0
102
RTVSPropertyOp6
 70
     0
102
RTVSPropertyOp7
 70
     0
102
RTVSPropertyOp8
 70
     0
102
RTVSPropertyOp9
 70
     0
102
RTVSPropertyOp10
 70
     0
102
RTVSPropertyOp11
 70
     0
102
RTVSPropertyOp12
 70
     0
102
RTVSPropertyOp13
 70
     0
102
RTVSPropertyOp14
 70
     2
102
RTVSPropertyOp15
 70
     0
102
RTVSPropertyOp16
 70
     0
102
RTVSPropertyOp17
 70
     0
102
RTVSPropertyOp18
 70
     0
102
RTVSPropertyOp19
 70
     0
102
RTVSPropertyOp20
 70
     0
102
RTVSPropertyOp21
 70
     0
102
RTVSPropertyOp22
 70
     0
102
RTVSPropertyOp23
 70
     0
102
RTVSPropertyOp24
 70
     0
102
RTVSPropertyOp25
 70
     0
102
RTVSPropertyOp26
 70
     0
102
RTVSPropertyOp27
 70
     0
102
RTVSPropertyOp28
 70
     1
102
RTVSPropertyOp29
 70
     1
102
RTVSPropertyOp30
 70
     1
102
RTVSPropertyOp31
 70
     1
102
RTVSPropertyOp32
 70
     1
102
RTVSPropertyOp33
 70
     1
102
RTVSPropertyOp34
 70
     1
102
RTVSPropertyOp35
 70
     1
102
RTVSPropertyOp36
 70
     1
102
RTVSPropertyOp37
 70
     0
102
RTVSPropertyOp38
 70
     0
102
RTVSPropertyOp39
 70
     0
102
RTVSPropertyOp40
 70
     0
102
RTVSPropertyOp41
 70
     0
102
RTVSPropertyOp42
 70
     0
102
RTVSPropertyOp43
 70
     0
102
RTVSPropertyOp44
 70
     0
102
RTVSPropertyOp45
 70
     1
102
RTVSPropertyOp46
 70
     0
102
RTVSPropertyOp47
 70
     0
102
RTVSPropertyOp48
 70
     0
102
RTVSPropertyOp49
 70
     1
102
RTVSPropertyOp50
 70
     0
102
RTVSPropertyOp51
 70
     0
102
RTVSPropertyOp52
 70
     0
102
RTVSPropertyOp53
 70
     0
102
RTVSPropertyOp54
 70
     0
102
RTVSPropertyOp55
 70
     1
102
RTVSPropertyOp56
 70
     0
102
RTVSPropertyOp57
 70
     0
102
RTVSPropertyOp58
 70
     0
102
RTVSPropertyOp59
 70
     0
102
RTVSPropertyOp60
 70
     0
102
RTVSPropertyOp61
 70
     0
102
RTVSPropertyOp62
 70
     0
  0
XRECORD
  5
815
102
{ACAD_REACTORS
330
814
102
}
330
814
100
AcDbXrecord
280
     1
102
RTVSPost2010Prop28
280
     0
102
RTVSPost2010PropOp28
 70
     1
102
RTVSPost2010Prop29
280
     1
102
RTVSPost2010PropOp29
 70
     1
102
RTVSPost2010Prop30
280
     1
102
RTVSPost2010PropOp30
 70
     1
102
RTVSPost2010Prop31
280
     0
102
RTVSPost2010PropOp31
 70
     1
102
RTVSPost2010Prop32
280
     0
102
RTVSPost2010PropOp32
 70
     1
102
RTVSPost2010Prop33
280
     0
102
RTVSPost2010PropOp33
 70
     1
102
RTVSPost2010Prop34
280
     0
102
RTVSPost2010PropOp34
 70
     1
102
RTVSPost2010Prop35
280
     0
102
RTVSPost2010PropOp35
 70
     1
102
RTVSPost2010Prop36
280
     0
102
RTVSPost2010PropOp36
 70
     1
102
RTVSPost2010Prop37
 90
       50
102
RTVSPost2010PropOp37
 70
     1
102
RTVSPost2010Prop38
140
0.0
102
RTVSPost2010PropOp38
 70
     1
102
RTVSPost2010Prop39
140
1.0
102
RTVSPost2010PropOp39
 70
     1
102
RTVSPost2010Prop40
 90
        0
102
RTVSPost2010PropOp40
 70
     1
102
RTVSPost2010Prop41ColorIndex
 90
       18
102
RTVSPost2010Prop41ColorRGB
 90
        0
102
RTVSPost2010PropOp41
 70
     1
102
RTVSPost2010Prop42
 90
       50
102
RTVSPost2010PropOp42
 70
     1
102
RTVSPost2010Prop43
 90
        3
102
RTVSPost2010PropOp43
 70
     1
102
RTVSPost2010Prop44ColorIndex
 90
        5
102
RTVSPost2010Prop44ColorRGB
 90
      255
102
RTVSPost2010PropOp44
 70
     1
102
RTVSPost2010Prop45
280
     0
102
RTVSPost2010PropOp45
 70
     1
102
RTVSPost2010Prop46
 90
       50
102
RTVSPost2010PropOp46
 70
     1
102
RTVSPost2010Prop47
 90
       50
102
RTVSPost2010PropOp47
 70
     1
102
RTVSPost2010Prop48
 90
       50
102
RTVSPost2010PropOp48
 70
     1
102
RTVSPost2010Prop49
280
     0
102
RTVSPost2010PropOp49
 70
     1
102
RTVSPost2010Prop50
 90
       50
102
RTVSPost2010PropOp50
 70
     1
102
RTVSPost2010Prop51ColorIndex
 90
      256
102
RTVSPost2010Prop51ColorRGB
 90
-16777216
102
RTVSPost2010PropOp51
 70
     0
102
RTVSPost2010Prop52
140
1.0
102
RTVSPost2010PropOp52
 70
     0
102
RTVSPost2010Prop53
 90
        2
102
RTVSPost2010PropOp53
 70
     1
102
RTVSPost2010Prop54
  1
strokes_ogs.tif
102
RTVSPost2010PropOp54
 70
     1
102
RTVSPost2010Prop55
280
     0
102
RTVSPost2010PropOp55
 70
     1
102
RTVSPost2010Prop56
140
1.0
102
RTVSPost2010PropOp56
 70
     1
102
RTVSPost2010Prop57
140
1.0
102
RTVSPost2010PropOp57
 70
     1
102
RTVSPropertyOp0
 70
     1
102
RTVSPropertyOp1
 70
     1
102
RTVSPropertyOp2
 70
     1
102
RTVSPropertyOp3
 70
     1
102
RTVSPropertyOp4
 70
     1
102
RTVSPropertyOp5
 70
     1
102
RTVSPropertyOp6
 70
     1
102
RTVSPropertyOp7
 70
     1
102
RTVSPropertyOp8
 70
     1
102
RTVSPropertyOp9
 70
     1
102
RTVSPropertyOp10
 70
     1
102
RTVSPropertyOp11
 70
     1
102
RTVSPropertyOp12
 70
     1
102
RTVSPropertyOp13
 70
     1
102
RTVSPropertyOp14
 70
     1
102
RTVSPropertyOp15
 70
     1
102
RTVSPropertyOp16
 70
     1
102
RTVSPropertyOp17
 70
     1
102
RTVSPropertyOp18
 70
     1
102
RTVSPropertyOp19
 70
     1
102
RTVSPropertyOp20
 70
     1
102
RTVSPropertyOp21
 70
     1
102
RTVSPropertyOp22
 70
     1
102
RTVSPropertyOp23
 70
     1
102
RTVSPropertyOp24
 70
     1
102
RTVSPropertyOp25
 70
     1
102
RTVSPropertyOp26
 70
     1
102
RTVSPropertyOp27
 70
     1
102
RTVSPropertyOp28
 70
     1
102
RTVSPropertyOp29
 70
     1
102
RTVSPropertyOp30
 70
     1
102
RTVSPropertyOp31
 70
     1
102
RTVSPropertyOp32
 70
     1
102
RTVSPropertyOp33
 70
     1
102
RTVSPropertyOp34
 70
     1
102
RTVSPropertyOp35
 70
     1
102
RTVSPropertyOp36
 70
     1
102
RTVSPropertyOp37
 70
     1
102
RTVSPropertyOp38
 70
     1
102
RTVSPropertyOp39
 70
     1
102
RTVSPropertyOp40
 70
     1
102
RTVSPropertyOp41
 70
     1
102
RTVSPropertyOp42
 70
     1
102
RTVSPropertyOp43
 70
     1
102
RTVSPropertyOp44
 70
     1
102
RTVSPropertyOp45
 70
     1
102
RTVSPropertyOp46
 70
     1
102
RTVSPropertyOp47
 70
     1
102
RTVSPropertyOp48
 70
     1
102
RTVSPropertyOp49
 70
     1
102
RTVSPropertyOp50
 70
     1
102
RTVSPropertyOp51
 70
     0
102
RTVSPropertyOp52
 70
     0
102
RTVSPropertyOp53
 70
     1
102
RTVSPropertyOp54
 70
     1
102
RTVSPropertyOp55
 70
     1
102
RTVSPropertyOp56
 70
     1
102
RTVSPropertyOp57
 70
     1
102
RTVSPropertyOp58
 70
     1
102
RTVSPropertyOp59
 70
     1
102
RTVSPropertyOp60
 70
     1
102
RTVSPropertyOp61
 70
     1
102
RTVSPropertyOp62
 70
     1
  0
XRECORD
  5
7F9
102
{ACAD_REACTORS
330
7F8
102
}
330
7F8
100
AcDbXrecord
280
     1
102
RTVSPost2010Prop28
280
     0
102
RTVSPost2010PropOp28
 70
     1
102
RTVSPost2010Prop29
280
     1
102
RTVSPost2010PropOp29
 70
     1
102
RTVSPost2010Prop30
280
     1
102
RTVSPost2010PropOp30
 70
     1
102
RTVSPost2010Prop31
280
     0
102
RTVSPost2010PropOp31
 70
     1
102
RTVSPost2010Prop32
280
     0
102
RTVSPost2010PropOp32
 70
     1
102
RTVSPost2010Prop33
280
     0
102
RTVSPost2010PropOp33
 70
     1
102
RTVSPost2010Prop34
280
     0
102
RTVSPost2010PropOp34
 70
     1
102
RTVSPost2010Prop35
280
     0
102
RTVSPost2010PropOp35
 70
     1
102
RTVSPost2010Prop36
280
     0
102
RTVSPost2010PropOp36
 70
     1
102
RTVSPost2010Prop37
 90
       50
102
RTVSPost2010PropOp37
 70
     1
102
RTVSPost2010Prop38
140
0.0
102
RTVSPost2010PropOp38
 70
     1
102
RTVSPost2010Prop39
140
1.0
102
RTVSPost2010PropOp39
 70
     1
102
RTVSPost2010Prop40
 90
        0
102
RTVSPost2010PropOp40
 70
     1
102
RTVSPost2010Prop41ColorIndex
 90
       18
102
RTVSPost2010Prop41ColorRGB
 90
        0
102
RTVSPost2010PropOp41
 70
     1
102
RTVSPost2010Prop42
 90
       50
102
RTVSPost2010PropOp42
 70
     1
102
RTVSPost2010Prop43
 90
        3
102
RTVSPost2010PropOp43
 70
     1
102
RTVSPost2010Prop44ColorIndex
 90
        5
102
RTVSPost2010Prop44ColorRGB
 90
      255
102
RTVSPost2010PropOp44
 70
     1
102
RTVSPost2010Prop45
280
     0
102
RTVSPost2010PropOp45
 70
     1
102
RTVSPost2010Prop46
 90
       50
102
RTVSPost2010PropOp46
 70
     1
102
RTVSPost2010Prop47
 90
       50
102
RTVSPost2010PropOp47
 70
     1
102
RTVSPost2010Prop48
 90
       50
102
RTVSPost2010PropOp48
 70
     1
102
RTVSPost2010Prop49
280
     0
102
RTVSPost2010PropOp49
 70
     1
102
RTVSPost2010Prop50
 90
       50
102
RTVSPost2010PropOp50
 70
     1
102
RTVSPost2010Prop51ColorIndex
 90
      256
102
RTVSPost2010Prop51ColorRGB
 90
-16777216
102
RTVSPost2010PropOp51
 70
     0
102
RTVSPost2010Prop52
140
1.0
102
RTVSPost2010PropOp52
 70
     0
102
RTVSPost2010Prop53
 90
        2
102
RTVSPost2010PropOp53
 70
     1
102
RTVSPost2010Prop54
  1
strokes_ogs.tif
102
RTVSPost2010PropOp54
 70
     1
102
RTVSPost2010Prop55
280
     0
102
RTVSPost2010PropOp55
 70
     1
102
RTVSPost2010Prop56
140
1.0
102
RTVSPost2010PropOp56
 70
     1
102
RTVSPost2010Prop57
140
1.0
102
RTVSPost2010PropOp57
 70
     1
102
RTVSPropertyOp0
 70
     1
102
RTVSPropertyOp1
 70
     1
102
RTVSPropertyOp2
 70
     1
102
RTVSPropertyOp3
 70
     1
102
RTVSPropertyOp4
 70
     1
102
RTVSPropertyOp5
 70
     1
102
RTVSPropertyOp6
 70
     1
102
RTVSPropertyOp7
 70
     1
102
RTVSPropertyOp8
 70
     1
102
RTVSPropertyOp9
 70
     1
102
RTVSPropertyOp10
 70
     1
102
RTVSPropertyOp11
 70
     1
102
RTVSPropertyOp12
 70
     1
102
RTVSPropertyOp13
 70
     1
102
RTVSPropertyOp14
 70
     1
102
RTVSPropertyOp15
 70
     1
102
RTVSPropertyOp16
 70
     1
102
RTVSPropertyOp17
 70
     1
102
RTVSPropertyOp18
 70
     1
102
RTVSPropertyOp19
 70
     1
102
RTVSPropertyOp20
 70
     1
102
RTVSPropertyOp21
 70
     1
102
RTVSPropertyOp22
 70
     1
102
RTVSPropertyOp23
 70
     1
102
RTVSPropertyOp24
 70
     1
102
RTVSPropertyOp25
 70
     1
102
RTVSPropertyOp26
 70
     1
102
RTVSPropertyOp27
 70
     1
102
RTVSPropertyOp28
 70
     1
102
RTVSPropertyOp29
 70
     1
102
RTVSPropertyOp30
 70
     1
102
RTVSPropertyOp31
 70
     1
102
RTVSPropertyOp32
 70
     1
102
RTVSPropertyOp33
 70
     1
102
RTVSPropertyOp34
 70
     1
102
RTVSPropertyOp35
 70
     1
102
RTVSPropertyOp36
 70
     1
102
RTVSPropertyOp37
 70
     1
102
RTVSPropertyOp38
 70
     1
102
RTVSPropertyOp39
 70
     1
102
RTVSPropertyOp40
 70
     1
102
RTVSPropertyOp41
 70
     1
102
RTVSPropertyOp42
 70
     1
102
RTVSPropertyOp43
 70
     1
102
RTVSPropertyOp44
 70
     1
102
RTVSPropertyOp45
 70
     1
102
RTVSPropertyOp46
 70
     1
102
RTVSPropertyOp47
 70
     1
102
RTVSPropertyOp48
 70
     1
102
RTVSPropertyOp49
 70
     1
102
RTVSPropertyOp50
 70
     1
102
RTVSPropertyOp51
 70
     0
102
RTVSPropertyOp52
 70
     0
102
RTVSPropertyOp53
 70
     1
102
RTVSPropertyOp54
 70
     1
102
RTVSPropertyOp55
 70
     1
102
RTVSPropertyOp56
 70
     1
102
RTVSPropertyOp57
 70
     1
102
RTVSPropertyOp58
 70
     1
102
RTVSPropertyOp59
 70
     1
102
RTVSPropertyOp60
 70
     1
102
RTVSPropertyOp61
 70
     1
102
RTVSPropertyOp62
 70
     1
  0
XRECORD
  5
7FB
102
{ACAD_REACTORS
330
7FA
102
}
330
7FA
100
AcDbXrecord
280
     1
102
RTVSPost2010Prop28
280
     0
102
RTVSPost2010PropOp28
 70
     1
102
RTVSPost2010Prop29
280
     1
102
RTVSPost2010PropOp29
 70
     1
102
RTVSPost2010Prop30
280
     1
102
RTVSPost2010PropOp30
 70
     1
102
RTVSPost2010Prop31
280
     0
102
RTVSPost2010PropOp31
 70
     1
102
RTVSPost2010Prop32
280
     0
102
RTVSPost2010PropOp32
 70
     1
102
RTVSPost2010Prop33
280
     0
102
RTVSPost2010PropOp33
 70
     1
102
RTVSPost2010Prop34
280
     0
102
RTVSPost2010PropOp34
 70
     1
102
RTVSPost2010Prop35
280
     0
102
RTVSPost2010PropOp35
 70
     1
102
RTVSPost2010Prop36
280
     0
102
RTVSPost2010PropOp36
 70
     1
102
RTVSPost2010Prop37
 90
       50
102
RTVSPost2010PropOp37
 70
     1
102
RTVSPost2010Prop38
140
0.0
102
RTVSPost2010PropOp38
 70
     1
102
RTVSPost2010Prop39
140
1.0
102
RTVSPost2010PropOp39
 70
     1
102
RTVSPost2010Prop40
 90
        0
102
RTVSPost2010PropOp40
 70
     1
102
RTVSPost2010Prop41ColorIndex
 90
       18
102
RTVSPost2010Prop41ColorRGB
 90
        0
102
RTVSPost2010PropOp41
 70
     1
102
RTVSPost2010Prop42
 90
       50
102
RTVSPost2010PropOp42
 70
     1
102
RTVSPost2010Prop43
 90
        3
102
RTVSPost2010PropOp43
 70
     1
102
RTVSPost2010Prop44ColorIndex
 90
        5
102
RTVSPost2010Prop44ColorRGB
 90
      255
102
RTVSPost2010PropOp44
 70
     1
102
RTVSPost2010Prop45
280
     0
102
RTVSPost2010PropOp45
 70
     1
102
RTVSPost2010Prop46
 90
       50
102
RTVSPost2010PropOp46
 70
     1
102
RTVSPost2010Prop47
 90
       50
102
RTVSPost2010PropOp47
 70
     1
102
RTVSPost2010Prop48
 90
       50
102
RTVSPost2010PropOp48
 70
     1
102
RTVSPost2010Prop49
280
     0
102
RTVSPost2010PropOp49
 70
     1
102
RTVSPost2010Prop50
 90
       50
102
RTVSPost2010PropOp50
 70
     1
102
RTVSPost2010Prop51ColorIndex
 90
      256
102
RTVSPost2010Prop51ColorRGB
 90
-16777216
102
RTVSPost2010PropOp51
 70
     0
102
RTVSPost2010Prop52
140
1.0
102
RTVSPost2010PropOp52
 70
     0
102
RTVSPost2010Prop53
 90
        2
102
RTVSPost2010PropOp53
 70
     1
102
RTVSPost2010Prop54
  1
strokes_ogs.tif
102
RTVSPost2010PropOp54
 70
     1
102
RTVSPost2010Prop55
280
     0
102
RTVSPost2010PropOp55
 70
     1
102
RTVSPost2010Prop56
140
1.0
102
RTVSPost2010PropOp56
 70
     1
102
RTVSPost2010Prop57
140
1.0
102
RTVSPost2010PropOp57
 70
     1
102
RTVSPropertyOp0
 70
     1
102
RTVSPropertyOp1
 70
     1
102
RTVSPropertyOp2
 70
     1
102
RTVSPropertyOp3
 70
     1
102
RTVSPropertyOp4
 70
     1
102
RTVSPropertyOp5
 70
     1
102
RTVSPropertyOp6
 70
     1
102
RTVSPropertyOp7
 70
     1
102
RTVSPropertyOp8
 70
     1
102
RTVSPropertyOp9
 70
     1
102
RTVSPropertyOp10
 70
     1
102
RTVSPropertyOp11
 70
     1
102
RTVSPropertyOp12
 70
     1
102
RTVSPropertyOp13
 70
     1
102
RTVSPropertyOp14
 70
     1
102
RTVSPropertyOp15
 70
     1
102
RTVSPropertyOp16
 70
     1
102
RTVSPropertyOp17
 70
     1
102
RTVSPropertyOp18
 70
     1
102
RTVSPropertyOp19
 70
     1
102
RTVSPropertyOp20
 70
     1
102
RTVSPropertyOp21
 70
     1
102
RTVSPropertyOp22
 70
     1
102
RTVSPropertyOp23
 70
     1
102
RTVSPropertyOp24
 70
     1
102
RTVSPropertyOp25
 70
     1
102
RTVSPropertyOp26
 70
     1
102
RTVSPropertyOp27
 70
     1
102
RTVSPropertyOp28
 70
     1
102
RTVSPropertyOp29
 70
     1
102
RTVSPropertyOp30
 70
     1
102
RTVSPropertyOp31
 70
     1
102
RTVSPropertyOp32
 70
     1
102
RTVSPropertyOp33
 70
     1
102
RTVSPropertyOp34
 70
     1
102
RTVSPropertyOp35
 70
     1
102
RTVSPropertyOp36
 70
     1
102
RTVSPropertyOp37
 70
     1
102
RTVSPropertyOp38
 70
     1
102
RTVSPropertyOp39
 70
     1
102
RTVSPropertyOp40
 70
     1
102
RTVSPropertyOp41
 70
     1
102
RTVSPropertyOp42
 70
     1
102
RTVSPropertyOp43
 70
     1
102
RTVSPropertyOp44
 70
     1
102
RTVSPropertyOp45
 70
     1
102
RTVSPropertyOp46
 70
     1
102
RTVSPropertyOp47
 70
     1
102
RTVSPropertyOp48
 70
     1
102
RTVSPropertyOp49
 70
     1
102
RTVSPropertyOp50
 70
     1
102
RTVSPropertyOp51
 70
     0
102
RTVSPropertyOp52
 70
     0
102
RTVSPropertyOp53
 70
     1
102
RTVSPropertyOp54
 70
     1
102
RTVSPropertyOp55
 70
     1
102
RTVSPropertyOp56
 70
     1
102
RTVSPropertyOp57
 70
     1
102
RTVSPropertyOp58
 70
     1
102
RTVSPropertyOp59
 70
     1
102
RTVSPropertyOp60
 70
     1
102
RTVSPropertyOp61
 70
     1
102
RTVSPropertyOp62
 70
     1
  0
XRECORD
  5
7FD
102
{ACAD_REACTORS
330
7FC
102
}
330
7FC
100
AcDbXrecord
280
     1
102
RTVSPost2010Prop28
280
     0
102
RTVSPost2010PropOp28
 70
     1
102
RTVSPost2010Prop29
280
     1
102
RTVSPost2010PropOp29
 70
     1
102
RTVSPost2010Prop30
280
     1
102
RTVSPost2010PropOp30
 70
     1
102
RTVSPost2010Prop31
280
     0
102
RTVSPost2010PropOp31
 70
     1
102
RTVSPost2010Prop32
280
     0
102
RTVSPost2010PropOp32
 70
     1
102
RTVSPost2010Prop33
280
     0
102
RTVSPost2010PropOp33
 70
     1
102
RTVSPost2010Prop34
280
     0
102
RTVSPost2010PropOp34
 70
     1
102
RTVSPost2010Prop35
280
     0
102
RTVSPost2010PropOp35
 70
     1
102
RTVSPost2010Prop36
280
     0
102
RTVSPost2010PropOp36
 70
     1
102
RTVSPost2010Prop37
 90
       50
102
RTVSPost2010PropOp37
 70
     1
102
RTVSPost2010Prop38
140
0.0
102
RTVSPost2010PropOp38
 70
     1
102
RTVSPost2010Prop39
140
1.0
102
RTVSPost2010PropOp39
 70
     1
102
RTVSPost2010Prop40
 90
        0
102
RTVSPost2010PropOp40
 70
     1
102
RTVSPost2010Prop41ColorIndex
 90
       18
102
RTVSPost2010Prop41ColorRGB
 90
        0
102
RTVSPost2010PropOp41
 70
     1
102
RTVSPost2010Prop42
 90
       50
102
RTVSPost2010PropOp42
 70
     1
102
RTVSPost2010Prop43
 90
        3
102
RTVSPost2010PropOp43
 70
     1
102
RTVSPost2010Prop44ColorIndex
 90
        5
102
RTVSPost2010Prop44ColorRGB
 90
      255
102
RTVSPost2010PropOp44
 70
     1
102
RTVSPost2010Prop45
280
     0
102
RTVSPost2010PropOp45
 70
     1
102
RTVSPost2010Prop46
 90
       50
102
RTVSPost2010PropOp46
 70
     1
102
RTVSPost2010Prop47
 90
       50
102
RTVSPost2010PropOp47
 70
     1
102
RTVSPost2010Prop48
 90
       50
102
RTVSPost2010PropOp48
 70
     1
102
RTVSPost2010Prop49
280
     0
102
RTVSPost2010PropOp49
 70
     1
102
RTVSPost2010Prop50
 90
       50
102
RTVSPost2010PropOp50
 70
     1
102
RTVSPost2010Prop51ColorIndex
 90
      256
102
RTVSPost2010Prop51ColorRGB
 90
-16777216
102
RTVSPost2010PropOp51
 70
     0
102
RTVSPost2010Prop52
140
1.0
102
RTVSPost2010PropOp52
 70
     0
102
RTVSPost2010Prop53
 90
        2
102
RTVSPost2010PropOp53
 70
     1
102
RTVSPost2010Prop54
  1
strokes_ogs.tif
102
RTVSPost2010PropOp54
 70
     1
102
RTVSPost2010Prop55
280
     0
102
RTVSPost2010PropOp55
 70
     1
102
RTVSPost2010Prop56
140
1.0
102
RTVSPost2010PropOp56
 70
     1
102
RTVSPost2010Prop57
140
1.0
102
RTVSPost2010PropOp57
 70
     1
102
RTVSPropertyOp0
 70
     1
102
RTVSPropertyOp1
 70
     1
102
RTVSPropertyOp2
 70
     1
102
RTVSPropertyOp3
 70
     1
102
RTVSPropertyOp4
 70
     1
102
RTVSPropertyOp5
 70
     1
102
RTVSPropertyOp6
 70
     1
102
RTVSPropertyOp7
 70
     1
102
RTVSPropertyOp8
 70
     1
102
RTVSPropertyOp9
 70
     1
102
RTVSPropertyOp10
 70
     1
102
RTVSPropertyOp11
 70
     1
102
RTVSPropertyOp12
 70
     1
102
RTVSPropertyOp13
 70
     1
102
RTVSPropertyOp14
 70
     1
102
RTVSPropertyOp15
 70
     1
102
RTVSPropertyOp16
 70
     1
102
RTVSPropertyOp17
 70
     1
102
RTVSPropertyOp18
 70
     1
102
RTVSPropertyOp19
 70
     1
102
RTVSPropertyOp20
 70
     1
102
RTVSPropertyOp21
 70
     1
102
RTVSPropertyOp22
 70
     1
102
RTVSPropertyOp23
 70
     1
102
RTVSPropertyOp24
 70
     1
102
RTVSPropertyOp25
 70
     1
102
RTVSPropertyOp26
 70
     1
102
RTVSPropertyOp27
 70
     1
102
RTVSPropertyOp28
 70
     1
102
RTVSPropertyOp29
 70
     1
102
RTVSPropertyOp30
 70
     1
102
RTVSPropertyOp31
 70
     1
102
RTVSPropertyOp32
 70
     1
102
RTVSPropertyOp33
 70
     1
102
RTVSPropertyOp34
 70
     1
102
RTVSPropertyOp35
 70
     1
102
RTVSPropertyOp36
 70
     1
102
RTVSPropertyOp37
 70
     1
102
RTVSPropertyOp38
 70
     1
102
RTVSPropertyOp39
 70
     1
102
RTVSPropertyOp40
 70
     1
102
RTVSPropertyOp41
 70
     1
102
RTVSPropertyOp42
 70
     1
102
RTVSPropertyOp43
 70
     1
102
RTVSPropertyOp44
 70
     1
102
RTVSPropertyOp45
 70
     1
102
RTVSPropertyOp46
 70
     1
102
RTVSPropertyOp47
 70
     1
102
RTVSPropertyOp48
 70
     1
102
RTVSPropertyOp49
 70
     1
102
RTVSPropertyOp50
 70
     1
102
RTVSPropertyOp51
 70
     0
102
RTVSPropertyOp52
 70
     0
102
RTVSPropertyOp53
 70
     1
102
RTVSPropertyOp54
 70
     1
102
RTVSPropertyOp55
 70
     1
102
RTVSPropertyOp56
 70
     1
102
RTVSPropertyOp57
 70
     1
102
RTVSPropertyOp58
 70
     1
102
RTVSPropertyOp59
 70
     1
102
RTVSPropertyOp60
 70
     1
102
RTVSPropertyOp61
 70
     1
102
RTVSPropertyOp62
 70
     1
  0
XRECORD
  5
7FF
102
{ACAD_REACTORS
330
7FE
102
}
330
7FE
100
AcDbXrecord
280
     1
102
RTVSPost2010Prop28
280
     0
102
RTVSPost2010PropOp28
 70
     1
102
RTVSPost2010Prop29
280
     1
102
RTVSPost2010PropOp29
 70
     1
102
RTVSPost2010Prop30
280
     1
102
RTVSPost2010PropOp30
 70
     1
102
RTVSPost2010Prop31
280
     0
102
RTVSPost2010PropOp31
 70
     1
102
RTVSPost2010Prop32
280
     0
102
RTVSPost2010PropOp32
 70
     1
102
RTVSPost2010Prop33
280
     0
102
RTVSPost2010PropOp33
 70
     1
102
RTVSPost2010Prop34
280
     0
102
RTVSPost2010PropOp34
 70
     1
102
RTVSPost2010Prop35
280
     0
102
RTVSPost2010PropOp35
 70
     1
102
RTVSPost2010Prop36
280
     0
102
RTVSPost2010PropOp36
 70
     1
102
RTVSPost2010Prop37
 90
       50
102
RTVSPost2010PropOp37
 70
     1
102
RTVSPost2010Prop38
140
0.0
102
RTVSPost2010PropOp38
 70
     1
102
RTVSPost2010Prop39
140
1.0
102
RTVSPost2010PropOp39
 70
     1
102
RTVSPost2010Prop40
 90
        0
102
RTVSPost2010PropOp40
 70
     1
102
RTVSPost2010Prop41ColorIndex
 90
       18
102
RTVSPost2010Prop41ColorRGB
 90
        0
102
RTVSPost2010PropOp41
 70
     1
102
RTVSPost2010Prop42
 90
       50
102
RTVSPost2010PropOp42
 70
     1
102
RTVSPost2010Prop43
 90
        3
102
RTVSPost2010PropOp43
 70
     1
102
RTVSPost2010Prop44ColorIndex
 90
        5
102
RTVSPost2010Prop44ColorRGB
 90
      255
102
RTVSPost2010PropOp44
 70
     1
102
RTVSPost2010Prop45
280
     0
102
RTVSPost2010PropOp45
 70
     1
102
RTVSPost2010Prop46
 90
       50
102
RTVSPost2010PropOp46
 70
     1
102
RTVSPost2010Prop47
 90
       50
102
RTVSPost2010PropOp47
 70
     1
102
RTVSPost2010Prop48
 90
       50
102
RTVSPost2010PropOp48
 70
     1
102
RTVSPost2010Prop49
280
     0
102
RTVSPost2010PropOp49
 70
     1
102
RTVSPost2010Prop50
 90
       50
102
RTVSPost2010PropOp50
 70
     1
102
RTVSPost2010Prop51ColorIndex
 90
      256
102
RTVSPost2010Prop51ColorRGB
 90
-16777216
102
RTVSPost2010PropOp51
 70
     0
102
RTVSPost2010Prop52
140
1.0
102
RTVSPost2010PropOp52
 70
     0
102
RTVSPost2010Prop53
 90
        2
102
RTVSPost2010PropOp53
 70
     1
102
RTVSPost2010Prop54
  1
strokes_ogs.tif
102
RTVSPost2010PropOp54
 70
     1
102
RTVSPost2010Prop55
280
     0
102
RTVSPost2010PropOp55
 70
     1
102
RTVSPost2010Prop56
140
1.0
102
RTVSPost2010PropOp56
 70
     1
102
RTVSPost2010Prop57
140
1.0
102
RTVSPost2010PropOp57
 70
     1
102
RTVSPropertyOp0
 70
     1
102
RTVSPropertyOp1
 70
     1
102
RTVSPropertyOp2
 70
     1
102
RTVSPropertyOp3
 70
     1
102
RTVSPropertyOp4
 70
     1
102
RTVSPropertyOp5
 70
     1
102
RTVSPropertyOp6
 70
     1
102
RTVSPropertyOp7
 70
     1
102
RTVSPropertyOp8
 70
     1
102
RTVSPropertyOp9
 70
     1
102
RTVSPropertyOp10
 70
     1
102
RTVSPropertyOp11
 70
     1
102
RTVSPropertyOp12
 70
     1
102
RTVSPropertyOp13
 70
     1
102
RTVSPropertyOp14
 70
     1
102
RTVSPropertyOp15
 70
     1
102
RTVSPropertyOp16
 70
     1
102
RTVSPropertyOp17
 70
     1
102
RTVSPropertyOp18
 70
     1
102
RTVSPropertyOp19
 70
     1
102
RTVSPropertyOp20
 70
     1
102
RTVSPropertyOp21
 70
     1
102
RTVSPropertyOp22
 70
     1
102
RTVSPropertyOp23
 70
     1
102
RTVSPropertyOp24
 70
     1
102
RTVSPropertyOp25
 70
     1
102
RTVSPropertyOp26
 70
     1
102
RTVSPropertyOp27
 70
     1
102
RTVSPropertyOp28
 70
     1
102
RTVSPropertyOp29
 70
     1
102
RTVSPropertyOp30
 70
     1
102
RTVSPropertyOp31
 70
     1
102
RTVSPropertyOp32
 70
     1
102
RTVSPropertyOp33
 70
     1
102
RTVSPropertyOp34
 70
     1
102
RTVSPropertyOp35
 70
     1
102
RTVSPropertyOp36
 70
     1
102
RTVSPropertyOp37
 70
     1
102
RTVSPropertyOp38
 70
     1
102
RTVSPropertyOp39
 70
     1
102
RTVSPropertyOp40
 70
     1
102
RTVSPropertyOp41
 70
     1
102
RTVSPropertyOp42
 70
     1
102
RTVSPropertyOp43
 70
     1
102
RTVSPropertyOp44
 70
     1
102
RTVSPropertyOp45
 70
     1
102
RTVSPropertyOp46
 70
     1
102
RTVSPropertyOp47
 70
     1
102
RTVSPropertyOp48
 70
     1
102
RTVSPropertyOp49
 70
     1
102
RTVSPropertyOp50
 70
     1
102
RTVSPropertyOp51
 70
     0
102
RTVSPropertyOp52
 70
     0
102
RTVSPropertyOp53
 70
     1
102
RTVSPropertyOp54
 70
     1
102
RTVSPropertyOp55
 70
     1
102
RTVSPropertyOp56
 70
     1
102
RTVSPropertyOp57
 70
     1
102
RTVSPropertyOp58
 70
     1
102
RTVSPropertyOp59
 70
     1
102
RTVSPropertyOp60
 70
     1
102
RTVSPropertyOp61
 70
     1
102
RTVSPropertyOp62
 70
     1
  0
XRECORD
  5
807
102
{ACAD_REACTORS
330
806
102
}
330
806
100
AcDbXrecord
280
     1
102
RTVSPost2010Prop28
280
     0
102
RTVSPost2010PropOp28
 70
     1
102
RTVSPost2010Prop29
280
     1
102
RTVSPost2010PropOp29
 70
     1
102
RTVSPost2010Prop30
280
     1
102
RTVSPost2010PropOp30
 70
     1
102
RTVSPost2010Prop31
280
     0
102
RTVSPost2010PropOp31
 70
     1
102
RTVSPost2010Prop32
280
     0
102
RTVSPost2010PropOp32
 70
     1
102
RTVSPost2010Prop33
280
     0
102
RTVSPost2010PropOp33
 70
     1
102
RTVSPost2010Prop34
280
     0
102
RTVSPost2010PropOp34
 70
     1
102
RTVSPost2010Prop35
280
     0
102
RTVSPost2010PropOp35
 70
     1
102
RTVSPost2010Prop36
280
     0
102
RTVSPost2010PropOp36
 70
     1
102
RTVSPost2010Prop37
 90
       50
102
RTVSPost2010PropOp37
 70
     1
102
RTVSPost2010Prop38
140
0.0
102
RTVSPost2010PropOp38
 70
     1
102
RTVSPost2010Prop39
140
1.0
102
RTVSPost2010PropOp39
 70
     1
102
RTVSPost2010Prop40
 90
        0
102
RTVSPost2010PropOp40
 70
     1
102
RTVSPost2010Prop41ColorIndex
 90
       18
102
RTVSPost2010Prop41ColorRGB
 90
        0
102
RTVSPost2010PropOp41
 70
     1
102
RTVSPost2010Prop42
 90
       50
102
RTVSPost2010PropOp42
 70
     1
102
RTVSPost2010Prop43
 90
        3
102
RTVSPost2010PropOp43
 70
     1
102
RTVSPost2010Prop44ColorIndex
 90
        5
102
RTVSPost2010Prop44ColorRGB
 90
      255
102
RTVSPost2010PropOp44
 70
     1
102
RTVSPost2010Prop45
280
     0
102
RTVSPost2010PropOp45
 70
     1
102
RTVSPost2010Prop46
 90
       50
102
RTVSPost2010PropOp46
 70
     1
102
RTVSPost2010Prop47
 90
       50
102
RTVSPost2010PropOp47
 70
     1
102
RTVSPost2010Prop48
 90
       50
102
RTVSPost2010PropOp48
 70
     1
102
RTVSPost2010Prop49
280
     0
102
RTVSPost2010PropOp49
 70
     1
102
RTVSPost2010Prop50
 90
       50
102
RTVSPost2010PropOp50
 70
     1
102
RTVSPost2010Prop51ColorIndex
 90
      256
102
RTVSPost2010Prop51ColorRGB
 90
-16777216
102
RTVSPost2010PropOp51
 70
     0
102
RTVSPost2010Prop52
140
1.0
102
RTVSPost2010PropOp52
 70
     0
102
RTVSPost2010Prop53
 90
        2
102
RTVSPost2010PropOp53
 70
     1
102
RTVSPost2010Prop54
  1
strokes_ogs.tif
102
RTVSPost2010PropOp54
 70
     1
102
RTVSPost2010Prop55
280
     0
102
RTVSPost2010PropOp55
 70
     1
102
RTVSPost2010Prop56
140
1.0
102
RTVSPost2010PropOp56
 70
     1
102
RTVSPost2010Prop57
140
1.0
102
RTVSPost2010PropOp57
 70
     1
102
RTVSPropertyOp0
 70
     1
102
RTVSPropertyOp1
 70
     1
102
RTVSPropertyOp2
 70
     1
102
RTVSPropertyOp3
 70
     1
102
RTVSPropertyOp4
 70
     1
102
RTVSPropertyOp5
 70
     1
102
RTVSPropertyOp6
 70
     1
102
RTVSPropertyOp7
 70
     1
102
RTVSPropertyOp8
 70
     1
102
RTVSPropertyOp9
 70
     1
102
RTVSPropertyOp10
 70
     1
102
RTVSPropertyOp11
 70
     1
102
RTVSPropertyOp12
 70
     1
102
RTVSPropertyOp13
 70
     1
102
RTVSPropertyOp14
 70
     1
102
RTVSPropertyOp15
 70
     1
102
RTVSPropertyOp16
 70
     1
102
RTVSPropertyOp17
 70
     1
102
RTVSPropertyOp18
 70
     1
102
RTVSPropertyOp19
 70
     1
102
RTVSPropertyOp20
 70
     1
102
RTVSPropertyOp21
 70
     1
102
RTVSPropertyOp22
 70
     1
102
RTVSPropertyOp23
 70
     1
102
RTVSPropertyOp24
 70
     1
102
RTVSPropertyOp25
 70
     1
102
RTVSPropertyOp26
 70
     1
102
RTVSPropertyOp27
 70
     1
102
RTVSPropertyOp28
 70
     1
102
RTVSPropertyOp29
 70
     1
102
RTVSPropertyOp30
 70
     1
102
RTVSPropertyOp31
 70
     1
102
RTVSPropertyOp32
 70
     1
102
RTVSPropertyOp33
 70
     1
102
RTVSPropertyOp34
 70
     1
102
RTVSPropertyOp35
 70
     1
102
RTVSPropertyOp36
 70
     1
102
RTVSPropertyOp37
 70
     1
102
RTVSPropertyOp38
 70
     1
102
RTVSPropertyOp39
 70
     1
102
RTVSPropertyOp40
 70
     1
102
RTVSPropertyOp41
 70
     1
102
RTVSPropertyOp42
 70
     1
102
RTVSPropertyOp43
 70
     1
102
RTVSPropertyOp44
 70
     1
102
RTVSPropertyOp45
 70
     1
102
RTVSPropertyOp46
 70
     1
102
RTVSPropertyOp47
 70
     1
102
RTVSPropertyOp48
 70
     1
102
RTVSPropertyOp49
 70
     1
102
RTVSPropertyOp50
 70
     1
102
RTVSPropertyOp51
 70
     0
102
RTVSPropertyOp52
 70
     0
102
RTVSPropertyOp53
 70
     1
102
RTVSPropertyOp54
 70
     1
102
RTVSPropertyOp55
 70
     1
102
RTVSPropertyOp56
 70
     1
102
RTVSPropertyOp57
 70
     1
102
RTVSPropertyOp58
 70
     1
102
RTVSPropertyOp59
 70
     1
102
RTVSPropertyOp60
 70
     1
102
RTVSPropertyOp61
 70
     1
102
RTVSPropertyOp62
 70
     1
  0
XRECORD
  5
823
102
{ACAD_REACTORS
330
822
102
}
330
822
100
AcDbXrecord
280
     1
102
RTVSPost2010Prop28
280
     0
102
RTVSPost2010PropOp28
 70
     1
102
RTVSPost2010Prop29
280
     1
102
RTVSPost2010PropOp29
 70
     1
102
RTVSPost2010Prop30
280
     1
102
RTVSPost2010PropOp30
 70
     1
102
RTVSPost2010Prop31
280
     0
102
RTVSPost2010PropOp31
 70
     1
102
RTVSPost2010Prop32
280
     0
102
RTVSPost2010PropOp32
 70
     1
102
RTVSPost2010Prop33
280
     0
102
RTVSPost2010PropOp33
 70
     1
102
RTVSPost2010Prop34
280
     0
102
RTVSPost2010PropOp34
 70
     1
102
RTVSPost2010Prop35
280
     0
102
RTVSPost2010PropOp35
 70
     1
102
RTVSPost2010Prop36
280
     0
102
RTVSPost2010PropOp36
 70
     1
102
RTVSPost2010Prop37
 90
       50
102
RTVSPost2010PropOp37
 70
     0
102
RTVSPost2010Prop38
140
0.0
102
RTVSPost2010PropOp38
 70
     0
102
RTVSPost2010Prop39
140
1.0
102
RTVSPost2010PropOp39
 70
     0
102
RTVSPost2010Prop40
 90
        0
102
RTVSPost2010PropOp40
 70
     0
102
RTVSPost2010Prop41ColorIndex
 90
       18
102
RTVSPost2010Prop41ColorRGB
 90
        0
102
RTVSPost2010PropOp41
 70
     0
102
RTVSPost2010Prop42
 90
       50
102
RTVSPost2010PropOp42
 70
     0
102
RTVSPost2010Prop43
 90
        3
102
RTVSPost2010PropOp43
 70
     0
102
RTVSPost2010Prop44ColorIndex
 90
        5
102
RTVSPost2010Prop44ColorRGB
 90
      255
102
RTVSPost2010PropOp44
 70
     0
102
RTVSPost2010Prop45
280
     0
102
RTVSPost2010PropOp45
 70
     1
102
RTVSPost2010Prop46
 90
       50
102
RTVSPost2010PropOp46
 70
     0
102
RTVSPost2010Prop47
 90
       50
102
RTVSPost2010PropOp47
 70
     0
102
RTVSPost2010Prop48
 90
       50
102
RTVSPost2010PropOp48
 70
     0
102
RTVSPost2010Prop49
280
     0
102
RTVSPost2010PropOp49
 70
     1
102
RTVSPost2010Prop50
 90
       50
102
RTVSPost2010PropOp50
 70
     0
102
RTVSPost2010Prop51ColorIndex
 90
      256
102
RTVSPost2010Prop51ColorRGB
 90
-16777216
102
RTVSPost2010PropOp51
 70
     0
102
RTVSPost2010Prop52
140
1.0
102
RTVSPost2010PropOp52
 70
     0
102
RTVSPost2010Prop53
 90
        2
102
RTVSPost2010PropOp53
 70
     0
102
RTVSPost2010Prop54
  1
strokes_ogs.tif
102
RTVSPost2010PropOp54
 70
     0
102
RTVSPost2010Prop55
280
     0
102
RTVSPost2010PropOp55
 70
     1
102
RTVSPost2010Prop56
140
1.0
102
RTVSPost2010PropOp56
 70
     0
102
RTVSPost2010Prop57
140
1.0
102
RTVSPost2010PropOp57
 70
     0
102
RTVSPropertyOp0
 70
     0
102
RTVSPropertyOp1
 70
     0
102
RTVSPropertyOp2
 70
     0
102
RTVSPropertyOp3
 70
     0
102
RTVSPropertyOp4
 70
     0
102
RTVSPropertyOp5
 70
     0
102
RTVSPropertyOp6
 70
     0
102
RTVSPropertyOp7
 70
     0
102
RTVSPropertyOp8
 70
     0
102
RTVSPropertyOp9
 70
     0
102
RTVSPropertyOp10
 70
     0
102
RTVSPropertyOp11
 70
     0
102
RTVSPropertyOp12
 70
     0
102
RTVSPropertyOp13
 70
     0
102
RTVSPropertyOp14
 70
     2
102
RTVSPropertyOp15
 70
     0
102
RTVSPropertyOp16
 70
     0
102
RTVSPropertyOp17
 70
     0
102
RTVSPropertyOp18
 70
     0
102
RTVSPropertyOp19
 70
     0
102
RTVSPropertyOp20
 70
     0
102
RTVSPropertyOp21
 70
     0
102
RTVSPropertyOp22
 70
     0
102
RTVSPropertyOp23
 70
     0
102
RTVSPropertyOp24
 70
     0
102
RTVSPropertyOp25
 70
     0
102
RTVSPropertyOp26
 70
     0
102
RTVSPropertyOp27
 70
     0
102
RTVSPropertyOp28
 70
     1
102
RTVSPropertyOp29
 70
     1
102
RTVSPropertyOp30
 70
     1
102
RTVSPropertyOp31
 70
     1
102
RTVSPropertyOp32
 70
     1
102
RTVSPropertyOp33
 70
     1
102
RTVSPropertyOp34
 70
     1
102
RTVSPropertyOp35
 70
     1
102
RTVSPropertyOp36
 70
     1
102
RTVSPropertyOp37
 70
     0
102
RTVSPropertyOp38
 70
     0
102
RTVSPropertyOp39
 70
     0
102
RTVSPropertyOp40
 70
     0
102
RTVSPropertyOp41
 70
     0
102
RTVSPropertyOp42
 70
     0
102
RTVSPropertyOp43
 70
     0
102
RTVSPropertyOp44
 70
     0
102
RTVSPropertyOp45
 70
     1
102
RTVSPropertyOp46
 70
     0
102
RTVSPropertyOp47
 70
     0
102
RTVSPropertyOp48
 70
     0
102
RTVSPropertyOp49
 70
     1
102
RTVSPropertyOp50
 70
     0
102
RTVSPropertyOp51
 70
     0
102
RTVSPropertyOp52
 70
     0
102
RTVSPropertyOp53
 70
     0
102
RTVSPropertyOp54
 70
     0
102
RTVSPropertyOp55
 70
     1
102
RTVSPropertyOp56
 70
     0
102
RTVSPropertyOp57
 70
     0
102
RTVSPropertyOp58
 70
     0
102
RTVSPropertyOp59
 70
     0
102
RTVSPropertyOp60
 70
     0
102
RTVSPropertyOp61
 70
     0
102
RTVSPropertyOp62
 70
     0
  0
XRECORD
  5
813
102
{ACAD_REACTORS
330
812
102
}
330
812
100
AcDbXrecord
280
     1
102
RTVSPost2010Prop28
280
     0
102
RTVSPost2010PropOp28
 70
     1
102
RTVSPost2010Prop29
280
     1
102
RTVSPost2010PropOp29
 70
     1
102
RTVSPost2010Prop30
280
     1
102
RTVSPost2010PropOp30
 70
     1
102
RTVSPost2010Prop31
280
     0
102
RTVSPost2010PropOp31
 70
     1
102
RTVSPost2010Prop32
280
     0
102
RTVSPost2010PropOp32
 70
     1
102
RTVSPost2010Prop33
280
     0
102
RTVSPost2010PropOp33
 70
     1
102
RTVSPost2010Prop34
280
     0
102
RTVSPost2010PropOp34
 70
     1
102
RTVSPost2010Prop35
280
     0
102
RTVSPost2010PropOp35
 70
     1
102
RTVSPost2010Prop36
280
     0
102
RTVSPost2010PropOp36
 70
     1
102
RTVSPost2010Prop37
 90
       50
102
RTVSPost2010PropOp37
 70
     1
102
RTVSPost2010Prop38
140
0.0
102
RTVSPost2010PropOp38
 70
     1
102
RTVSPost2010Prop39
140
1.0
102
RTVSPost2010PropOp39
 70
     1
102
RTVSPost2010Prop40
 90
        0
102
RTVSPost2010PropOp40
 70
     1
102
RTVSPost2010Prop41ColorIndex
 90
       18
102
RTVSPost2010Prop41ColorRGB
 90
        0
102
RTVSPost2010PropOp41
 70
     1
102
RTVSPost2010Prop42
 90
       50
102
RTVSPost2010PropOp42
 70
     1
102
RTVSPost2010Prop43
 90
        3
102
RTVSPost2010PropOp43
 70
     1
102
RTVSPost2010Prop44ColorIndex
 90
        5
102
RTVSPost2010Prop44ColorRGB
 90
      255
102
RTVSPost2010PropOp44
 70
     1
102
RTVSPost2010Prop45
280
     0
102
RTVSPost2010PropOp45
 70
     1
102
RTVSPost2010Prop46
 90
       50
102
RTVSPost2010PropOp46
 70
     1
102
RTVSPost2010Prop47
 90
       50
102
RTVSPost2010PropOp47
 70
     1
102
RTVSPost2010Prop48
 90
       50
102
RTVSPost2010PropOp48
 70
     1
102
RTVSPost2010Prop49
280
     0
102
RTVSPost2010PropOp49
 70
     1
102
RTVSPost2010Prop50
 90
       50
102
RTVSPost2010PropOp50
 70
     1
102
RTVSPost2010Prop51ColorIndex
 90
      256
102
RTVSPost2010Prop51ColorRGB
 90
-16777216
102
RTVSPost2010PropOp51
 70
     0
102
RTVSPost2010Prop52
140
1.0
102
RTVSPost2010PropOp52
 70
     0
102
RTVSPost2010Prop53
 90
        2
102
RTVSPost2010PropOp53
 70
     1
102
RTVSPost2010Prop54
  1
strokes_ogs.tif
102
RTVSPost2010PropOp54
 70
     1
102
RTVSPost2010Prop55
280
     0
102
RTVSPost2010PropOp55
 70
     1
102
RTVSPost2010Prop56
140
1.0
102
RTVSPost2010PropOp56
 70
     1
102
RTVSPost2010Prop57
140
1.0
102
RTVSPost2010PropOp57
 70
     1
102
RTVSPropertyOp0
 70
     1
102
RTVSPropertyOp1
 70
     1
102
RTVSPropertyOp2
 70
     1
102
RTVSPropertyOp3
 70
     1
102
RTVSPropertyOp4
 70
     1
102
RTVSPropertyOp5
 70
     1
102
RTVSPropertyOp6
 70
     1
102
RTVSPropertyOp7
 70
     1
102
RTVSPropertyOp8
 70
     1
102
RTVSPropertyOp9
 70
     1
102
RTVSPropertyOp10
 70
     1
102
RTVSPropertyOp11
 70
     1
102
RTVSPropertyOp12
 70
     1
102
RTVSPropertyOp13
 70
     1
102
RTVSPropertyOp14
 70
     1
102
RTVSPropertyOp15
 70
     1
102
RTVSPropertyOp16
 70
     1
102
RTVSPropertyOp17
 70
     1
102
RTVSPropertyOp18
 70
     1
102
RTVSPropertyOp19
 70
     1
102
RTVSPropertyOp20
 70
     1
102
RTVSPropertyOp21
 70
     1
102
RTVSPropertyOp22
 70
     1
102
RTVSPropertyOp23
 70
     1
102
RTVSPropertyOp24
 70
     1
102
RTVSPropertyOp25
 70
     1
102
RTVSPropertyOp26
 70
     1
102
RTVSPropertyOp27
 70
     1
102
RTVSPropertyOp28
 70
     1
102
RTVSPropertyOp29
 70
     1
102
RTVSPropertyOp30
 70
     1
102
RTVSPropertyOp31
 70
     1
102
RTVSPropertyOp32
 70
     1
102
RTVSPropertyOp33
 70
     1
102
RTVSPropertyOp34
 70
     1
102
RTVSPropertyOp35
 70
     1
102
RTVSPropertyOp36
 70
     1
102
RTVSPropertyOp37
 70
     1
102
RTVSPropertyOp38
 70
     1
102
RTVSPropertyOp39
 70
     1
102
RTVSPropertyOp40
 70
     1
102
RTVSPropertyOp41
 70
     1
102
RTVSPropertyOp42
 70
     1
102
RTVSPropertyOp43
 70
     1
102
RTVSPropertyOp44
 70
     1
102
RTVSPropertyOp45
 70
     1
102
RTVSPropertyOp46
 70
     1
102
RTVSPropertyOp47
 70
     1
102
RTVSPropertyOp48
 70
     1
102
RTVSPropertyOp49
 70
     1
102
RTVSPropertyOp50
 70
     1
102
RTVSPropertyOp51
 70
     0
102
RTVSPropertyOp52
 70
     0
102
RTVSPropertyOp53
 70
     1
102
RTVSPropertyOp54
 70
     1
102
RTVSPropertyOp55
 70
     1
102
RTVSPropertyOp56
 70
     1
102
RTVSPropertyOp57
 70
     1
102
RTVSPropertyOp58
 70
     1
102
RTVSPropertyOp59
 70
     1
102
RTVSPropertyOp60
 70
     1
102
RTVSPropertyOp61
 70
     1
102
RTVSPropertyOp62
 70
     1
  0
XRECORD
  5
825
102
{ACAD_REACTORS
330
824
102
}
330
824
100
AcDbXrecord
280
     1
102
RTVSPost2010Prop28
280
     0
102
RTVSPost2010PropOp28
 70
     1
102
RTVSPost2010Prop29
280
     1
102
RTVSPost2010PropOp29
 70
     1
102
RTVSPost2010Prop30
280
     1
102
RTVSPost2010PropOp30
 70
     1
102
RTVSPost2010Prop31
280
     0
102
RTVSPost2010PropOp31
 70
     1
102
RTVSPost2010Prop32
280
     0
102
RTVSPost2010PropOp32
 70
     1
102
RTVSPost2010Prop33
280
     0
102
RTVSPost2010PropOp33
 70
     1
102
RTVSPost2010Prop34
280
     0
102
RTVSPost2010PropOp34
 70
     1
102
RTVSPost2010Prop35
280
     0
102
RTVSPost2010PropOp35
 70
     1
102
RTVSPost2010Prop36
280
     0
102
RTVSPost2010PropOp36
 70
     1
102
RTVSPost2010Prop37
 90
       50
102
RTVSPost2010PropOp37
 70
     0
102
RTVSPost2010Prop38
140
0.0
102
RTVSPost2010PropOp38
 70
     0
102
RTVSPost2010Prop39
140
1.0
102
RTVSPost2010PropOp39
 70
     0
102
RTVSPost2010Prop40
 90
        0
102
RTVSPost2010PropOp40
 70
     0
102
RTVSPost2010Prop41ColorIndex
 90
       18
102
RTVSPost2010Prop41ColorRGB
 90
        0
102
RTVSPost2010PropOp41
 70
     0
102
RTVSPost2010Prop42
 90
       50
102
RTVSPost2010PropOp42
 70
     0
102
RTVSPost2010Prop43
 90
        3
102
RTVSPost2010PropOp43
 70
     0
102
RTVSPost2010Prop44ColorIndex
 90
        5
102
RTVSPost2010Prop44ColorRGB
 90
      255
102
RTVSPost2010PropOp44
 70
     0
102
RTVSPost2010Prop45
280
     0
102
RTVSPost2010PropOp45
 70
     1
102
RTVSPost2010Prop46
 90
       50
102
RTVSPost2010PropOp46
 70
     0
102
RTVSPost2010Prop47
 90
       50
102
RTVSPost2010PropOp47
 70
     0
102
RTVSPost2010Prop48
 90
       50
102
RTVSPost2010PropOp48
 70
     0
102
RTVSPost2010Prop49
280
     0
102
RTVSPost2010PropOp49
 70
     1
102
RTVSPost2010Prop50
 90
       50
102
RTVSPost2010PropOp50
 70
     0
102
RTVSPost2010Prop51ColorIndex
 90
      256
102
RTVSPost2010Prop51ColorRGB
 90
-16777216
102
RTVSPost2010PropOp51
 70
     0
102
RTVSPost2010Prop52
140
1.0
102
RTVSPost2010PropOp52
 70
     0
102
RTVSPost2010Prop53
 90
        2
102
RTVSPost2010PropOp53
 70
     0
102
RTVSPost2010Prop54
  1
strokes_ogs.tif
102
RTVSPost2010PropOp54
 70
     0
102
RTVSPost2010Prop55
280
     0
102
RTVSPost2010PropOp55
 70
     1
102
RTVSPost2010Prop56
140
1.0
102
RTVSPost2010PropOp56
 70
     0
102
RTVSPost2010Prop57
140
1.0
102
RTVSPost2010PropOp57
 70
     0
102
RTVSPropertyOp0
 70
     0
102
RTVSPropertyOp1
 70
     0
102
RTVSPropertyOp2
 70
     0
102
RTVSPropertyOp3
 70
     0
102
RTVSPropertyOp4
 70
     0
102
RTVSPropertyOp5
 70
     0
102
RTVSPropertyOp6
 70
     0
102
RTVSPropertyOp7
 70
     0
102
RTVSPropertyOp8
 70
     0
102
RTVSPropertyOp9
 70
     0
102
RTVSPropertyOp10
 70
     0
102
RTVSPropertyOp11
 70
     0
102
RTVSPropertyOp12
 70
     0
102
RTVSPropertyOp13
 70
     0
102
RTVSPropertyOp14
 70
     2
102
RTVSPropertyOp15
 70
     0
102
RTVSPropertyOp16
 70
     0
102
RTVSPropertyOp17
 70
     0
102
RTVSPropertyOp18
 70
     0
102
RTVSPropertyOp19
 70
     0
102
RTVSPropertyOp20
 70
     0
102
RTVSPropertyOp21
 70
     0
102
RTVSPropertyOp22
 70
     0
102
RTVSPropertyOp23
 70
     0
102
RTVSPropertyOp24
 70
     0
102
RTVSPropertyOp25
 70
     0
102
RTVSPropertyOp26
 70
     0
102
RTVSPropertyOp27
 70
     0
102
RTVSPropertyOp28
 70
     1
102
RTVSPropertyOp29
 70
     1
102
RTVSPropertyOp30
 70
     1
102
RTVSPropertyOp31
 70
     1
102
RTVSPropertyOp32
 70
     1
102
RTVSPropertyOp33
 70
     1
102
RTVSPropertyOp34
 70
     1
102
RTVSPropertyOp35
 70
     1
102
RTVSPropertyOp36
 70
     1
102
RTVSPropertyOp37
 70
     0
102
RTVSPropertyOp38
 70
     0
102
RTVSPropertyOp39
 70
     0
102
RTVSPropertyOp40
 70
     0
102
RTVSPropertyOp41
 70
     0
102
RTVSPropertyOp42
 70
     0
102
RTVSPropertyOp43
 70
     0
102
RTVSPropertyOp44
 70
     0
102
RTVSPropertyOp45
 70
     1
102
RTVSPropertyOp46
 70
     0
102
RTVSPropertyOp47
 70
     0
102
RTVSPropertyOp48
 70
     0
102
RTVSPropertyOp49
 70
     1
102
RTVSPropertyOp50
 70
     0
102
RTVSPropertyOp51
 70
     0
102
RTVSPropertyOp52
 70
     0
102
RTVSPropertyOp53
 70
     0
102
RTVSPropertyOp54
 70
     0
102
RTVSPropertyOp55
 70
     1
102
RTVSPropertyOp56
 70
     0
102
RTVSPropertyOp57
 70
     0
102
RTVSPropertyOp58
 70
     0
102
RTVSPropertyOp59
 70
     0
102
RTVSPropertyOp60
 70
     0
102
RTVSPropertyOp61
 70
     0
102
RTVSPropertyOp62
 70
     0
  0
XRECORD
  5
80B
102
{ACAD_REACTORS
330
80A
102
}
330
80A
100
AcDbXrecord
280
     1
102
RTVSPost2010Prop28
280
     0
102
RTVSPost2010PropOp28
 70
     1
102
RTVSPost2010Prop29
280
     1
102
RTVSPost2010PropOp29
 70
     1
102
RTVSPost2010Prop30
280
     1
102
RTVSPost2010PropOp30
 70
     1
102
RTVSPost2010Prop31
280
     0
102
RTVSPost2010PropOp31
 70
     1
102
RTVSPost2010Prop32
280
     0
102
RTVSPost2010PropOp32
 70
     1
102
RTVSPost2010Prop33
280
     0
102
RTVSPost2010PropOp33
 70
     1
102
RTVSPost2010Prop34
280
     0
102
RTVSPost2010PropOp34
 70
     1
102
RTVSPost2010Prop35
280
     0
102
RTVSPost2010PropOp35
 70
     1
102
RTVSPost2010Prop36
280
     0
102
RTVSPost2010PropOp36
 70
     1
102
RTVSPost2010Prop37
 90
       50
102
RTVSPost2010PropOp37
 70
     1
102
RTVSPost2010Prop38
140
0.0
102
RTVSPost2010PropOp38
 70
     1
102
RTVSPost2010Prop39
140
1.0
102
RTVSPost2010PropOp39
 70
     1
102
RTVSPost2010Prop40
 90
        0
102
RTVSPost2010PropOp40
 70
     1
102
RTVSPost2010Prop41ColorIndex
 90
       18
102
RTVSPost2010Prop41ColorRGB
 90
        0
102
RTVSPost2010PropOp41
 70
     1
102
RTVSPost2010Prop42
 90
       50
102
RTVSPost2010PropOp42
 70
     1
102
RTVSPost2010Prop43
 90
        3
102
RTVSPost2010PropOp43
 70
     1
102
RTVSPost2010Prop44ColorIndex
 90
        5
102
RTVSPost2010Prop44ColorRGB
 90
      255
102
RTVSPost2010PropOp44
 70
     1
102
RTVSPost2010Prop45
280
     0
102
RTVSPost2010PropOp45
 70
     1
102
RTVSPost2010Prop46
 90
       50
102
RTVSPost2010PropOp46
 70
     1
102
RTVSPost2010Prop47
 90
       50
102
RTVSPost2010PropOp47
 70
     1
102
RTVSPost2010Prop48
 90
       50
102
RTVSPost2010PropOp48
 70
     1
102
RTVSPost2010Prop49
280
     0
102
RTVSPost2010PropOp49
 70
     1
102
RTVSPost2010Prop50
 90
       50
102
RTVSPost2010PropOp50
 70
     1
102
RTVSPost2010Prop51ColorIndex
 90
      256
102
RTVSPost2010Prop51ColorRGB
 90
-16777216
102
RTVSPost2010PropOp51
 70
     0
102
RTVSPost2010Prop52
140
1.0
102
RTVSPost2010PropOp52
 70
     0
102
RTVSPost2010Prop53
 90
        2
102
RTVSPost2010PropOp53
 70
     1
102
RTVSPost2010Prop54
  1
strokes_ogs.tif
102
RTVSPost2010PropOp54
 70
     1
102
RTVSPost2010Prop55
280
     0
102
RTVSPost2010PropOp55
 70
     1
102
RTVSPost2010Prop56
140
1.0
102
RTVSPost2010PropOp56
 70
     1
102
RTVSPost2010Prop57
140
1.0
102
RTVSPost2010PropOp57
 70
     1
102
RTVSPropertyOp0
 70
     1
102
RTVSPropertyOp1
 70
     1
102
RTVSPropertyOp2
 70
     1
102
RTVSPropertyOp3
 70
     1
102
RTVSPropertyOp4
 70
     1
102
RTVSPropertyOp5
 70
     1
102
RTVSPropertyOp6
 70
     1
102
RTVSPropertyOp7
 70
     1
102
RTVSPropertyOp8
 70
     1
102
RTVSPropertyOp9
 70
     1
102
RTVSPropertyOp10
 70
     1
102
RTVSPropertyOp11
 70
     1
102
RTVSPropertyOp12
 70
     1
102
RTVSPropertyOp13
 70
     1
102
RTVSPropertyOp14
 70
     1
102
RTVSPropertyOp15
 70
     1
102
RTVSPropertyOp16
 70
     1
102
RTVSPropertyOp17
 70
     1
102
RTVSPropertyOp18
 70
     1
102
RTVSPropertyOp19
 70
     1
102
RTVSPropertyOp20
 70
     1
102
RTVSPropertyOp21
 70
     1
102
RTVSPropertyOp22
 70
     1
102
RTVSPropertyOp23
 70
     1
102
RTVSPropertyOp24
 70
     1
102
RTVSPropertyOp25
 70
     1
102
RTVSPropertyOp26
 70
     1
102
RTVSPropertyOp27
 70
     1
102
RTVSPropertyOp28
 70
     1
102
RTVSPropertyOp29
 70
     1
102
RTVSPropertyOp30
 70
     1
102
RTVSPropertyOp31
 70
     1
102
RTVSPropertyOp32
 70
     1
102
RTVSPropertyOp33
 70
     1
102
RTVSPropertyOp34
 70
     1
102
RTVSPropertyOp35
 70
     1
102
RTVSPropertyOp36
 70
     1
102
RTVSPropertyOp37
 70
     1
102
RTVSPropertyOp38
 70
     1
102
RTVSPropertyOp39
 70
     1
102
RTVSPropertyOp40
 70
     1
102
RTVSPropertyOp41
 70
     1
102
RTVSPropertyOp42
 70
     1
102
RTVSPropertyOp43
 70
     1
102
RTVSPropertyOp44
 70
     1
102
RTVSPropertyOp45
 70
     1
102
RTVSPropertyOp46
 70
     1
102
RTVSPropertyOp47
 70
     1
102
RTVSPropertyOp48
 70
     1
102
RTVSPropertyOp49
 70
     1
102
RTVSPropertyOp50
 70
     1
102
RTVSPropertyOp51
 70
     0
102
RTVSPropertyOp52
 70
     0
102
RTVSPropertyOp53
 70
     1
102
RTVSPropertyOp54
 70
     1
102
RTVSPropertyOp55
 70
     1
102
RTVSPropertyOp56
 70
     1
102
RTVSPropertyOp57
 70
     1
102
RTVSPropertyOp58
 70
     1
102
RTVSPropertyOp59
 70
     1
102
RTVSPropertyOp60
 70
     1
102
RTVSPropertyOp61
 70
     1
102
RTVSPropertyOp62
 70
     1
  0
XRECORD
  5
821
102
{ACAD_REACTORS
330
820
102
}
330
820
100
AcDbXrecord
280
     1
102
RTVSPost2010Prop28
280
     0
102
RTVSPost2010PropOp28
 70
     1
102
RTVSPost2010Prop29
280
     1
102
RTVSPost2010PropOp29
 70
     1
102
RTVSPost2010Prop30
280
     1
102
RTVSPost2010PropOp30
 70
     1
102
RTVSPost2010Prop31
280
     0
102
RTVSPost2010PropOp31
 70
     1
102
RTVSPost2010Prop32
280
     0
102
RTVSPost2010PropOp32
 70
     1
102
RTVSPost2010Prop33
280
     0
102
RTVSPost2010PropOp33
 70
     1
102
RTVSPost2010Prop34
280
     0
102
RTVSPost2010PropOp34
 70
     1
102
RTVSPost2010Prop35
280
     0
102
RTVSPost2010PropOp35
 70
     1
102
RTVSPost2010Prop36
280
     0
102
RTVSPost2010PropOp36
 70
     1
102
RTVSPost2010Prop37
 90
       50
102
RTVSPost2010PropOp37
 70
     1
102
RTVSPost2010Prop38
140
0.0
102
RTVSPost2010PropOp38
 70
     1
102
RTVSPost2010Prop39
140
1.0
102
RTVSPost2010PropOp39
 70
     1
102
RTVSPost2010Prop40
 90
        0
102
RTVSPost2010PropOp40
 70
     1
102
RTVSPost2010Prop41ColorIndex
 90
       18
102
RTVSPost2010Prop41ColorRGB
 90
        0
102
RTVSPost2010PropOp41
 70
     1
102
RTVSPost2010Prop42
 90
       50
102
RTVSPost2010PropOp42
 70
     1
102
RTVSPost2010Prop43
 90
        3
102
RTVSPost2010PropOp43
 70
     1
102
RTVSPost2010Prop44ColorIndex
 90
        5
102
RTVSPost2010Prop44ColorRGB
 90
      255
102
RTVSPost2010PropOp44
 70
     1
102
RTVSPost2010Prop45
280
     0
102
RTVSPost2010PropOp45
 70
     1
102
RTVSPost2010Prop46
 90
       50
102
RTVSPost2010PropOp46
 70
     1
102
RTVSPost2010Prop47
 90
       50
102
RTVSPost2010PropOp47
 70
     1
102
RTVSPost2010Prop48
 90
       50
102
RTVSPost2010PropOp48
 70
     1
102
RTVSPost2010Prop49
280
     0
102
RTVSPost2010PropOp49
 70
     1
102
RTVSPost2010Prop50
 90
       50
102
RTVSPost2010PropOp50
 70
     1
102
RTVSPost2010Prop51ColorIndex
 90
      256
102
RTVSPost2010Prop51ColorRGB
 90
-16777216
102
RTVSPost2010PropOp51
 70
     0
102
RTVSPost2010Prop52
140
1.0
102
RTVSPost2010PropOp52
 70
     0
102
RTVSPost2010Prop53
 90
        2
102
RTVSPost2010PropOp53
 70
     1
102
RTVSPost2010Prop54
  1
strokes_ogs.tif
102
RTVSPost2010PropOp54
 70
     1
102
RTVSPost2010Prop55
280
     0
102
RTVSPost2010PropOp55
 70
     1
102
RTVSPost2010Prop56
140
1.0
102
RTVSPost2010PropOp56
 70
     1
102
RTVSPost2010Prop57
140
1.0
102
RTVSPost2010PropOp57
 70
     1
102
RTVSPropertyOp0
 70
     1
102
RTVSPropertyOp1
 70
     1
102
RTVSPropertyOp2
 70
     1
102
RTVSPropertyOp3
 70
     1
102
RTVSPropertyOp4
 70
     1
102
RTVSPropertyOp5
 70
     1
102
RTVSPropertyOp6
 70
     1
102
RTVSPropertyOp7
 70
     1
102
RTVSPropertyOp8
 70
     1
102
RTVSPropertyOp9
 70
     1
102
RTVSPropertyOp10
 70
     1
102
RTVSPropertyOp11
 70
     1
102
RTVSPropertyOp12
 70
     1
102
RTVSPropertyOp13
 70
     1
102
RTVSPropertyOp14
 70
     1
102
RTVSPropertyOp15
 70
     1
102
RTVSPropertyOp16
 70
     1
102
RTVSPropertyOp17
 70
     1
102
RTVSPropertyOp18
 70
     1
102
RTVSPropertyOp19
 70
     1
102
RTVSPropertyOp20
 70
     1
102
RTVSPropertyOp21
 70
     1
102
RTVSPropertyOp22
 70
     1
102
RTVSPropertyOp23
 70
     1
102
RTVSPropertyOp24
 70
     1
102
RTVSPropertyOp25
 70
     1
102
RTVSPropertyOp26
 70
     1
102
RTVSPropertyOp27
 70
     1
102
RTVSPropertyOp28
 70
     1
102
RTVSPropertyOp29
 70
     1
102
RTVSPropertyOp30
 70
     1
102
RTVSPropertyOp31
 70
     1
102
RTVSPropertyOp32
 70
     1
102
RTVSPropertyOp33
 70
     1
102
RTVSPropertyOp34
 70
     1
102
RTVSPropertyOp35
 70
     1
102
RTVSPropertyOp36
 70
     1
102
RTVSPropertyOp37
 70
     1
102
RTVSPropertyOp38
 70
     1
102
RTVSPropertyOp39
 70
     1
102
RTVSPropertyOp40
 70
     1
102
RTVSPropertyOp41
 70
     1
102
RTVSPropertyOp42
 70
     1
102
RTVSPropertyOp43
 70
     1
102
RTVSPropertyOp44
 70
     1
102
RTVSPropertyOp45
 70
     1
102
RTVSPropertyOp46
 70
     1
102
RTVSPropertyOp47
 70
     1
102
RTVSPropertyOp48
 70
     1
102
RTVSPropertyOp49
 70
     1
102
RTVSPropertyOp50
 70
     1
102
RTVSPropertyOp51
 70
     0
102
RTVSPropertyOp52
 70
     0
102
RTVSPropertyOp53
 70
     1
102
RTVSPropertyOp54
 70
     1
102
RTVSPropertyOp55
 70
     1
102
RTVSPropertyOp56
 70
     1
102
RTVSPropertyOp57
 70
     1
102
RTVSPropertyOp58
 70
     1
102
RTVSPropertyOp59
 70
     1
102
RTVSPropertyOp60
 70
     1
102
RTVSPropertyOp61
 70
     1
102
RTVSPropertyOp62
 70
     1
  0
XRECORD
  5
81F
102
{ACAD_REACTORS
330
81E
102
}
330
81E
100
AcDbXrecord
280
     1
102
RTVSPost2010Prop28
280
     0
102
RTVSPost2010PropOp28
 70
     1
102
RTVSPost2010Prop29
280
     1
102
RTVSPost2010PropOp29
 70
     1
102
RTVSPost2010Prop30
280
     1
102
RTVSPost2010PropOp30
 70
     1
102
RTVSPost2010Prop31
280
     0
102
RTVSPost2010PropOp31
 70
     1
102
RTVSPost2010Prop32
280
     0
102
RTVSPost2010PropOp32
 70
     1
102
RTVSPost2010Prop33
280
     0
102
RTVSPost2010PropOp33
 70
     1
102
RTVSPost2010Prop34
280
     0
102
RTVSPost2010PropOp34
 70
     1
102
RTVSPost2010Prop35
280
     0
102
RTVSPost2010PropOp35
 70
     1
102
RTVSPost2010Prop36
280
     0
102
RTVSPost2010PropOp36
 70
     1
102
RTVSPost2010Prop37
 90
       50
102
RTVSPost2010PropOp37
 70
     1
102
RTVSPost2010Prop38
140
0.0
102
RTVSPost2010PropOp38
 70
     1
102
RTVSPost2010Prop39
140
1.0
102
RTVSPost2010PropOp39
 70
     1
102
RTVSPost2010Prop40
 90
        0
102
RTVSPost2010PropOp40
 70
     1
102
RTVSPost2010Prop41ColorIndex
 90
       18
102
RTVSPost2010Prop41ColorRGB
 90
        0
102
RTVSPost2010PropOp41
 70
     1
102
RTVSPost2010Prop42
 90
       50
102
RTVSPost2010PropOp42
 70
     1
102
RTVSPost2010Prop43
 90
        3
102
RTVSPost2010PropOp43
 70
     1
102
RTVSPost2010Prop44ColorIndex
 90
        5
102
RTVSPost2010Prop44ColorRGB
 90
      255
102
RTVSPost2010PropOp44
 70
     1
102
RTVSPost2010Prop45
280
     0
102
RTVSPost2010PropOp45
 70
     1
102
RTVSPost2010Prop46
 90
       50
102
RTVSPost2010PropOp46
 70
     1
102
RTVSPost2010Prop47
 90
       50
102
RTVSPost2010PropOp47
 70
     1
102
RTVSPost2010Prop48
 90
       50
102
RTVSPost2010PropOp48
 70
     1
102
RTVSPost2010Prop49
280
     0
102
RTVSPost2010PropOp49
 70
     1
102
RTVSPost2010Prop50
 90
       50
102
RTVSPost2010PropOp50
 70
     1
102
RTVSPost2010Prop51ColorIndex
 90
      256
102
RTVSPost2010Prop51ColorRGB
 90
-16777216
102
RTVSPost2010PropOp51
 70
     0
102
RTVSPost2010Prop52
140
1.0
102
RTVSPost2010PropOp52
 70
     0
102
RTVSPost2010Prop53
 90
        2
102
RTVSPost2010PropOp53
 70
     1
102
RTVSPost2010Prop54
  1
strokes_ogs.tif
102
RTVSPost2010PropOp54
 70
     1
102
RTVSPost2010Prop55
280
     0
102
RTVSPost2010PropOp55
 70
     1
102
RTVSPost2010Prop56
140
1.0
102
RTVSPost2010PropOp56
 70
     1
102
RTVSPost2010Prop57
140
1.0
102
RTVSPost2010PropOp57
 70
     1
102
RTVSPropertyOp0
 70
     1
102
RTVSPropertyOp1
 70
     1
102
RTVSPropertyOp2
 70
     1
102
RTVSPropertyOp3
 70
     1
102
RTVSPropertyOp4
 70
     1
102
RTVSPropertyOp5
 70
     1
102
RTVSPropertyOp6
 70
     1
102
RTVSPropertyOp7
 70
     1
102
RTVSPropertyOp8
 70
     1
102
RTVSPropertyOp9
 70
     1
102
RTVSPropertyOp10
 70
     1
102
RTVSPropertyOp11
 70
     1
102
RTVSPropertyOp12
 70
     1
102
RTVSPropertyOp13
 70
     1
102
RTVSPropertyOp14
 70
     1
102
RTVSPropertyOp15
 70
     1
102
RTVSPropertyOp16
 70
     1
102
RTVSPropertyOp17
 70
     1
102
RTVSPropertyOp18
 70
     1
102
RTVSPropertyOp19
 70
     1
102
RTVSPropertyOp20
 70
     1
102
RTVSPropertyOp21
 70
     1
102
RTVSPropertyOp22
 70
     1
102
RTVSPropertyOp23
 70
     1
102
RTVSPropertyOp24
 70
     1
102
RTVSPropertyOp25
 70
     1
102
RTVSPropertyOp26
 70
     1
102
RTVSPropertyOp27
 70
     1
102
RTVSPropertyOp28
 70
     1
102
RTVSPropertyOp29
 70
     1
102
RTVSPropertyOp30
 70
     1
102
RTVSPropertyOp31
 70
     1
102
RTVSPropertyOp32
 70
     1
102
RTVSPropertyOp33
 70
     1
102
RTVSPropertyOp34
 70
     1
102
RTVSPropertyOp35
 70
     1
102
RTVSPropertyOp36
 70
     1
102
RTVSPropertyOp37
 70
     1
102
RTVSPropertyOp38
 70
     1
102
RTVSPropertyOp39
 70
     1
102
RTVSPropertyOp40
 70
     1
102
RTVSPropertyOp41
 70
     1
102
RTVSPropertyOp42
 70
     1
102
RTVSPropertyOp43
 70
     1
102
RTVSPropertyOp44
 70
     1
102
RTVSPropertyOp45
 70
     1
102
RTVSPropertyOp46
 70
     1
102
RTVSPropertyOp47
 70
     1
102
RTVSPropertyOp48
 70
     1
102
RTVSPropertyOp49
 70
     1
102
RTVSPropertyOp50
 70
     1
102
RTVSPropertyOp51
 70
     0
102
RTVSPropertyOp52
 70
     0
102
RTVSPropertyOp53
 70
     1
102
RTVSPropertyOp54
 70
     1
102
RTVSPropertyOp55
 70
     1
102
RTVSPropertyOp56
 70
     1
102
RTVSPropertyOp57
 70
     1
102
RTVSPropertyOp58
 70
     1
102
RTVSPropertyOp59
 70
     1
102
RTVSPropertyOp60
 70
     1
102
RTVSPropertyOp61
 70
     1
102
RTVSPropertyOp62
 70
     1
  0
XRECORD
  5
819
102
{ACAD_REACTORS
330
818
102
}
330
818
100
AcDbXrecord
280
     1
102
RTVSPost2010Prop28
280
     0
102
RTVSPost2010PropOp28
 70
     1
102
RTVSPost2010Prop29
280
     1
102
RTVSPost2010PropOp29
 70
     1
102
RTVSPost2010Prop30
280
     1
102
RTVSPost2010PropOp30
 70
     1
102
RTVSPost2010Prop31
280
     0
102
RTVSPost2010PropOp31
 70
     1
102
RTVSPost2010Prop32
280
     0
102
RTVSPost2010PropOp32
 70
     1
102
RTVSPost2010Prop33
280
     0
102
RTVSPost2010PropOp33
 70
     1
102
RTVSPost2010Prop34
280
     0
102
RTVSPost2010PropOp34
 70
     1
102
RTVSPost2010Prop35
280
     0
102
RTVSPost2010PropOp35
 70
     1
102
RTVSPost2010Prop36
280
     0
102
RTVSPost2010PropOp36
 70
     1
102
RTVSPost2010Prop37
 90
       50
102
RTVSPost2010PropOp37
 70
     1
102
RTVSPost2010Prop38
140
0.0
102
RTVSPost2010PropOp38
 70
     1
102
RTVSPost2010Prop39
140
1.0
102
RTVSPost2010PropOp39
 70
     1
102
RTVSPost2010Prop40
 90
        0
102
RTVSPost2010PropOp40
 70
     1
102
RTVSPost2010Prop41ColorIndex
 90
       18
102
RTVSPost2010Prop41ColorRGB
 90
        0
102
RTVSPost2010PropOp41
 70
     1
102
RTVSPost2010Prop42
 90
       50
102
RTVSPost2010PropOp42
 70
     1
102
RTVSPost2010Prop43
 90
        3
102
RTVSPost2010PropOp43
 70
     1
102
RTVSPost2010Prop44ColorIndex
 90
        5
102
RTVSPost2010Prop44ColorRGB
 90
      255
102
RTVSPost2010PropOp44
 70
     1
102
RTVSPost2010Prop45
280
     0
102
RTVSPost2010PropOp45
 70
     1
102
RTVSPost2010Prop46
 90
       50
102
RTVSPost2010PropOp46
 70
     1
102
RTVSPost2010Prop47
 90
       50
102
RTVSPost2010PropOp47
 70
     1
102
RTVSPost2010Prop48
 90
       50
102
RTVSPost2010PropOp48
 70
     1
102
RTVSPost2010Prop49
280
     0
102
RTVSPost2010PropOp49
 70
     1
102
RTVSPost2010Prop50
 90
       50
102
RTVSPost2010PropOp50
 70
     1
102
RTVSPost2010Prop51ColorIndex
 90
      256
102
RTVSPost2010Prop51ColorRGB
 90
-16777216
102
RTVSPost2010PropOp51
 70
     0
102
RTVSPost2010Prop52
140
1.0
102
RTVSPost2010PropOp52
 70
     0
102
RTVSPost2010Prop53
 90
        2
102
RTVSPost2010PropOp53
 70
     1
102
RTVSPost2010Prop54
  1
strokes_ogs.tif
102
RTVSPost2010PropOp54
 70
     1
102
RTVSPost2010Prop55
280
     0
102
RTVSPost2010PropOp55
 70
     1
102
RTVSPost2010Prop56
140
1.0
102
RTVSPost2010PropOp56
 70
     1
102
RTVSPost2010Prop57
140
1.0
102
RTVSPost2010PropOp57
 70
     1
102
RTVSPropertyOp0
 70
     1
102
RTVSPropertyOp1
 70
     1
102
RTVSPropertyOp2
 70
     1
102
RTVSPropertyOp3
 70
     1
102
RTVSPropertyOp4
 70
     1
102
RTVSPropertyOp5
 70
     1
102
RTVSPropertyOp6
 70
     1
102
RTVSPropertyOp7
 70
     1
102
RTVSPropertyOp8
 70
     1
102
RTVSPropertyOp9
 70
     1
102
RTVSPropertyOp10
 70
     1
102
RTVSPropertyOp11
 70
     1
102
RTVSPropertyOp12
 70
     1
102
RTVSPropertyOp13
 70
     1
102
RTVSPropertyOp14
 70
     1
102
RTVSPropertyOp15
 70
     1
102
RTVSPropertyOp16
 70
     1
102
RTVSPropertyOp17
 70
     1
102
RTVSPropertyOp18
 70
     1
102
RTVSPropertyOp19
 70
     1
102
RTVSPropertyOp20
 70
     1
102
RTVSPropertyOp21
 70
     1
102
RTVSPropertyOp22
 70
     1
102
RTVSPropertyOp23
 70
     1
102
RTVSPropertyOp24
 70
     1
102
RTVSPropertyOp25
 70
     1
102
RTVSPropertyOp26
 70
     1
102
RTVSPropertyOp27
 70
     1
102
RTVSPropertyOp28
 70
     1
102
RTVSPropertyOp29
 70
     1
102
RTVSPropertyOp30
 70
     1
102
RTVSPropertyOp31
 70
     1
102
RTVSPropertyOp32
 70
     1
102
RTVSPropertyOp33
 70
     1
102
RTVSPropertyOp34
 70
     1
102
RTVSPropertyOp35
 70
     1
102
RTVSPropertyOp36
 70
     1
102
RTVSPropertyOp37
 70
     1
102
RTVSPropertyOp38
 70
     1
102
RTVSPropertyOp39
 70
     1
102
RTVSPropertyOp40
 70
     1
102
RTVSPropertyOp41
 70
     1
102
RTVSPropertyOp42
 70
     1
102
RTVSPropertyOp43
 70
     1
102
RTVSPropertyOp44
 70
     1
102
RTVSPropertyOp45
 70
     1
102
RTVSPropertyOp46
 70
     1
102
RTVSPropertyOp47
 70
     1
102
RTVSPropertyOp48
 70
     1
102
RTVSPropertyOp49
 70
     1
102
RTVSPropertyOp50
 70
     1
102
RTVSPropertyOp51
 70
     0
102
RTVSPropertyOp52
 70
     0
102
RTVSPropertyOp53
 70
     1
102
RTVSPropertyOp54
 70
     1
102
RTVSPropertyOp55
 70
     1
102
RTVSPropertyOp56
 70
     1
102
RTVSPropertyOp57
 70
     1
102
RTVSPropertyOp58
 70
     1
102
RTVSPropertyOp59
 70
     1
102
RTVSPropertyOp60
 70
     1
102
RTVSPropertyOp61
 70
     1
102
RTVSPropertyOp62
 70
     1
  0
XRECORD
  5
81B
102
{ACAD_REACTORS
330
81A
102
}
330
81A
100
AcDbXrecord
280
     1
102
RTVSPost2010Prop28
280
     0
102
RTVSPost2010PropOp28
 70
     1
102
RTVSPost2010Prop29
280
     1
102
RTVSPost2010PropOp29
 70
     1
102
RTVSPost2010Prop30
280
     1
102
RTVSPost2010PropOp30
 70
     1
102
RTVSPost2010Prop31
280
     0
102
RTVSPost2010PropOp31
 70
     1
102
RTVSPost2010Prop32
280
     0
102
RTVSPost2010PropOp32
 70
     1
102
RTVSPost2010Prop33
280
     0
102
RTVSPost2010PropOp33
 70
     1
102
RTVSPost2010Prop34
280
     0
102
RTVSPost2010PropOp34
 70
     1
102
RTVSPost2010Prop35
280
     0
102
RTVSPost2010PropOp35
 70
     1
102
RTVSPost2010Prop36
280
     0
102
RTVSPost2010PropOp36
 70
     1
102
RTVSPost2010Prop37
 90
       50
102
RTVSPost2010PropOp37
 70
     1
102
RTVSPost2010Prop38
140
0.0
102
RTVSPost2010PropOp38
 70
     1
102
RTVSPost2010Prop39
140
1.0
102
RTVSPost2010PropOp39
 70
     1
102
RTVSPost2010Prop40
 90
        0
102
RTVSPost2010PropOp40
 70
     1
102
RTVSPost2010Prop41ColorIndex
 90
       18
102
RTVSPost2010Prop41ColorRGB
 90
        0
102
RTVSPost2010PropOp41
 70
     1
102
RTVSPost2010Prop42
 90
       50
102
RTVSPost2010PropOp42
 70
     1
102
RTVSPost2010Prop43
 90
        3
102
RTVSPost2010PropOp43
 70
     1
102
RTVSPost2010Prop44ColorIndex
 90
        5
102
RTVSPost2010Prop44ColorRGB
 90
      255
102
RTVSPost2010PropOp44
 70
     1
102
RTVSPost2010Prop45
280
     0
102
RTVSPost2010PropOp45
 70
     1
102
RTVSPost2010Prop46
 90
       50
102
RTVSPost2010PropOp46
 70
     1
102
RTVSPost2010Prop47
 90
       50
102
RTVSPost2010PropOp47
 70
     1
102
RTVSPost2010Prop48
 90
       50
102
RTVSPost2010PropOp48
 70
     1
102
RTVSPost2010Prop49
280
     0
102
RTVSPost2010PropOp49
 70
     1
102
RTVSPost2010Prop50
 90
       50
102
RTVSPost2010PropOp50
 70
     1
102
RTVSPost2010Prop51ColorIndex
 90
      256
102
RTVSPost2010Prop51ColorRGB
 90
-16777216
102
RTVSPost2010PropOp51
 70
     0
102
RTVSPost2010Prop52
140
1.0
102
RTVSPost2010PropOp52
 70
     0
102
RTVSPost2010Prop53
 90
        2
102
RTVSPost2010PropOp53
 70
     1
102
RTVSPost2010Prop54
  1
strokes_ogs.tif
102
RTVSPost2010PropOp54
 70
     1
102
RTVSPost2010Prop55
280
     0
102
RTVSPost2010PropOp55
 70
     1
102
RTVSPost2010Prop56
140
1.0
102
RTVSPost2010PropOp56
 70
     1
102
RTVSPost2010Prop57
140
1.0
102
RTVSPost2010PropOp57
 70
     1
102
RTVSPropertyOp0
 70
     1
102
RTVSPropertyOp1
 70
     1
102
RTVSPropertyOp2
 70
     1
102
RTVSPropertyOp3
 70
     1
102
RTVSPropertyOp4
 70
     1
102
RTVSPropertyOp5
 70
     1
102
RTVSPropertyOp6
 70
     1
102
RTVSPropertyOp7
 70
     1
102
RTVSPropertyOp8
 70
     1
102
RTVSPropertyOp9
 70
     1
102
RTVSPropertyOp10
 70
     1
102
RTVSPropertyOp11
 70
     1
102
RTVSPropertyOp12
 70
     1
102
RTVSPropertyOp13
 70
     1
102
RTVSPropertyOp14
 70
     1
102
RTVSPropertyOp15
 70
     1
102
RTVSPropertyOp16
 70
     1
102
RTVSPropertyOp17
 70
     1
102
RTVSPropertyOp18
 70
     1
102
RTVSPropertyOp19
 70
     1
102
RTVSPropertyOp20
 70
     1
102
RTVSPropertyOp21
 70
     1
102
RTVSPropertyOp22
 70
     1
102
RTVSPropertyOp23
 70
     1
102
RTVSPropertyOp24
 70
     1
102
RTVSPropertyOp25
 70
     1
102
RTVSPropertyOp26
 70
     1
102
RTVSPropertyOp27
 70
     1
102
RTVSPropertyOp28
 70
     1
102
RTVSPropertyOp29
 70
     1
102
RTVSPropertyOp30
 70
     1
102
RTVSPropertyOp31
 70
     1
102
RTVSPropertyOp32
 70
     1
102
RTVSPropertyOp33
 70
     1
102
RTVSPropertyOp34
 70
     1
102
RTVSPropertyOp35
 70
     1
102
RTVSPropertyOp36
 70
     1
102
RTVSPropertyOp37
 70
     1
102
RTVSPropertyOp38
 70
     1
102
RTVSPropertyOp39
 70
     1
102
RTVSPropertyOp40
 70
     1
102
RTVSPropertyOp41
 70
     1
102
RTVSPropertyOp42
 70
     1
102
RTVSPropertyOp43
 70
     1
102
RTVSPropertyOp44
 70
     1
102
RTVSPropertyOp45
 70
     1
102
RTVSPropertyOp46
 70
     1
102
RTVSPropertyOp47
 70
     1
102
RTVSPropertyOp48
 70
     1
102
RTVSPropertyOp49
 70
     1
102
RTVSPropertyOp50
 70
     1
102
RTVSPropertyOp51
 70
     0
102
RTVSPropertyOp52
 70
     0
102
RTVSPropertyOp53
 70
     1
102
RTVSPropertyOp54
 70
     1
102
RTVSPropertyOp55
 70
     1
102
RTVSPropertyOp56
 70
     1
102
RTVSPropertyOp57
 70
     1
102
RTVSPropertyOp58
 70
     1
102
RTVSPropertyOp59
 70
     1
102
RTVSPropertyOp60
 70
     1
102
RTVSPropertyOp61
 70
     1
102
RTVSPropertyOp62
 70
     1
  0
XRECORD
  5
811
102
{ACAD_REACTORS
330
810
102
}
330
810
100
AcDbXrecord
280
     1
102
RTVSPost2010Prop28
280
     0
102
RTVSPost2010PropOp28
 70
     1
102
RTVSPost2010Prop29
280
     1
102
RTVSPost2010PropOp29
 70
     1
102
RTVSPost2010Prop30
280
     1
102
RTVSPost2010PropOp30
 70
     1
102
RTVSPost2010Prop31
280
     0
102
RTVSPost2010PropOp31
 70
     1
102
RTVSPost2010Prop32
280
     0
102
RTVSPost2010PropOp32
 70
     1
102
RTVSPost2010Prop33
280
     0
102
RTVSPost2010PropOp33
 70
     1
102
RTVSPost2010Prop34
280
     0
102
RTVSPost2010PropOp34
 70
     1
102
RTVSPost2010Prop35
280
     0
102
RTVSPost2010PropOp35
 70
     1
102
RTVSPost2010Prop36
280
     0
102
RTVSPost2010PropOp36
 70
     1
102
RTVSPost2010Prop37
 90
       50
102
RTVSPost2010PropOp37
 70
     1
102
RTVSPost2010Prop38
140
0.0
102
RTVSPost2010PropOp38
 70
     1
102
RTVSPost2010Prop39
140
1.0
102
RTVSPost2010PropOp39
 70
     1
102
RTVSPost2010Prop40
 90
        0
102
RTVSPost2010PropOp40
 70
     1
102
RTVSPost2010Prop41ColorIndex
 90
       18
102
RTVSPost2010Prop41ColorRGB
 90
        0
102
RTVSPost2010PropOp41
 70
     1
102
RTVSPost2010Prop42
 90
       50
102
RTVSPost2010PropOp42
 70
     1
102
RTVSPost2010Prop43
 90
        3
102
RTVSPost2010PropOp43
 70
     1
102
RTVSPost2010Prop44ColorIndex
 90
        5
102
RTVSPost2010Prop44ColorRGB
 90
      255
102
RTVSPost2010PropOp44
 70
     1
102
RTVSPost2010Prop45
280
     0
102
RTVSPost2010PropOp45
 70
     1
102
RTVSPost2010Prop46
 90
       50
102
RTVSPost2010PropOp46
 70
     1
102
RTVSPost2010Prop47
 90
       50
102
RTVSPost2010PropOp47
 70
     1
102
RTVSPost2010Prop48
 90
       50
102
RTVSPost2010PropOp48
 70
     1
102
RTVSPost2010Prop49
280
     0
102
RTVSPost2010PropOp49
 70
     1
102
RTVSPost2010Prop50
 90
       50
102
RTVSPost2010PropOp50
 70
     1
102
RTVSPost2010Prop51ColorIndex
 90
      256
102
RTVSPost2010Prop51ColorRGB
 90
-16777216
102
RTVSPost2010PropOp51
 70
     0
102
RTVSPost2010Prop52
140
1.0
102
RTVSPost2010PropOp52
 70
     0
102
RTVSPost2010Prop53
 90
        2
102
RTVSPost2010PropOp53
 70
     1
102
RTVSPost2010Prop54
  1
strokes_ogs.tif
102
RTVSPost2010PropOp54
 70
     1
102
RTVSPost2010Prop55
280
     0
102
RTVSPost2010PropOp55
 70
     1
102
RTVSPost2010Prop56
140
1.0
102
RTVSPost2010PropOp56
 70
     1
102
RTVSPost2010Prop57
140
1.0
102
RTVSPost2010PropOp57
 70
     1
102
RTVSPropertyOp0
 70
     1
102
RTVSPropertyOp1
 70
     1
102
RTVSPropertyOp2
 70
     1
102
RTVSPropertyOp3
 70
     1
102
RTVSPropertyOp4
 70
     1
102
RTVSPropertyOp5
 70
     1
102
RTVSPropertyOp6
 70
     1
102
RTVSPropertyOp7
 70
     1
102
RTVSPropertyOp8
 70
     1
102
RTVSPropertyOp9
 70
     1
102
RTVSPropertyOp10
 70
     1
102
RTVSPropertyOp11
 70
     1
102
RTVSPropertyOp12
 70
     1
102
RTVSPropertyOp13
 70
     1
102
RTVSPropertyOp14
 70
     1
102
RTVSPropertyOp15
 70
     1
102
RTVSPropertyOp16
 70
     1
102
RTVSPropertyOp17
 70
     1
102
RTVSPropertyOp18
 70
     1
102
RTVSPropertyOp19
 70
     1
102
RTVSPropertyOp20
 70
     1
102
RTVSPropertyOp21
 70
     1
102
RTVSPropertyOp22
 70
     1
102
RTVSPropertyOp23
 70
     1
102
RTVSPropertyOp24
 70
     1
102
RTVSPropertyOp25
 70
     1
102
RTVSPropertyOp26
 70
     1
102
RTVSPropertyOp27
 70
     1
102
RTVSPropertyOp28
 70
     1
102
RTVSPropertyOp29
 70
     1
102
RTVSPropertyOp30
 70
     1
102
RTVSPropertyOp31
 70
     1
102
RTVSPropertyOp32
 70
     1
102
RTVSPropertyOp33
 70
     1
102
RTVSPropertyOp34
 70
     1
102
RTVSPropertyOp35
 70
     1
102
RTVSPropertyOp36
 70
     1
102
RTVSPropertyOp37
 70
     1
102
RTVSPropertyOp38
 70
     1
102
RTVSPropertyOp39
 70
     1
102
RTVSPropertyOp40
 70
     1
102
RTVSPropertyOp41
 70
     1
102
RTVSPropertyOp42
 70
     1
102
RTVSPropertyOp43
 70
     1
102
RTVSPropertyOp44
 70
     1
102
RTVSPropertyOp45
 70
     1
102
RTVSPropertyOp46
 70
     1
102
RTVSPropertyOp47
 70
     1
102
RTVSPropertyOp48
 70
     1
102
RTVSPropertyOp49
 70
     1
102
RTVSPropertyOp50
 70
     1
102
RTVSPropertyOp51
 70
     0
102
RTVSPropertyOp52
 70
     0
102
RTVSPropertyOp53
 70
     1
102
RTVSPropertyOp54
 70
     1
102
RTVSPropertyOp55
 70
     1
102
RTVSPropertyOp56
 70
     1
102
RTVSPropertyOp57
 70
     1
102
RTVSPropertyOp58
 70
     1
102
RTVSPropertyOp59
 70
     1
102
RTVSPropertyOp60
 70
     1
102
RTVSPropertyOp61
 70
     1
102
RTVSPropertyOp62
 70
     1
  0
XRECORD
  5
805
102
{ACAD_REACTORS
330
804
102
}
330
804
100
AcDbXrecord
280
     1
102
RTVSPost2010Prop28
280
     0
102
RTVSPost2010PropOp28
 70
     1
102
RTVSPost2010Prop29
280
     1
102
RTVSPost2010PropOp29
 70
     1
102
RTVSPost2010Prop30
280
     1
102
RTVSPost2010PropOp30
 70
     1
102
RTVSPost2010Prop31
280
     0
102
RTVSPost2010PropOp31
 70
     1
102
RTVSPost2010Prop32
280
     0
102
RTVSPost2010PropOp32
 70
     1
102
RTVSPost2010Prop33
280
     0
102
RTVSPost2010PropOp33
 70
     1
102
RTVSPost2010Prop34
280
     0
102
RTVSPost2010PropOp34
 70
     1
102
RTVSPost2010Prop35
280
     0
102
RTVSPost2010PropOp35
 70
     1
102
RTVSPost2010Prop36
280
     0
102
RTVSPost2010PropOp36
 70
     1
102
RTVSPost2010Prop37
 90
       50
102
RTVSPost2010PropOp37
 70
     1
102
RTVSPost2010Prop38
140
0.0
102
RTVSPost2010PropOp38
 70
     1
102
RTVSPost2010Prop39
140
1.0
102
RTVSPost2010PropOp39
 70
     1
102
RTVSPost2010Prop40
 90
        0
102
RTVSPost2010PropOp40
 70
     1
102
RTVSPost2010Prop41ColorIndex
 90
       18
102
RTVSPost2010Prop41ColorRGB
 90
        0
102
RTVSPost2010PropOp41
 70
     1
102
RTVSPost2010Prop42
 90
       50
102
RTVSPost2010PropOp42
 70
     1
102
RTVSPost2010Prop43
 90
        3
102
RTVSPost2010PropOp43
 70
     1
102
RTVSPost2010Prop44ColorIndex
 90
        5
102
RTVSPost2010Prop44ColorRGB
 90
      255
102
RTVSPost2010PropOp44
 70
     1
102
RTVSPost2010Prop45
280
     0
102
RTVSPost2010PropOp45
 70
     1
102
RTVSPost2010Prop46
 90
       50
102
RTVSPost2010PropOp46
 70
     1
102
RTVSPost2010Prop47
 90
       50
102
RTVSPost2010PropOp47
 70
     1
102
RTVSPost2010Prop48
 90
       50
102
RTVSPost2010PropOp48
 70
     1
102
RTVSPost2010Prop49
280
     0
102
RTVSPost2010PropOp49
 70
     1
102
RTVSPost2010Prop50
 90
       50
102
RTVSPost2010PropOp50
 70
     1
102
RTVSPost2010Prop51ColorIndex
 90
      256
102
RTVSPost2010Prop51ColorRGB
 90
-16777216
102
RTVSPost2010PropOp51
 70
     0
102
RTVSPost2010Prop52
140
1.0
102
RTVSPost2010PropOp52
 70
     0
102
RTVSPost2010Prop53
 90
        2
102
RTVSPost2010PropOp53
 70
     1
102
RTVSPost2010Prop54
  1
strokes_ogs.tif
102
RTVSPost2010PropOp54
 70
     1
102
RTVSPost2010Prop55
280
     0
102
RTVSPost2010PropOp55
 70
     1
102
RTVSPost2010Prop56
140
1.0
102
RTVSPost2010PropOp56
 70
     1
102
RTVSPost2010Prop57
140
1.0
102
RTVSPost2010PropOp57
 70
     1
102
RTVSPropertyOp0
 70
     1
102
RTVSPropertyOp1
 70
     1
102
RTVSPropertyOp2
 70
     1
102
RTVSPropertyOp3
 70
     1
102
RTVSPropertyOp4
 70
     1
102
RTVSPropertyOp5
 70
     1
102
RTVSPropertyOp6
 70
     1
102
RTVSPropertyOp7
 70
     1
102
RTVSPropertyOp8
 70
     1
102
RTVSPropertyOp9
 70
     1
102
RTVSPropertyOp10
 70
     1
102
RTVSPropertyOp11
 70
     1
102
RTVSPropertyOp12
 70
     1
102
RTVSPropertyOp13
 70
     1
102
RTVSPropertyOp14
 70
     1
102
RTVSPropertyOp15
 70
     1
102
RTVSPropertyOp16
 70
     1
102
RTVSPropertyOp17
 70
     1
102
RTVSPropertyOp18
 70
     1
102
RTVSPropertyOp19
 70
     1
102
RTVSPropertyOp20
 70
     1
102
RTVSPropertyOp21
 70
     1
102
RTVSPropertyOp22
 70
     1
102
RTVSPropertyOp23
 70
     1
102
RTVSPropertyOp24
 70
     1
102
RTVSPropertyOp25
 70
     1
102
RTVSPropertyOp26
 70
     1
102
RTVSPropertyOp27
 70
     1
102
RTVSPropertyOp28
 70
     1
102
RTVSPropertyOp29
 70
     1
102
RTVSPropertyOp30
 70
     1
102
RTVSPropertyOp31
 70
     1
102
RTVSPropertyOp32
 70
     1
102
RTVSPropertyOp33
 70
     1
102
RTVSPropertyOp34
 70
     1
102
RTVSPropertyOp35
 70
     1
102
RTVSPropertyOp36
 70
     1
102
RTVSPropertyOp37
 70
     1
102
RTVSPropertyOp38
 70
     1
102
RTVSPropertyOp39
 70
     1
102
RTVSPropertyOp40
 70
     1
102
RTVSPropertyOp41
 70
     1
102
RTVSPropertyOp42
 70
     1
102
RTVSPropertyOp43
 70
     1
102
RTVSPropertyOp44
 70
     1
102
RTVSPropertyOp45
 70
     1
102
RTVSPropertyOp46
 70
     1
102
RTVSPropertyOp47
 70
     1
102
RTVSPropertyOp48
 70
     1
102
RTVSPropertyOp49
 70
     1
102
RTVSPropertyOp50
 70
     1
102
RTVSPropertyOp51
 70
     0
102
RTVSPropertyOp52
 70
     0
102
RTVSPropertyOp53
 70
     1
102
RTVSPropertyOp54
 70
     1
102
RTVSPropertyOp55
 70
     1
102
RTVSPropertyOp56
 70
     1
102
RTVSPropertyOp57
 70
     1
102
RTVSPropertyOp58
 70
     1
102
RTVSPropertyOp59
 70
     1
102
RTVSPropertyOp60
 70
     1
102
RTVSPropertyOp61
 70
     1
102
RTVSPropertyOp62
 70
     1
  0
XRECORD
  5
81D
102
{ACAD_REACTORS
330
81C
102
}
330
81C
100
AcDbXrecord
280
     1
102
RTVSPost2010Prop28
280
     0
102
RTVSPost2010PropOp28
 70
     1
102
RTVSPost2010Prop29
280
     1
102
RTVSPost2010PropOp29
 70
     1
102
RTVSPost2010Prop30
280
     1
102
RTVSPost2010PropOp30
 70
     1
102
RTVSPost2010Prop31
280
     0
102
RTVSPost2010PropOp31
 70
     1
102
RTVSPost2010Prop32
280
     0
102
RTVSPost2010PropOp32
 70
     1
102
RTVSPost2010Prop33
280
     0
102
RTVSPost2010PropOp33
 70
     1
102
RTVSPost2010Prop34
280
     0
102
RTVSPost2010PropOp34
 70
     1
102
RTVSPost2010Prop35
280
     0
102
RTVSPost2010PropOp35
 70
     1
102
RTVSPost2010Prop36
280
     0
102
RTVSPost2010PropOp36
 70
     1
102
RTVSPost2010Prop37
 90
       50
102
RTVSPost2010PropOp37
 70
     1
102
RTVSPost2010Prop38
140
0.0
102
RTVSPost2010PropOp38
 70
     1
102
RTVSPost2010Prop39
140
1.0
102
RTVSPost2010PropOp39
 70
     1
102
RTVSPost2010Prop40
 90
        0
102
RTVSPost2010PropOp40
 70
     1
102
RTVSPost2010Prop41ColorIndex
 90
       18
102
RTVSPost2010Prop41ColorRGB
 90
        0
102
RTVSPost2010PropOp41
 70
     1
102
RTVSPost2010Prop42
 90
       50
102
RTVSPost2010PropOp42
 70
     1
102
RTVSPost2010Prop43
 90
        3
102
RTVSPost2010PropOp43
 70
     1
102
RTVSPost2010Prop44ColorIndex
 90
        5
102
RTVSPost2010Prop44ColorRGB
 90
      255
102
RTVSPost2010PropOp44
 70
     1
102
RTVSPost2010Prop45
280
     0
102
RTVSPost2010PropOp45
 70
     1
102
RTVSPost2010Prop46
 90
       50
102
RTVSPost2010PropOp46
 70
     1
102
RTVSPost2010Prop47
 90
       50
102
RTVSPost2010PropOp47
 70
     1
102
RTVSPost2010Prop48
 90
       50
102
RTVSPost2010PropOp48
 70
     1
102
RTVSPost2010Prop49
280
     0
102
RTVSPost2010PropOp49
 70
     1
102
RTVSPost2010Prop50
 90
       50
102
RTVSPost2010PropOp50
 70
     1
102
RTVSPost2010Prop51ColorIndex
 90
      256
102
RTVSPost2010Prop51ColorRGB
 90
-16777216
102
RTVSPost2010PropOp51
 70
     0
102
RTVSPost2010Prop52
140
1.0
102
RTVSPost2010PropOp52
 70
     0
102
RTVSPost2010Prop53
 90
        2
102
RTVSPost2010PropOp53
 70
     1
102
RTVSPost2010Prop54
  1
strokes_ogs.tif
102
RTVSPost2010PropOp54
 70
     1
102
RTVSPost2010Prop55
280
     0
102
RTVSPost2010PropOp55
 70
     1
102
RTVSPost2010Prop56
140
1.0
102
RTVSPost2010PropOp56
 70
     1
102
RTVSPost2010Prop57
140
1.0
102
RTVSPost2010PropOp57
 70
     1
102
RTVSPropertyOp0
 70
     1
102
RTVSPropertyOp1
 70
     1
102
RTVSPropertyOp2
 70
     1
102
RTVSPropertyOp3
 70
     1
102
RTVSPropertyOp4
 70
     1
102
RTVSPropertyOp5
 70
     1
102
RTVSPropertyOp6
 70
     1
102
RTVSPropertyOp7
 70
     1
102
RTVSPropertyOp8
 70
     1
102
RTVSPropertyOp9
 70
     1
102
RTVSPropertyOp10
 70
     1
102
RTVSPropertyOp11
 70
     1
102
RTVSPropertyOp12
 70
     1
102
RTVSPropertyOp13
 70
     1
102
RTVSPropertyOp14
 70
     1
102
RTVSPropertyOp15
 70
     1
102
RTVSPropertyOp16
 70
     1
102
RTVSPropertyOp17
 70
     1
102
RTVSPropertyOp18
 70
     1
102
RTVSPropertyOp19
 70
     1
102
RTVSPropertyOp20
 70
     1
102
RTVSPropertyOp21
 70
     1
102
RTVSPropertyOp22
 70
     1
102
RTVSPropertyOp23
 70
     1
102
RTVSPropertyOp24
 70
     1
102
RTVSPropertyOp25
 70
     1
102
RTVSPropertyOp26
 70
     1
102
RTVSPropertyOp27
 70
     1
102
RTVSPropertyOp28
 70
     1
102
RTVSPropertyOp29
 70
     1
102
RTVSPropertyOp30
 70
     1
102
RTVSPropertyOp31
 70
     1
102
RTVSPropertyOp32
 70
     1
102
RTVSPropertyOp33
 70
     1
102
RTVSPropertyOp34
 70
     1
102
RTVSPropertyOp35
 70
     1
102
RTVSPropertyOp36
 70
     1
102
RTVSPropertyOp37
 70
     1
102
RTVSPropertyOp38
 70
     1
102
RTVSPropertyOp39
 70
     1
102
RTVSPropertyOp40
 70
     1
102
RTVSPropertyOp41
 70
     1
102
RTVSPropertyOp42
 70
     1
102
RTVSPropertyOp43
 70
     1
102
RTVSPropertyOp44
 70
     1
102
RTVSPropertyOp45
 70
     1
102
RTVSPropertyOp46
 70
     1
102
RTVSPropertyOp47
 70
     1
102
RTVSPropertyOp48
 70
     1
102
RTVSPropertyOp49
 70
     1
102
RTVSPropertyOp50
 70
     1
102
RTVSPropertyOp51
 70
     0
102
RTVSPropertyOp52
 70
     0
102
RTVSPropertyOp53
 70
     1
102
RTVSPropertyOp54
 70
     1
102
RTVSPropertyOp55
 70
     1
102
RTVSPropertyOp56
 70
     1
102
RTVSPropertyOp57
 70
     1
102
RTVSPropertyOp58
 70
     1
102
RTVSPropertyOp59
 70
     1
102
RTVSPropertyOp60
 70
     1
102
RTVSPropertyOp61
 70
     1
102
RTVSPropertyOp62
 70
     1
  0
ENDSEC
  0
EOF
