  0
SECTION
  2
HEADER
  9
$ACADVER
  1
AC1015
  9
$ACADMAINTVER
 70
    20
  9
$DWGCODEPAGE
  3
ANSI_932
  9
$INSBASE
 10
0.0
 20
0.0
 30
0.0
  9
$EXTMIN
 10
-0.0160188925129887
 20
-0.0113276454198967
 30
-0.0000000000112498
  9
$EXTMAX
 10
210.0064116740953
 20
148.5045339695387
 30
0.0000000000002956
  9
$LIMMIN
 10
0.0
 20
0.0
  9
$LIMMAX
 10
0.0
 20
0.0
  9
$ORTHOMODE
 70
     1
  9
$REGENMODE
 70
     1
  9
$FILLMODE
 70
     1
  9
$QTEXTMODE
 70
     0
  9
$MIRRTEXT
 70
     1
  9
$LTSCALE
 40
0.3
  9
$ATTMODE
 70
     1
  9
$TEXTSIZE
 40
0.0
  9
$TRACEWID
 40
0.05
  9
$TEXTSTYLE
  7
STANDARD
  9
$CLAYER
  8
1
  9
$CELTYPE
  6
BYLAYER
  9
$CECOLOR
 62
   256
  9
$CELTSCALE
 40
1.0
  9
$DISPSILH
 70
     0
  9
$DIMSCALE
 40
0.025
  9
$DIMASZ
 40
30.0
  9
$DIMEXO
 40
30.0
  9
$DIMDLI
 40
0.38
  9
$DIMRND
 40
0.0
  9
$DIMDLE
 40
0.0
  9
$DIMEXE
 40
0.18
  9
$DIMTP
 40
0.0
  9
$DIMTM
 40
0.0
  9
$DIMTXT
 40
100.0
  9
$DIMCEN
 40
0.09
  9
$DIMTSZ
 40
0.0
  9
$DIMTOL
 70
     0
  9
$DIMLIM
 70
     0
  9
$DIMTIH
 70
     0
  9
$DIMTOH
 70
     0
  9
$DIMSE1
 70
     0
  9
$DIMSE2
 70
     0
  9
$DIMTAD
 70
     1
  9
$DIMZIN
 70
     0
  9
$DIMBLK
  1
Dot
  9
$DIMASO
 70
     1
  9
$DIMSHO
 70
     1
  9
$DIMPOST
  1

  9
$DIMAPOST
  1

  9
$DIMALT
 70
     0
  9
$DIMALTD
 70
     2
  9
$DIMALTF
 40
25.4
  9
$DIMLFAC
 40
1.0
  9
$DIMTOFL
 70
     0
  9
$DIMTVP
 40
0.0
  9
$DIMTIX
 70
     0
  9
$DIMSOXD
 70
     0
  9
$DIMSAH
 70
     0
  9
$DIMBLK1
  1

  9
$DIMBLK2
  1

  9
$DIMSTYLE
  2
1-2
  9
$DIMCLRD
 70
     0
  9
$DIMCLRE
 70
     0
  9
$DIMCLRT
 70
     0
  9
$DIMTFAC
 40
1.0
  9
$DIMGAP
 40
10.0
  9
$DIMJUST
 70
     0
  9
$DIMSD1
 70
     0
  9
$DIMSD2
 70
     0
  9
$DIMTOLJ
 70
     1
  9
$DIMTZIN
 70
     0
  9
$DIMALTZ
 70
     0
  9
$DIMALTTZ
 70
     0
  9
$DIMUPT
 70
     0
  9
$DIMDEC
 70
     0
  9
$DIMTDEC
 70
     0
  9
$DIMALTU
 70
     2
  9
$DIMALTTD
 70
     2
  9
$DIMTXSTY
  7
スタイル1
  9
$DIMAUNIT
 70
     0
  9
$DIMADEC
 70
     0
  9
$DIMALTRND
 40
0.0
  9
$DIMAZIN
 70
     0
  9
$DIMDSEP
 70
    46
  9
$DIMATFIT
 70
     3
  9
$DIMFRAC
 70
     0
  9
$DIMLDRBLK
  1
Open30
  9
$DIMLUNIT
 70
     2
  9
$DIMLWD
 70
    -2
  9
$DIMLWE
 70
    -2
  9
$DIMTMOVE
 70
     0
  9
$LUNITS
 70
     2
  9
$LUPREC
 70
     4
  9
$SKETCHINC
 40
0.1
  9
$FILLETRAD
 40
0.0
  9
$AUNITS
 70
     0
  9
$AUPREC
 70
     0
  9
$MENU
  1
acad
  9
$ELEVATION
 40
0.0
  9
$PELEVATION
 40
0.0
  9
$THICKNESS
 40
0.0
  9
$LIMCHECK
 70
     0
  9
$CHAMFERA
 40
0.0
  9
$CHAMFERB
 40
0.0
  9
$CHAMFERC
 40
0.0
  9
$CHAMFERD
 40
0.0
  9
$SKPOLY
 70
     0
  9
$TDCREATE
 40
2305814.417176053
  9
$TDUCREATE
 40
6.0000000000
  9
$TDUPDATE
 40
2455224.673670521
  9
$TDUUPDATE
 40
2455224.298670521
  9
$TDINDWG
 40
0.0476705324
  9
$TDUSRTIMER
 40
0.0476658333
  9
$USRTIMER
 70
     1
  9
$ANGBASE
 50
0.0
  9
$ANGDIR
 70
     0
  9
$PDMODE
 70
     0
  9
$PDSIZE
 40
0.0
  9
$PLINEWID
 40
0.0
  9
$SPLFRAME
 70
     0
  9
$SPLINETYPE
 70
     6
  9
$SPLINESEGS
 70
     8
  9
$HANDSEED
  5
12A7
  9
$SURFTAB1
 70
     6
  9
$SURFTAB2
 70
     6
  9
$SURFTYPE
 70
     6
  9
$SURFU
 70
     6
  9
$SURFV
 70
     6
  9
$UCSBASE
  2

  9
$UCSNAME
  2

  9
$UCSORG
 10
0.0
 20
0.0
 30
0.0
  9
$UCSXDIR
 10
1.0
 20
0.0
 30
0.0
  9
$UCSYDIR
 10
0.0
 20
1.0
 30
0.0
  9
$UCSORTHOREF
  2

  9
$UCSORTHOVIEW
 70
     0
  9
$UCSORGTOP
 10
0.0
 20
0.0
 30
0.0
  9
$UCSORGBOTTOM
 10
0.0
 20
0.0
 30
0.0
  9
$UCSORGLEFT
 10
0.0
 20
0.0
 30
0.0
  9
$UCSORGRIGHT
 10
0.0
 20
0.0
 30
0.0
  9
$UCSORGFRONT
 10
0.0
 20
0.0
 30
0.0
  9
$UCSORGBACK
 10
0.0
 20
0.0
 30
0.0
  9
$PUCSBASE
  2

  9
$PUCSNAME
  2

  9
$PUCSORG
 10
0.0
 20
0.0
 30
0.0
  9
$PUCSXDIR
 10
1.0
 20
0.0
 30
0.0
  9
$PUCSYDIR
 10
0.0
 20
1.0
 30
0.0
  9
$PUCSORTHOREF
  2

  9
$PUCSORTHOVIEW
 70
     0
  9
$PUCSORGTOP
 10
0.0
 20
0.0
 30
0.0
  9
$PUCSORGBOTTOM
 10
0.0
 20
0.0
 30
0.0
  9
$PUCSORGLEFT
 10
0.0
 20
0.0
 30
0.0
  9
$PUCSORGRIGHT
 10
0.0
 20
0.0
 30
0.0
  9
$PUCSORGFRONT
 10
0.0
 20
0.0
 30
0.0
  9
$PUCSORGBACK
 10
0.0
 20
0.0
 30
0.0
  9
$USERI1
 70
     0
  9
$USERI2
 70
     0
  9
$USERI3
 70
     0
  9
$USERI4
 70
     0
  9
$USERI5
 70
     0
  9
$USERR1
 40
11.0
  9
$USERR2
 40
0.0
  9
$USERR3
 40
0.0
  9
$USERR4
 40
0.0
  9
$USERR5
 40
0.0
  9
$WORLDVIEW
 70
     1
  9
$SHADEDGE
 70
     3
  9
$SHADEDIF
 70
    70
  9
$TILEMODE
 70
     1
  9
$MAXACTVP
 70
    16
  9
$PINSBASE
 10
0.0
 20
0.0
 30
0.0
  9
$PLIMCHECK
 70
     0
  9
$PEXTMIN
 10
1.000000000000000E+20
 20
1.000000000000000E+20
 30
1.000000000000000E+20
  9
$PEXTMAX
 10
-1.000000000000000E+20
 20
-1.000000000000000E+20
 30
-1.000000000000000E+20
  9
$PLIMMIN
 10
0.0
 20
0.0
  9
$PLIMMAX
 10
12.0
 20
9.0
  9
$UNITMODE
 70
     0
  9
$VISRETAIN
 70
     0
  9
$PLINEGEN
 70
     1
  9
$PSLTSCALE
 70
     0
  9
$TREEDEPTH
 70
  3020
  9
$CMLSTYLE
  2
STANDARD
  9
$CMLJUST
 70
     0
  9
$CMLSCALE
 40
1.0
  9
$PROXYGRAPHICS
 70
     0
  9
$MEASUREMENT
 70
     1
  9
$CELWEIGHT
370
    -1
  9
$ENDCAPS
280
     0
  9
$JOINSTYLE
280
     0
  9
$LWDISPLAY
290
     0
  9
$INSUNITS
 70
     0
  9
$HYPERLINKBASE
  1

  9
$STYLESHEET
  1
dakuto.ctb
  9
$XEDIT
290
     1
  9
$CEPSNTYPE
380
     0
  9
$PSTYLEMODE
290
     1
  9
$FINGERPRINTGUID
  2
{441DFF08-209D-45F1-904E-8520AE981EB2}
  9
$VERSIONGUID
  2
{34126CE4-A8C3-4AF3-A372-DFD492BE2C76}
  9
$EXTNAMES
290
     1
  9
$PSVPSCALE
 40
0.0
  9
$OLESTARTUP
290
     0
  0
ENDSEC
  0
SECTION
  2
CLASSES
  0
CLASS
  1
IMAGE
  2
AcDbRasterImage
  3
ISM
 90
    32895
280
     0
281
     1
  0
CLASS
  1
DICTIONARYVAR
  2
AcDbDictionaryVar
  3
ObjectDBX Classes
 90
        0
280
     0
281
     0
  0
CLASS
  1
RASTERVARIABLES
  2
AcDbRasterVariables
  3
ISM
 90
    32768
280
     0
281
     0
  0
CLASS
  1
IMAGEDEF
  2
AcDbRasterImageDef
  3
ISM
 90
    32768
280
     0
281
     0
  0
CLASS
  1
IMAGEDEF_REACTOR
  2
AcDbRasterImageDefReactor
  3
ISM
 90
    32769
280
     0
281
     0
  0
CLASS
  1
IDBUFFER
  2
AcDbIdBuffer
  3
ObjectDBX Classes
 90
    32768
280
     0
281
     0
  0
CLASS
  1
SPATIAL_FILTER
  2
AcDbSpatialFilter
  3
ObjectDBX Classes
 90
    32768
280
     0
281
     0
  0
CLASS
  1
SORTENTSTABLE
  2
AcDbSortentsTable
  3
ObjectDBX Classes
 90
    32768
280
     0
281
     0
  0
CLASS
  1
LAYER_INDEX
  2
AcDbLayerIndex
  3
ObjectDBX Classes
 90
    32768
280
     0
281
     0
  0
CLASS
  1
SPATIAL_INDEX
  2
AcDbSpatialIndex
  3
ObjectDBX Classes
 90
    32768
280
     0
281
     0
  0
CLASS
  1
OBJECT_PTR
  2
CAseDLPNTableRecord
  3
"ASE-LPNTableRecord"
 90
    32769
280
     0
281
     0
  0
CLASS
  1
LAYOUT
  2
AcDbLayout
  3
ObjectDBX Classes
 90
        0
280
     0
281
     0
  0
CLASS
  1
PLOTSETTINGS
  2
AcDbPlotSettings
  3
ObjectDBX Classes
 90
    32768
280
     0
281
     0
  0
CLASS
  1
ACDBDICTIONARYWDFLT
  2
AcDbDictionaryWithDefault
  3
ObjectDBX Classes
 90
        0
280
     0
281
     0
  0
CLASS
  1
ACDBPLACEHOLDER
  2
AcDbPlaceHolder
  3
ObjectDBX Classes
 90
        0
280
     0
281
     0
  0
ENDSEC
  0
SECTION
  2
TABLES
  0
TABLE
  2
VPORT
  5
7
330
0
100
AcDbSymbolTable
 70
     7
  0
VPORT
  5
129F
330
7
100
AcDbSymbolTableRecord
100
AcDbViewportTableRecord
  2
*Active
 70
     0
 10
0.0
 20
0.0
 11
1.0
 21
1.0
 12
104.9951963907911
 22
74.2466031620594
 13
0.0
 23
0.0
 14
1.0
 24
1.0
 15
0.0
 25
0.0
 16
0.0
 26
0.0
 36
1.0
 17
0.0
 27
0.0
 37
0.0
 40
166.0050112175055
 41
1.276315789473684
 42
50.0
 43
0.0
 44
0.0
 50
0.0
 51
0.0
 71
     0
 72
   100
 73
     1
 74
     1
 75
     0
 76
     0
 77
     0
 78
     0
281
     0
 65
     1
110
0.0
120
0.0
130
0.0
111
1.0
121
0.0
131
0.0
112
0.0
122
1.0
132
0.0
 79
     0
146
0.0
  0
ENDTAB
  0
TABLE
  2
LTYPE
  5
4
330
0
100
AcDbSymbolTable
 70
     4
  0
LTYPE
  5
11
330
4
100
AcDbSymbolTableRecord
100
AcDbLinetypeTableRecord
  2
BYBLOCK
 70
     0
  3

 72
    65
 73
     0
 40
0.0
  0
LTYPE
  5
12
330
4
100
AcDbSymbolTableRecord
100
AcDbLinetypeTableRecord
  2
BYLAYER
 70
     0
  3

 72
    65
 73
     0
 40
0.0
  0
LTYPE
  5
13
330
4
100
AcDbSymbolTableRecord
100
AcDbLinetypeTableRecord
  2
CONTINUOUS
 70
     0
  3
Solid line
 72
    65
 73
     0
 40
0.0
  0
LTYPE
  5
1E
330
4
100
AcDbSymbolTableRecord
100
AcDbLinetypeTableRecord
  2
DOTTED
 70
     0
  3
Dotted
 72
    65
 73
     2
 40
3.5
 49
0.5
 74
     0
 49
-3.0
 74
     0
  0
LTYPE
  5
1051
330
4
100
AcDbSymbolTableRecord
100
AcDbLinetypeTableRecord
  2
CENTER2
 70
     0
  3
Center (.5x) ___ _ ___ _ ___ _ ___ _ ___ _ ___
 72
    65
 73
     4
 40
28.575
 49
19.05
 74
     0
 49
-3.174999999999999
 74
     0
 49
3.174999999999999
 74
     0
 49
-3.174999999999999
 74
     0
  0
LTYPE
  5
1052
330
4
100
AcDbSymbolTableRecord
100
AcDbLinetypeTableRecord
  2
DASHED2
 70
     0
  3
Dashed (.5x) _ _ _ _ _ _ _ _ _ _ _ _ _ _ _ _ _
 72
    65
 73
     2
 40
9.524999999999998
 49
6.349999999999999
 74
     0
 49
-3.174999999999999
 74
     0
  0
ENDTAB
  0
TABLE
  2
LAYER
  5
2
330
0
100
AcDbSymbolTable
 70
     8
  0
LAYER
  5
14
330
2
100
AcDbSymbolTableRecord
100
AcDbLayerTableRecord
  2
0
 70
     0
 62
     7
  6
CONTINUOUS
370
    -3
390
F07
  0
LAYER
  5
25
330
2
100
AcDbSymbolTableRecord
100
AcDbLayerTableRecord
  2
1
 70
     0
 62
     7
  6
CONTINUOUS
370
    -3
390
F07
  0
LAYER
  5
FB3
330
2
100
AcDbSymbolTableRecord
100
AcDbLayerTableRecord
  2
moji
 70
     0
 62
     3
  6
CONTINUOUS
370
    -3
390
F07
  0
LAYER
  5
FDB
330
2
100
AcDbSymbolTableRecord
100
AcDbLayerTableRecord
  2
waku
 70
     0
 62
     2
  6
CONTINUOUS
370
    -3
390
F07
  0
LAYER
  5
FDC
330
2
100
AcDbSymbolTableRecord
100
AcDbLayerTableRecord
  2
Defpoints
 70
     0
 62
   103
  6
CONTINUOUS
290
     0
370
    -3
390
F07
  0
LAYER
  5
102B
330
2
100
AcDbSymbolTableRecord
100
AcDbLayerTableRecord
  2
dim
 70
     0
 62
     3
  6
CONTINUOUS
370
    -3
390
F07
  0
LAYER
  5
1053
330
2
100
AcDbSymbolTableRecord
100
AcDbLayerTableRecord
  2
senter
 70
     0
 62
     1
  6
CENTER2
370
    -3
390
F07
  0
LAYER
  5
1054
330
2
100
AcDbSymbolTableRecord
100
AcDbLayerTableRecord
  2
dashed
 70
     0
 62
     1
  6
DASHED2
370
    -3
390
F07
  0
ENDTAB
  0
TABLE
  2
STYLE
  5
3
330
0
100
AcDbSymbolTable
 70
     6
  0
STYLE
  5
17
330
3
100
AcDbSymbolTableRecord
100
AcDbTextStyleTableRecord
  2
STANDARD
 70
     0
 40
0.0
 41
1.0
 50
0.0
 71
     0
 42
0.0
  3
txt
  4

  0
STYLE
  5
10D
330
3
100
AcDbSymbolTableRecord
100
AcDbTextStyleTableRecord
  2
CONVERTER_6
 70
     0
 40
0.0
 41
0.9
 50
0.0
 71
     0
 42
0.0
  3
txt.shx
  4

  0
STYLE
  5
113
330
3
100
AcDbSymbolTableRecord
100
AcDbTextStyleTableRecord
  2
CONVERTER_7
 70
     0
 40
0.0
 41
0.72
 50
0.0
 71
     0
 42
0.0
  3
txt.shx
  4

  0
STYLE
  5
11D
330
3
100
AcDbSymbolTableRecord
100
AcDbTextStyleTableRecord
  2
CONVERTER_9
 70
     0
 40
0.0
 41
0.5400000000000001
 50
0.0
 71
     0
 42
0.0
  3
txt.shx
  4

  0
STYLE
  5
FB4
330
3
100
AcDbSymbolTableRecord
100
AcDbTextStyleTableRecord
  2
スタイル1
 70
     0
 40
0.0
 41
1.0
 50
0.0
 71
     0
 42
0.2
  3
MS PGothic.ttf
  4

1001
ACAD
1000
MS PGothic
1071
    32818
  0
STYLE
  5
FB5
330
3
100
AcDbSymbolTableRecord
100
AcDbTextStyleTableRecord
  2
スタイル2
 70
     0
 40
0.0
 41
1.0
 50
0.0
 71
     0
 42
0.2
  3
txt.shx
  4
bigfont.shx
  0
ENDTAB
  0
TABLE
  2
VIEW
  5
5
330
0
100
AcDbSymbolTable
 70
     0
  0
ENDTAB
  0
TABLE
  2
UCS
  5
6
330
0
100
AcDbSymbolTable
 70
     0
  0
ENDTAB
  0
TABLE
  2
APPID
  5
8
330
0
100
AcDbSymbolTable
 70
     1
  0
APPID
  5
16
330
8
100
AcDbSymbolTableRecord
100
AcDbRegAppTableRecord
  2
ACAD
 70
     0
  0
ENDTAB
  0
TABLE
  2
DIMSTYLE
  5
9
330
0
100
AcDbSymbolTable
 70
     3
100
AcDbDimStyleTable
 71
     3
340
1224
340
FB6
340
18
  0
DIMSTYLE
105
18
330
9
100
AcDbSymbolTableRecord
100
AcDbDimStyleTableRecord
  2
STANDARD
 70
     0
340
17
  0
DIMSTYLE
105
FB6
330
9
100
AcDbSymbolTableRecord
100
AcDbDimStyleTableRecord
  2
1-1
 70
     0
 40
0.05
 41
30.0
 42
30.0
 73
     0
 74
     0
 77
     1
140
100.0
147
10.0
271
     0
272
     0
340
FB4
341
FAD
342
FA8
  0
DIMSTYLE
105
1224
102
{ACAD_REACTORS
330
1181
330
1182
102
}
330
9
100
AcDbSymbolTableRecord
100
AcDbDimStyleTableRecord
  2
1-2
 70
     0
 40
0.025
 41
30.0
 42
30.0
 73
     0
 74
     0
 77
     1
140
100.0
147
10.0
271
     0
272
     0
340
FB4
341
FAD
342
FA8
  0
ENDTAB
  0
TABLE
  2
BLOCK_RECORD
  5
1
330
0
100
AcDbSymbolTable
 70
    17
  0
BLOCK_RECORD
  5
A
330
1
100
AcDbSymbolTableRecord
100
AcDbBlockTableRecord
  2
*MODEL_SPACE
340
F0C
  0
BLOCK_RECORD
  5
B
330
1
100
AcDbSymbolTableRecord
100
AcDbBlockTableRecord
  2
*PAPER_SPACE
340
F0D
  0
BLOCK_RECORD
  5
27
330
1
100
AcDbSymbolTableRecord
100
AcDbBlockTableRecord
  2
_4__1
340
0
102
{BLKREFS
331
2B
102
}
  0
BLOCK_RECORD
  5
29
330
1
100
AcDbSymbolTableRecord
100
AcDbBlockTableRecord
  2
TOP__2
340
0
102
{BLKREFS
331
2E
102
}
  0
BLOCK_RECORD
  5
2C
330
1
100
AcDbSymbolTableRecord
100
AcDbBlockTableRecord
  2
TOP__3
340
0
102
{BLKREFS
331
31
102
}
  0
BLOCK_RECORD
  5
2F
330
1
100
AcDbSymbolTableRecord
100
AcDbBlockTableRecord
  2
TOP__4
340
0
102
{BLKREFS
331
39
102
}
  0
BLOCK_RECORD
  5
32
330
1
100
AcDbSymbolTableRecord
100
AcDbBlockTableRecord
  2
_4__5
340
0
102
{BLKREFS
331
36
102
}
  0
BLOCK_RECORD
  5
34
330
1
100
AcDbSymbolTableRecord
100
AcDbBlockTableRecord
  2
TOP__6
340
0
102
{BLKREFS
331
3A
102
}
  0
BLOCK_RECORD
  5
37
330
1
100
AcDbSymbolTableRecord
100
AcDbBlockTableRecord
  2
TOP__7
340
0
102
{BLKREFS
331
4F
102
}
  0
BLOCK_RECORD
  5
FA8
330
1
100
AcDbSymbolTableRecord
100
AcDbBlockTableRecord
  2
_Dot
340
0
102
{BLKREFS
331
1120
331
1121
331
1129
331
112A
331
1132
331
1133
331
113B
331
113C
331
1144
331
1145
331
125F
331
1260
331
1268
331
1269
331
128D
331
128E
102
}
  0
BLOCK_RECORD
  5
FAD
330
1
100
AcDbSymbolTableRecord
100
AcDbBlockTableRecord
  2
_Open30
340
0
  0
BLOCK_RECORD
  5
1183
330
1
100
AcDbSymbolTableRecord
100
AcDbBlockTableRecord
  2
*D14
340
0
  0
BLOCK_RECORD
  5
118F
330
1
100
AcDbSymbolTableRecord
100
AcDbBlockTableRecord
  2
*D15
340
0
  0
BLOCK_RECORD
  5
127E
330
1
100
AcDbSymbolTableRecord
100
AcDbBlockTableRecord
  2
*D16
340
0
  0
ENDTAB
  0
ENDSEC
  0
SECTION
  2
BLOCKS
  0
BLOCK
  5
D
330
A
100
AcDbEntity
  8
0
100
AcDbBlockBegin
  2
*MODEL_SPACE
 70
     0
 10
0.0
 20
0.0
 30
0.0
  3
*MODEL_SPACE
  1

  0
ENDBLK
  5
E
330
A
100
AcDbEntity
  8
0
100
AcDbBlockEnd
  0
BLOCK
  5
F
330
B
100
AcDbEntity
 67
     1
  8
0
100
AcDbBlockBegin
  2
*PAPER_SPACE
 70
     0
 10
0.0
 20
0.0
 30
0.0
  3
*PAPER_SPACE
  1

  0
ENDBLK
  5
10
330
B
100
AcDbEntity
 67
     1
  8
0
100
AcDbBlockEnd
  0
BLOCK
  5
28
330
27
100
AcDbEntity
  8
0
100
AcDbBlockBegin
  2
_4__1
 70
     0
 10
-7688.303809657694
 20
-1694.3762705744
 30
0.0
  3
_4__1
  1

  0
XLINE
  5
56
330
27
100
AcDbEntity
  8
1
  6
DOTTED
 62
     4
100
AcDbXline
 10
-8209.244266998322
 20
-2414.252105155931
 30
0.0
 11
0.0
 21
-1.0
 31
0.0
  0
ENDBLK
  5
57
330
27
100
AcDbEntity
  8
0
100
AcDbBlockEnd
  0
BLOCK
  5
2A
330
29
100
AcDbEntity
  8
0
100
AcDbBlockBegin
  2
TOP__2
 70
     0
 10
-1534.840216237001
 20
-383.5378812806362
 30
0.0
  3
TOP__2
  1

  0
INSERT
  5
2B
330
29
100
AcDbEntity
  8
1
100
AcDbBlockReference
  2
_4__1
 10
-1066.440600398931
 20
38.27736022060101
 30
0.0
 41
0.19999999999999
 42
0.19999999999999
 43
0.19999999999999
  0
ENDBLK
  5
58
330
29
100
AcDbEntity
  8
0
100
AcDbBlockEnd
  0
BLOCK
  5
2D
330
2C
100
AcDbEntity
  8
0
100
AcDbBlockBegin
  2
TOP__3
 70
     0
 10
-834.7404217674727
 20
-1045.86141927687
 30
0.0
  3
TOP__3
  1

  0
INSERT
  5
2E
330
2C
100
AcDbEntity
  8
0
100
AcDbBlockReference
  2
TOP__2
 10
-1534.840216237001
 20
-383.5378812806362
 30
0.0
  0
ENDBLK
  5
59
330
2C
100
AcDbEntity
  8
0
100
AcDbBlockEnd
  0
BLOCK
  5
30
330
2F
100
AcDbEntity
  8
0
100
AcDbBlockBegin
  2
TOP__4
 70
     0
 10
-905.6172291050563
 20
-668.2630292542089
 30
0.0
  3
TOP__4
  1

  0
INSERT
  5
31
330
2F
100
AcDbEntity
  8
0
100
AcDbBlockReference
  2
TOP__3
 10
-834.7404217674727
 20
-1045.86141927687
 30
0.0
  0
ENDBLK
  5
5A
330
2F
100
AcDbEntity
  8
0
100
AcDbBlockEnd
  0
BLOCK
  5
33
330
32
100
AcDbEntity
  8
0
100
AcDbBlockBegin
  2
_4__5
 70
     0
 10
-6870.448223065885
 20
2038.87593928183
 30
0.0
  3
_4__5
  1

  0
XLINE
  5
5B
330
32
100
AcDbEntity
  8
1
  6
DOTTED
 62
     4
100
AcDbXline
 10
-7391.388680406513
 20
1319.0001047003
 30
0.0
 11
0.0
 21
-1.0
 31
0.0
  0
ENDBLK
  5
5C
330
32
100
AcDbEntity
  8
0
100
AcDbBlockEnd
  0
BLOCK
  5
35
330
34
100
AcDbEntity
  8
0
100
AcDbBlockBegin
  2
TOP__6
 70
     0
 10
-1371.269098918639
 20
363.11256069061
 30
0.0
  3
TOP__6
  1

  0
INSERT
  5
36
330
34
100
AcDbEntity
  8
1
100
AcDbBlockReference
  2
_4__5
 10
-902.8694830805697
 20
784.9278021918469
 30
0.0
 41
0.19999999999999
 42
0.19999999999999
 43
0.19999999999999
  0
ENDBLK
  5
5D
330
34
100
AcDbEntity
  8
0
100
AcDbBlockEnd
  0
BLOCK
  5
38
330
37
100
AcDbEntity
  8
0
100
AcDbBlockBegin
  2
TOP__7
 70
     0
 10
-671.1693044491109
 20
-299.210977305624
 30
0.0
  3
TOP__7
  1

  0
INSERT
  5
39
330
37
100
AcDbEntity
  8
0
100
AcDbBlockReference
  2
TOP__4
 10
-905.6172291050563
 20
-668.2630292542089
 30
0.0
  0
INSERT
  5
3A
330
37
100
AcDbEntity
  8
0
100
AcDbBlockReference
  2
TOP__6
 10
-1371.269098918639
 20
363.11256069061
 30
0.0
  0
ENDBLK
  5
5E
330
37
100
AcDbEntity
  8
0
100
AcDbBlockEnd
  0
BLOCK
  5
FA9
330
FA8
100
AcDbEntity
  8
0
100
AcDbBlockBegin
  2
_Dot
 70
     0
 10
0.0
 20
0.0
 30
0.0
  3
_Dot
  1

  0
LWPOLYLINE
  5
FAA
330
FA8
100
AcDbEntity
  8
0
  6
ByBlock
 62
     0
100
AcDbPolyline
 90
        2
 70
     1
 43
0.5
 10
-0.25
 20
0.0
 42
1.0
 10
0.25
 20
0.0
 42
1.0
  0
LINE
  5
FAB
330
FA8
100
AcDbEntity
  8
0
  6
ByBlock
 62
     0
370
    -2
100
AcDbLine
 10
-0.5
 20
0.0
 30
0.0
 11
-1.0
 21
0.0
 31
0.0
  0
ENDBLK
  5
FAC
330
FA8
100
AcDbEntity
  8
0
100
AcDbBlockEnd
  0
BLOCK
  5
FAE
330
FAD
100
AcDbEntity
  8
0
100
AcDbBlockBegin
  2
_Open30
 70
     0
 10
0.0
 20
0.0
 30
0.0
  3
_Open30
  1

  0
LINE
  5
FAF
330
FAD
100
AcDbEntity
  8
0
  6
ByBlock
 62
     0
370
    -2
100
AcDbLine
 10
-1.0
 20
0.26794919
 30
0.0
 11
0.0
 21
0.0
 31
0.0
  0
LINE
  5
FB0
330
FAD
100
AcDbEntity
  8
0
  6
ByBlock
 62
     0
370
    -2
100
AcDbLine
 10
0.0
 20
0.0
 30
0.0
 11
-1.0
 21
-0.26794919
 31
0.0
  0
LINE
  5
FB1
330
FAD
100
AcDbEntity
  8
0
  6
ByBlock
 62
     0
370
    -2
100
AcDbLine
 10
0.0
 20
0.0
 30
0.0
 11
-1.0
 21
0.0
 31
0.0
  0
ENDBLK
  5
FB2
330
FAD
100
AcDbEntity
  8
0
100
AcDbBlockEnd
  0
BLOCK
  5
118D
330
1183
100
AcDbEntity
  8
0
100
AcDbBlockBegin
  2
*D14
 70
     1
 10
0.0
 20
0.0
 30
0.0
  3
*D14
  1

  0
LINE
  5
1265
330
1183
100
AcDbEntity
  8
dim
 62
     0
370
    -2
100
AcDbLine
 10
133.1989795918367
 20
98.25000000000001
 30
0.0
 11
141.3118564877775
 21
98.25000000000001
 31
0.0
  0
LINE
  5
1266
330
1183
100
AcDbEntity
  8
dim
 62
     0
370
    -2
100
AcDbLine
 10
133.1989795918367
 20
50.25
 30
0.0
 11
141.3118564877775
 21
50.25
 31
0.0
  0
LINE
  5
1267
330
1183
100
AcDbEntity
  8
dim
 62
     0
370
    -2
100
AcDbLine
 10
141.3073564877775
 20
97.5
 30
0.0
 11
141.3073564877775
 21
51.0
 31
0.0
  0
INSERT
  5
1268
330
1183
100
AcDbEntity
  8
dim
 62
     0
370
    -2
100
AcDbBlockReference
  2
_Dot
 10
141.3073564877775
 20
98.25000000000001
 30
0.0
 41
0.75
 42
0.75
 43
0.75
 50
90.0
  0
INSERT
  5
1269
330
1183
100
AcDbEntity
  8
dim
 62
     0
370
    -2
100
AcDbBlockReference
  2
_Dot
 10
141.3073564877775
 20
50.25
 30
0.0
 41
0.75
 42
0.75
 43
0.75
 50
270.0
  0
MTEXT
  5
126A
330
1183
100
AcDbEntity
  8
dim
 62
     0
100
AcDbMText
 10
139.3599133059593
 20
74.25000000000001
 30
0.0
 40
2.5
 41
0.0
 71
     5
 72
     1
  1
\A1;φ48（外径）
  7
スタイル1
 11
0.0000000000000001
 21
1.0
 31
0.0
 73
     1
 44
1.0
1001
ACAD
1000
MTEXTBEGIN
1070
    73
1070
     1
1070
    44
1040
1.0
1070
    74
1070
     0
1000
MTEXTEND
  0
POINT
  5
126B
330
1183
100
AcDbEntity
  8
Defpoints
 62
     0
100
AcDbPoint
 10
132.4489795918367
 20
98.25000000000001
 30
0.0
  0
POINT
  5
126C
330
1183
100
AcDbEntity
  8
Defpoints
 62
     0
100
AcDbPoint
 10
132.4489795918367
 20
50.25
 30
0.0
  0
POINT
  5
126D
330
1183
100
AcDbEntity
  8
Defpoints
 62
     0
100
AcDbPoint
 10
141.3073564877775
 20
50.25
 30
0.0
  0
ENDBLK
  5
118E
330
1183
100
AcDbEntity
  8
0
100
AcDbBlockEnd
  0
BLOCK
  5
1199
330
118F
100
AcDbEntity
  8
0
100
AcDbBlockBegin
  2
*D15
 70
     1
 10
0.0
 20
0.0
 30
0.0
  3
*D15
  1

  0
LINE
  5
125C
330
118F
100
AcDbEntity
  8
dim
 62
     0
370
    -2
100
AcDbLine
 10
107.4489795918367
 20
49.5
 30
0.0
 11
107.4489795918367
 21
41.38712310405924
 31
0.0
  0
LINE
  5
125D
330
118F
100
AcDbEntity
  8
dim
 62
     0
370
    -2
100
AcDbLine
 10
132.4489795918367
 20
49.5
 30
0.0
 11
132.4489795918367
 21
41.38712310405924
 31
0.0
  0
LINE
  5
125E
330
118F
100
AcDbEntity
  8
dim
 62
     0
370
    -2
100
AcDbLine
 10
108.1989795918367
 20
41.39162310405924
 30
0.0
 11
131.6989795918367
 21
41.39162310405924
 31
0.0
  0
INSERT
  5
125F
330
118F
100
AcDbEntity
  8
dim
 62
     0
370
    -2
100
AcDbBlockReference
  2
_Dot
 10
107.4489795918367
 20
41.39162310405924
 30
0.0
 41
0.75
 42
0.75
 43
0.75
 50
180.0
  0
INSERT
  5
1260
330
118F
100
AcDbEntity
  8
dim
 62
     0
370
    -2
100
AcDbBlockReference
  2
_Dot
 10
132.4489795918367
 20
41.39162310405924
 30
0.0
 41
0.75
 42
0.75
 43
0.75
  0
MTEXT
  5
1261
330
118F
100
AcDbEntity
  8
dim
 62
     0
100
AcDbMText
 10
119.9489795918367
 20
42.89162310405925
 30
0.0
 40
2.5
 41
0.0
 71
     5
 72
     1
  1
\A1;25
  7
スタイル1
 73
     1
 44
1.0
1001
ACAD
1000
MTEXTBEGIN
1070
    73
1070
     1
1070
    44
1040
1.0
1070
    74
1070
     0
1000
MTEXTEND
  0
POINT
  5
1262
330
118F
100
AcDbEntity
  8
Defpoints
 62
     0
100
AcDbPoint
 10
107.4489795918367
 20
50.25
 30
0.0
  0
POINT
  5
1263
330
118F
100
AcDbEntity
  8
Defpoints
 62
     0
100
AcDbPoint
 10
132.4489795918367
 20
50.25
 30
0.0
  0
POINT
  5
1264
330
118F
100
AcDbEntity
  8
Defpoints
 62
     0
100
AcDbPoint
 10
132.4489795918367
 20
41.39162310405924
 30
0.0
  0
ENDBLK
  5
119A
330
118F
100
AcDbEntity
  8
0
100
AcDbBlockEnd
  0
BLOCK
  5
1288
330
127E
100
AcDbEntity
  8
0
100
AcDbBlockBegin
  2
*D16
 70
     1
 10
0.0
 20
0.0
 30
0.0
  3
*D16
  1

  0
LINE
  5
128A
330
127E
100
AcDbEntity
  8
dim
 62
     0
370
    -2
100
AcDbLine
 10
155.7784834741225
 20
49.5
 30
0.0
 11
155.7784834741225
 21
41.38712310405924
 31
0.0
  0
LINE
  5
128B
330
127E
100
AcDbEntity
  8
dim
 62
     0
370
    -2
100
AcDbLine
 10
180.7784834741225
 20
49.5
 30
0.0
 11
180.7784834741225
 21
41.38712310405924
 31
0.0
  0
LINE
  5
128C
330
127E
100
AcDbEntity
  8
dim
 62
     0
370
    -2
100
AcDbLine
 10
156.5284834741225
 20
41.39162310405924
 30
0.0
 11
180.0284834741225
 21
41.39162310405924
 31
0.0
  0
INSERT
  5
128D
330
127E
100
AcDbEntity
  8
dim
 62
     0
370
    -2
100
AcDbBlockReference
  2
_Dot
 10
155.7784834741225
 20
41.39162310405924
 30
0.0
 41
0.75
 42
0.75
 43
0.75
 50
180.0
  0
INSERT
  5
128E
330
127E
100
AcDbEntity
  8
dim
 62
     0
370
    -2
100
AcDbBlockReference
  2
_Dot
 10
180.7784834741225
 20
41.39162310405924
 30
0.0
 41
0.75
 42
0.75
 43
0.75
  0
MTEXT
  5
128F
330
127E
100
AcDbEntity
  8
dim
 62
     0
100
AcDbMText
 10
168.2784834741225
 20
42.89162310405925
 30
0.0
 40
2.5
 41
0.0
 71
     5
 72
     1
  1
\A1;25
  7
スタイル1
 73
     1
 44
1.0
1001
ACAD
1000
MTEXTBEGIN
1070
    73
1070
     1
1070
    44
1040
1.0
1070
    74
1070
     0
1000
MTEXTEND
  0
POINT
  5
1290
330
127E
100
AcDbEntity
  8
Defpoints
 62
     0
100
AcDbPoint
 10
155.7784834741225
 20
50.25
 30
0.0
  0
POINT
  5
1291
330
127E
100
AcDbEntity
  8
Defpoints
 62
     0
100
AcDbPoint
 10
180.7784834741225
 20
50.25
 30
0.0
  0
POINT
  5
1292
330
127E
100
AcDbEntity
  8
Defpoints
 62
     0
100
AcDbPoint
 10
180.7784834741225
 20
41.39162310405924
 30
0.0
  0
ENDBLK
  5
1289
330
127E
100
AcDbEntity
  8
0
100
AcDbBlockEnd
  0
ENDSEC
  0
SECTION
  2
ENTITIES
  0
INSERT
  5
4F
330
A
100
AcDbEntity
  8
0
100
AcDbBlockReference
  2
TOP__7
 10
-671.1693044491109
 20
-299.210977305624
 30
0.0
  0
MTEXT
  5
F44
330
A
100
AcDbEntity
  8
1
 62
     2
100
AcDbMText
 10
-317.8158425920368
 20
269.3258894562089
 30
0.0
 40
3.0
 41
0.0
 71
     5
 72
     1
  1
 
  7
CONVERTER_9
 73
     1
 44
1.0
1001
ACAD
1000
MTEXTBEGIN
1070
    73
1070
     1
1070
    44
1040
1.0
1070
    74
1070
     0
1000
MTEXTEND
  0
MTEXT
  5
F55
330
A
100
AcDbEntity
  8
1
 62
     2
100
AcDbMText
 10
-304.9328531308132
 20
279.817098606932
 30
0.0
 40
3.2
 41
0.0
 71
     5
 72
     1
  1
 
  7
CONVERTER_6
 73
     1
 44
1.0
1001
ACAD
1000
MTEXTBEGIN
1070
    73
1070
     1
1070
    44
1040
1.0
1070
    74
1070
     0
1000
MTEXTEND
  0
MTEXT
  5
F56
330
A
100
AcDbEntity
  8
1
 62
     2
100
AcDbMText
 10
-300.1169896106642
 20
271.3407261205151
 30
0.0
 40
3.2
 41
0.0
 71
     5
 72
     1
  1
 
  7
CONVERTER_6
 73
     1
 44
1.0
1001
ACAD
1000
MTEXTBEGIN
1070
    73
1070
     1
1070
    44
1040
1.0
1070
    74
1070
     0
1000
MTEXTEND
  0
MTEXT
  5
F5A
330
A
100
AcDbEntity
  8
1
 62
     2
100
AcDbMText
 10
-289.111378315969
 20
274.7425652935229
 30
0.0
 40
4.0
 41
0.0
 71
     5
 72
     1
  1
 
  7
CONVERTER_6
 73
     1
 44
1.0
1001
ACAD
1000
MTEXTBEGIN
1070
    73
1070
     1
1070
    44
1040
1.0
1070
    74
1070
     0
1000
MTEXTEND
  0
MTEXT
  5
F5B
330
A
100
AcDbEntity
  8
1
 62
     2
100
AcDbMText
 10
-317.697726224853
 20
282.1127193816429
 30
0.0
 40
2.2
 41
0.0
 71
     5
 72
     1
  1
 
  7
CONVERTER_7
 73
     1
 44
1.0
1001
ACAD
1000
MTEXTBEGIN
1070
    73
1070
     1
1070
    44
1040
1.0
1070
    74
1070
     0
1000
MTEXTEND
  0
LINE
  5
F7F
330
A
100
AcDbEntity
  8
waku
100
AcDbLine
 10
167.625
 20
27.95000000000007
 30
0.0
 11
167.625
 21
5.950000000000073
 31
0.0
  0
LINE
  5
F80
330
A
100
AcDbEntity
  8
waku
100
AcDbLine
 10
167.625
 20
13.70000000000007
 30
0.0
 11
201.875
 21
13.70000000000007
 31
0.0
  0
LINE
  5
F82
330
A
100
AcDbEntity
  8
waku
100
AcDbLine
 10
196.375
 20
13.70000000000007
 30
0.0
 11
196.375
 21
5.950000000000073
 31
0.0
  0
LINE
  5
F83
330
A
100
AcDbEntity
  8
waku
100
AcDbLine
 10
196.375
 20
11.70000000000007
 30
0.0
 11
201.875
 21
11.70000000000007
 31
0.0
  0
LINE
  5
F84
330
A
100
AcDbEntity
  8
waku
100
AcDbLine
 10
167.625
 20
21.95000000000007
 30
0.0
 11
201.875
 21
21.95000000000007
 31
0.0
  0
LINE
  5
F85
330
A
100
AcDbEntity
  8
waku
100
AcDbLine
 10
176.625
 20
27.95000000000007
 30
0.0
 11
176.625
 21
5.950000000000073
 31
0.0
  0
LINE
  5
F8A
330
A
100
AcDbEntity
  8
waku
100
AcDbLine
 10
152.625
 20
12.45000000000007
 30
0.0
 11
160.125
 21
12.45000000000007
 31
0.0
  0
LINE
  5
F8B
330
A
100
AcDbEntity
  8
waku
100
AcDbLine
 10
160.125
 20
27.95000000000007
 30
0.0
 11
160.125
 21
5.950000000000073
 31
0.0
  0
LINE
  5
F8D
330
A
100
AcDbEntity
  8
waku
100
AcDbLine
 10
152.625
 20
23.20000000000007
 30
0.0
 11
167.625
 21
23.20000000000007
 31
0.0
  0
LINE
  5
F8E
330
A
100
AcDbEntity
  8
waku
100
AcDbLine
 10
152.625
 20
16.95000000000007
 30
0.0
 11
167.625
 21
16.95000000000007
 31
0.0
  0
LINE
  5
F8F
330
A
100
AcDbEntity
  8
waku
100
AcDbLine
 10
152.625
 20
14.70000000000007
 30
0.0
 11
167.625
 21
14.70000000000007
 31
0.0
  0
LINE
  5
F91
330
A
100
AcDbEntity
  8
waku
100
AcDbLine
 10
167.625
 20
25.45000000000007
 30
0.0
 11
152.625
 21
25.45000000000007
 31
0.0
  0
TEXT
  5
F92
330
A
100
AcDbEntity
  8
moji
100
AcDbText
 10
154.3541666666667
 20
12.95000000000007
 30
0.0
 40
1.25
  1
'  .  .
  7
スタイル2
 72
     4
 11
156.375
 21
13.57500000000007
 31
0.0
100
AcDbText
  0
TEXT
  5
F93
330
A
100
AcDbEntity
  8
moji
100
AcDbText
 10
162.8083333333333
 20
9.525000000000074
 30
0.0
 40
1.6
  1
1:1
  7
スタイル2
 72
     4
 11
163.875
 21
10.32500000000007
 31
0.0
100
AcDbText
  0
TEXT
  5
F9D
330
A
100
AcDbEntity
  8
moji
100
AcDbText
 10
161.8541666666667
 20
23.70000000000008
 30
0.0
 40
1.25
  1
'  .  .
  7
スタイル2
 72
     4
 11
163.875
 21
24.32500000000008
 31
0.0
100
AcDbText
  0
TEXT
  5
F9E
330
A
100
AcDbEntity
  8
moji
100
AcDbText
 10
154.3541666666667
 20
23.70000000000008
 30
0.0
 40
1.25
  1
'  .  .
  7
スタイル2
 72
     4
 11
156.375
 21
24.32500000000008
 31
0.0
100
AcDbText
  0
LWPOLYLINE
  5
FE4
330
A
100
AcDbEntity
  8
Defpoints
100
AcDbPolyline
 90
        4
 70
     1
 43
0.0
 10
0.0
 20
0.0
 10
210.0
 20
0.0
 10
210.0
 20
148.5
 10
0.0
 20
148.5
  0
LWPOLYLINE
  5
FE5
330
A
100
AcDbEntity
  8
waku
100
AcDbPolyline
 90
        4
 70
     1
 43
0.0
 10
8.124999999999971
 20
142.5499999999999
 10
201.875
 20
142.5499999999999
 10
201.875
 20
5.950000000000073
 10
8.124999999999971
 20
5.950000000000073
  0
LWPOLYLINE
  5
FE6
330
A
100
AcDbEntity
  8
waku
100
AcDbPolyline
 90
        4
 70
     1
 43
0.0
 10
152.625
 20
27.95000000000007
 10
201.875
 20
27.95000000000007
 10
201.875
 20
5.950000000000073
 10
152.625
 20
5.950000000000073
  0
TEXT
  5
FE7
330
A
100
AcDbEntity
  8
moji
100
AcDbText
 10
181.4833333333333
 20
16.82500000000007
 30
0.0
 40
2.0
  1
φ50ニップル
  7
スタイル2
 72
     4
 11
189.25
 21
17.82500000000007
 31
0.0
100
AcDbText
  0
TEXT
  5
FE8
330
A
100
AcDbEntity
  8
moji
100
AcDbText
 10
183.1166666666667
 20
24.15000000000008
 30
0.0
 40
1.6
  1
ES-TMS-2
  7
スタイル2
 72
     4
 11
189.25
 21
24.95000000000008
 31
0.0
100
AcDbText
  0
TEXT
  5
FE9
330
A
100
AcDbEntity
  8
moji
100
AcDbText
 10
197.4166666666667
 20
12.07500000000007
 30
0.0
 40
1.25
  1
訂 番
  7
スタイル2
 72
     4
 11
199.125
 21
12.70000000000007
 31
0.0
100
AcDbText
  0
TEXT
  5
FEA
330
A
100
AcDbEntity
  8
moji
100
AcDbText
 10
168.1575
 20
7.312500000000073
 30
0.0
 40
1.149999999999999
  1
PARTCODE
 41
0.9
  7
スタイル2
 72
     4
 11
172.125
 21
7.887500000000073
 31
0.0
100
AcDbText
  0
TEXT
  5
FEB
330
A
100
AcDbEntity
  8
moji
100
AcDbText
 10
168.905
 20
11.18750000000007
 30
0.0
 40
1.149999999999999
  1
部品コード
  7
スタイル2
 72
     4
 11
172.125
 21
11.76250000000007
 31
0.0
100
AcDbText
  0
TEXT
  5
FEC
330
A
100
AcDbEntity
  8
moji
100
AcDbText
 10
168.1575
 20
15.18750000000007
 30
0.0
 40
1.149999999999999
  1
PARTNAME
 41
0.9
  7
スタイル2
 72
     4
 11
172.125
 21
15.76250000000007
 31
0.0
100
AcDbText
  0
TEXT
  5
FED
330
A
100
AcDbEntity
  8
moji
100
AcDbText
 10
170.2466666666667
 20
19.31250000000007
 30
0.0
 40
1.149999999999999
  1
部品名
  7
スタイル2
 72
     4
 11
172.125
 21
19.88750000000007
 31
0.0
100
AcDbText
  0
TEXT
  5
FEE
330
A
100
AcDbEntity
  8
moji
100
AcDbText
 10
167.985
 20
22.87500000000008
 30
0.0
 40
1.149999999999999
  1
PROD.MARK
 41
0.9
  7
スタイル2
 72
     4
 11
172.125
 21
23.45000000000007
 31
0.0
100
AcDbText
  0
TEXT
  5
FEF
330
A
100
AcDbEntity
  8
moji
100
AcDbText
 10
170.2466666666667
 20
25.87500000000007
 30
0.0
 40
1.149999999999999
  1
商品名
  7
スタイル2
 72
     4
 11
172.125
 21
26.45000000000008
 31
0.0
100
AcDbText
  0
TEXT
  5
FF1
330
A
100
AcDbEntity
  8
moji
100
AcDbText
 10
162.5416666666667
 20
15.20000000000007
 30
0.0
 40
1.25
  1
尺度
  7
スタイル2
 72
     4
 11
163.875
 21
15.82500000000007
 31
0.0
100
AcDbText
  0
TEXT
  5
FF2
330
A
100
AcDbEntity
  8
moji
100
AcDbText
 10
153.525
 20
26.07500000000007
 30
0.0
 40
1.25
  1
検図CHK
 41
0.9
  7
スタイル2
 72
     4
 11
156.375
 21
26.70000000000007
 31
0.0
100
AcDbText
  0
TEXT
  5
FF4
330
A
100
AcDbEntity
  8
moji
100
AcDbText
 10
160.4625
 20
26.07500000000007
 30
0.0
 40
1.25
  1
承認APPD
 41
0.9
  7
スタイル2
 72
     4
 11
163.875
 21
26.70000000000007
 31
0.0
100
AcDbText
  0
TEXT
  5
FF5
330
A
100
AcDbEntity
  8
moji
100
AcDbText
 10
152.9625
 20
15.20000000000007
 30
0.0
 40
1.25
  1
作成DFTG
 41
0.9
  7
スタイル2
 72
     4
 11
156.375
 21
15.82500000000007
 31
0.0
100
AcDbText
  0
LWPOLYLINE
  5
1119
330
A
100
AcDbEntity
  8
waku
100
AcDbPolyline
 90
        4
 70
     1
 43
0.0
 10
7.624999999999971
 20
143.0499999999999
 10
202.3750000000001
 20
143.0499999999999
 10
202.375
 20
5.450000000000073
 10
7.624999999999943
 20
5.450000000000073
  0
LWPOLYLINE
  5
111A
330
A
100
AcDbEntity
  8
waku
100
AcDbPolyline
 90
        4
 70
     1
 43
0.0
 10
7.874999999999971
 20
142.7999999999999
 10
202.125
 20
142.7999999999999
 10
202.125
 20
5.700000000000102
 10
7.874999999999971
 20
5.700000000000073
  0
LWPOLYLINE
  5
117A
330
A
100
AcDbEntity
  8
1
100
AcDbPolyline
 90
        4
 70
     1
 43
0.0
 10
107.4489795918367
 20
50.25
 10
132.4489795918367
 20
50.25
 10
132.4489795918367
 20
98.25000000000001
 10
107.4489795918367
 20
98.25000000000001
  0
ARC
  5
117B
330
A
100
AcDbEntity
  8
1
100
AcDbCircle
 10
105.0
 20
95.6785714285715
 30
0.0
 40
3.551020408163224
100
AcDbArc
 50
46.39718102729576
 51
133.6028189727042
  0
LWPOLYLINE
  5
117D
330
A
100
AcDbEntity
  8
1
100
AcDbPolyline
 90
        4
 70
     1
 43
0.0
 10
102.5510204081632
 20
50.25
 10
77.55102040816325
 20
50.25
 10
77.55102040816325
 20
98.25000000000001
 10
102.5510204081632
 20
98.25000000000001
  0
ARC
  5
117E
330
A
100
AcDbEntity
  8
1
100
AcDbCircle
 10
105.0
 20
52.8214285714285
 30
0.0
 40
3.551020408163224
100
AcDbArc
 50
226.3971810272958
 51
313.6028189727043
  0
LINE
  5
117F
330
A
100
AcDbEntity
  8
senter
100
AcDbLine
 10
105.0
 20
104.2295918367347
 30
0.0
 11
105.0
 21
44.2704081632653
 31
0.0
  0
LINE
  5
1180
330
A
100
AcDbEntity
  8
senter
100
AcDbLine
 10
72.55102040816325
 20
74.25
 30
0.0
 11
137.4489795918367
 21
74.25
 31
0.0
  0
DIMENSION
  5
1181
330
A
100
AcDbEntity
  8
dim
100
AcDbDimension
  2
*D14
 10
141.3073564877775
 20
50.25
 30
0.0
 11
139.3599133059593
 21
74.25000000000001
 31
0.0
 70
    32
  1
φ<>（外径）
 71
     5
 42
48.0
  3
1-2
100
AcDbAlignedDimension
 13
132.4489795918367
 23
98.25000000000001
 33
0.0
 14
132.4489795918367
 24
50.25
 34
0.0
 50
90.0
100
AcDbRotatedDimension
  0
DIMENSION
  5
1182
330
A
100
AcDbEntity
  8
dim
100
AcDbDimension
  2
*D15
 10
132.4489795918367
 20
41.39162310405924
 30
0.0
 11
119.9489795918367
 21
42.89162310405925
 31
0.0
 70
    32
 71
     5
 42
24.99999999999997
  3
1-2
100
AcDbAlignedDimension
 13
107.4489795918367
 23
50.25
 33
0.0
 14
132.4489795918367
 24
50.25
 34
0.0
100
AcDbRotatedDimension
  0
MTEXT
  5
1298
330
A
100
AcDbEntity
  8
dim
100
AcDbMText
 10
168.2784834741225
 20
42.89162310405925
 30
0.0
 40
2.5
 41
0.0
 71
     5
 72
     1
  1
亜鉛鉄板　{\fArial|b0|i0|c0|p32;t=0.5}
  7
スタイル1
 73
     1
 44
1.0
1001
ACAD
1000
MTEXTBEGIN
1070
    73
1070
     1
1070
    44
1040
1.0
1070
    74
1070
     0
1000
MTEXTEND
  0
ENDSEC
  0
SECTION
  2
OBJECTS
  0
DICTIONARY
  5
19
330
0
100
AcDbDictionary
281
     1
  3
ACAD_COLOR
350
F09
  3
ACAD_GROUP
350
1A
  3
ACAD_LAYOUT
350
F0A
  3
ACAD_MATERIAL
350
F08
  3
ACAD_MLINESTYLE
350
1B
  3
ACAD_PLOTSETTINGS
350
F0B
  3
ACAD_PLOTSTYLENAME
350
F06
  3
ACDBHEADERROUNDTRIPXREC
350
12A0
  3
AcDbVariableDictionary
350
114B
  0
DICTIONARY
  5
F09
102
{ACAD_REACTORS
330
19
102
}
330
19
100
AcDbDictionary
281
     1
  0
DICTIONARY
  5
1A
102
{ACAD_REACTORS
330
19
102
}
330
19
100
AcDbDictionary
281
     1
  0
DICTIONARY
  5
F0A
102
{ACAD_REACTORS
330
19
102
}
330
19
100
AcDbDictionary
281
     1
  3
Model
350
F0C
  3
レイアウト1
350
F0D
  0
DICTIONARY
  5
F08
102
{ACAD_REACTORS
330
19
102
}
330
19
100
AcDbDictionary
281
     1
  0
DICTIONARY
  5
1B
102
{ACAD_REACTORS
330
19
102
}
330
19
100
AcDbDictionary
281
     1
  3
STANDARD
350
1C
  0
DICTIONARY
  5
F0B
102
{ACAD_REACTORS
330
19
102
}
330
19
100
AcDbDictionary
281
     1
  0
ACDBDICTIONARYWDFLT
  5
F06
102
{ACAD_REACTORS
330
19
102
}
330
19
100
AcDbDictionary
281
     1
  3
Normal
350
F07
100
AcDbDictionaryWithDefault
340
F07
  0
DICTIONARY
  5
12A0
102
{ACAD_REACTORS
330
19
102
}
330
19
100
AcDbDictionary
281
     1
  3
COLORDICT
350
12A2
  3
MATERIALDICT
350
12A1
  0
DICTIONARY
  5
114B
102
{ACAD_REACTORS
330
19
102
}
330
19
100
AcDbDictionary
281
     1
  3
DIMASSOC
350
114C
  3
PROJECTNAME
350
114D
  0
LAYOUT
  5
F0C
102
{ACAD_XDICTIONARY
360
12A3
102
}
102
{ACAD_REACTORS
330
F0A
102
}
330
F0A
100
AcDbPlotSettings
  1

  2
クセロPDF2.pc3
  4
A3
  6

 40
3.174999952316284
 41
3.174999952316284
 42
3.17498779296875
 43
3.17498779296875
 44
419.9466552734374
 45
296.9259948730469
 46
-3.2
 47
-3.209999999999999
 48
0.0
 49
0.0
140
210.0
141
148.5
142
1.0
143
0.5
 70
 11940
 72
     1
 73
     0
 74
     4
  7
dakuto.ctb
 75
     0
147
2.0
148
0.0
149
0.0
100
AcDbLayout
  1
Model
 70
     1
 71
     0
 10
0.0
 20
0.0
 11
12.0
 21
9.0
 12
0.0
 22
0.0
 32
0.0
 14
0.0
 24
0.0
 34
0.0
 15
0.0
 25
0.0
 35
0.0
146
0.0
 13
0.0
 23
0.0
 33
0.0
 16
1.0
 26
0.0
 36
0.0
 17
0.0
 27
1.0
 37
0.0
 76
     0
330
A
  0
LAYOUT
  5
F0D
102
{ACAD_XDICTIONARY
360
12A5
102
}
102
{ACAD_REACTORS
330
F0A
102
}
330
F0A
100
AcDbPlotSettings
  1

  2
Microsoft Office Document Image Writer
  4

  6

 40
0.0
 41
0.0
 42
0.0
 43
0.0
 44
0.0
 45
0.0
 46
0.0
 47
0.0
 48
0.0
 49
0.0
140
0.0
141
0.0
142
1.0
143
1.0
 70
   688
 72
     0
 73
     0
 74
     5
  7
C:\Documents and Settings\s8000910\Application Data\Autodesk\AutoCAD LT 2004\R9\jpn\Plot Styles\dakuto.ctb
 75
    16
147
1.0
148
0.0
149
0.0
100
AcDbLayout
  1
レイアウト1
 70
     0
 71
     1
 10
0.0
 20
0.0
 11
12.0
 21
9.0
 12
0.0
 22
0.0
 32
0.0
 14
1.000000000000000E+20
 24
1.000000000000000E+20
 34
1.000000000000000E+20
 15
-1.000000000000000E+20
 25
-1.000000000000000E+20
 35
-1.000000000000000E+20
146
0.0
 13
0.0
 23
0.0
 33
0.0
 16
1.0
 26
0.0
 36
0.0
 17
0.0
 27
1.0
 37
0.0
 76
     0
330
B
  0
MLINESTYLE
  5
1C
102
{ACAD_REACTORS
330
1B
102
}
330
1B
100
AcDbMlineStyle
  2
STANDARD
 70
     0
  3

 62
     0
 51
90.0
 52
90.0
 71
     2
 49
0.5
 62
   256
  6
BYLAYER
 49
-0.5
 62
   256
  6
BYLAYER
  0
ACDBPLACEHOLDER
  5
F07
102
{ACAD_REACTORS
330
F06
102
}
330
F06
  0
XRECORD
  5
12A2
102
{ACAD_REACTORS
330
12A0
102
}
330
12A0
100
AcDbXrecord
280
     1
340
F09
  0
XRECORD
  5
12A1
102
{ACAD_REACTORS
330
12A0
102
}
330
12A0
100
AcDbXrecord
280
     1
340
F08
  0
DICTIONARYVAR
  5
114C
102
{ACAD_REACTORS
330
114B
102
}
330
114B
100
DictionaryVariables
280
     0
  1
1
  0
DICTIONARYVAR
  5
114D
102
{ACAD_REACTORS
330
114B
102
}
330
114B
100
DictionaryVariables
280
     0
  1

  0
DICTIONARY
  5
12A3
330
F0C
100
AcDbDictionary
280
     1
281
     1
  3
ACAD_XREC_ROUNDTRIP
360
12A4
  0
DICTIONARY
  5
12A5
330
F0D
100
AcDbDictionary
280
     1
281
     1
  3
ACAD_XREC_ROUNDTRIP
360
12A6
  0
XRECORD
  5
12A4
102
{ACAD_REACTORS
330
12A3
102
}
330
12A3
100
AcDbXrecord
280
     1
102
SHADEPLOT
 70
     0
102
SHADEPLOTRESLEVEL
 70
     2
102
SHADEPLOTCUSTOMDPI
 70
   150
  0
XRECORD
  5
12A6
102
{ACAD_REACTORS
330
12A5
102
}
330
12A5
100
AcDbXrecord
280
     1
102
SHADEPLOT
 70
     0
102
SHADEPLOTRESLEVEL
 70
     2
102
SHADEPLOTCUSTOMDPI
 70
   300
  0
ENDSEC
  0
EOF
